  0
SECTION
  2
HEADER
  9
$ACADVER
  1
AC1014
  9
$ACADMAINTVER
 70
     0
  9
$DWGCODEPAGE
  3
DOS932
  9
$INSBASE
 10
0.0
 20
0.0
 30
0.0
  9
$EXTMIN
 10
0.0
 20
0.0
 30
0.0
  9
$EXTMAX
 10
1485.0
 20
1050.0
 30
0.0
  9
$LIMMIN
 10
0.0
 20
0.0
  9
$LIMMAX
 10
1485.0
 20
1050.0
  9
$ORTHOMODE
 70
     0
  9
$REGENMODE
 70
     1
  9
$FILLMODE
 70
     1
  9
$QTEXTMODE
 70
     0
  9
$MIRRTEXT
 70
     1
  9
$DRAGMODE
 70
     2
  9
$LTSCALE
 40
1.25
  9
$OSMODE
 70
     0
  9
$ATTMODE
 70
     1
  9
$TEXTSIZE
 40
15.0
  9
$TRACEWID
 40
0.05
  9
$TEXTSTYLE
  7
STANDARD
  9
$CLAYER
  8
0
  9
$CELTYPE
  6
CONTINUOUS
  9
$CECOLOR
 62
   256
  9
$CELTSCALE
 40
1.0
  9
$DELOBJ
 70
     1
  9
$DISPSILH
 70
     0
  9
$DIMSCALE
 40
5.0
  9
$DIMASZ
 40
2.0
  9
$DIMEXO
 40
1.0
  9
$DIMDLI
 40
5.0
  9
$DIMRND
 40
0.0
  9
$DIMDLE
 40
0.0
  9
$DIMEXE
 40
1.0
  9
$DIMTP
 40
0.0
  9
$DIMTM
 40
0.0
  9
$DIMTXT
 40
3.0
  9
$DIMCEN
 40
0.09
  9
$DIMTSZ
 40
0.0
  9
$DIMTOL
 70
     0
  9
$DIMLIM
 70
     0
  9
$DIMTIH
 70
     0
  9
$DIMTOH
 70
     0
  9
$DIMSE1
 70
     0
  9
$DIMSE2
 70
     0
  9
$DIMTAD
 70
     3
  9
$DIMZIN
 70
     0
  9
$DIMBLK
  1
_OPEN
  9
$DIMASO
 70
     1
  9
$DIMSHO
 70
     1
  9
$DIMPOST
  1

  9
$DIMAPOST
  1

  9
$DIMALT
 70
     0
  9
$DIMALTD
 70
     2
  9
$DIMALTF
 40
25.4
  9
$DIMLFAC
 40
1.0
  9
$DIMTOFL
 70
     1
  9
$DIMTVP
 40
0.7
  9
$DIMTIX
 70
     0
  9
$DIMSOXD
 70
     0
  9
$DIMSAH
 70
     0
  9
$DIMBLK1
  1
_OPEN
  9
$DIMBLK2
  1
_OPEN
  9
$DIMSTYLE
  2
STANDARD
  9
$DIMCLRD
 70
     0
  9
$DIMCLRE
 70
     0
  9
$DIMCLRT
 70
     0
  9
$DIMTFAC
 40
0.5
  9
$DIMGAP
 40
0.0
  9
$DIMJUST
 70
     0
  9
$DIMSD1
 70
     0
  9
$DIMSD2
 70
     0
  9
$DIMTOLJ
 70
     1
  9
$DIMTZIN
 70
     0
  9
$DIMALTZ
 70
     0
  9
$DIMALTTZ
 70
     0
  9
$DIMFIT
 70
     3
  9
$DIMUPT
 70
     0
  9
$DIMUNIT
 70
     2
  9
$DIMDEC
 70
     2
  9
$DIMTDEC
 70
     4
  9
$DIMALTU
 70
     2
  9
$DIMALTTD
 70
     2
  9
$DIMTXSTY
  7
STANDARD
  9
$DIMAUNIT
 70
     0
  9
$LUNITS
 70
     2
  9
$LUPREC
 70
     4
  9
$SKETCHINC
 40
0.1
  9
$FILLETRAD
 40
0.0
  9
$AUNITS
 70
     0
  9
$AUPREC
 70
     0
  9
$MENU
  1
acad
  9
$ELEVATION
 40
0.0
  9
$PELEVATION
 40
0.0
  9
$THICKNESS
 40
0.0
  9
$LIMCHECK
 70
     0
  9
$BLIPMODE
 70
     1
  9
$CHAMFERA
 40
0.0
  9
$CHAMFERB
 40
0.0
  9
$CHAMFERC
 40
0.0
  9
$CHAMFERD
 40
0.0
  9
$SKPOLY
 70
     0
  9
$TDCREATE
 40
2451498.633055556
  9
$TDUPDATE
 40
2451498.633055556
  9
$TDINDWG
 40
0.0000000000
  9
$TDUSRTIMER
 40
0.0000000000
  9
$USRTIMER
 70
     1
  9
$ANGBASE
 50
0.0
  9
$ANGDIR
 70
     0
  9
$PDMODE
 70
     0
  9
$PDSIZE
 40
0.0
  9
$PLINEWID
 40
0.0
  9
$COORDS
 70
     0
  9
$SPLFRAME
 70
     0
  9
$SPLINETYPE
 70
     6
  9
$SPLINESEGS
 70
     8
  9
$ATTDIA
 70
     0
  9
$ATTREQ
 70
     1
  9
$HANDLING
 70
     1
  9
$HANDSEED
  5
563
  9
$SURFTAB1
 70
     6
  9
$SURFTAB2
 70
     6
  9
$SURFTYPE
 70
     6
  9
$SURFU
 70
     6
  9
$SURFV
 70
     6
  9
$UCSNAME
  2

  9
$UCSORG
 10
0.0
 20
0.0
 30
0.0
  9
$UCSXDIR
 10
1.0
 20
0.0
 30
0.0
  9
$UCSYDIR
 10
0.0
 20
1.0
 30
0.0
  9
$PUCSNAME
  2

  9
$PUCSORG
 10
0.0
 20
0.0
 30
0.0
  9
$PUCSXDIR
 10
1.0
 20
0.0
 30
0.0
  9
$PUCSYDIR
 10
0.0
 20
1.0
 30
0.0
  9
$USERI1
 70
     0
  9
$USERI2
 70
     0
  9
$USERI3
 70
     0
  9
$USERI4
 70
     0
  9
$USERI5
 70
     0
  9
$USERR1
 40
0.0
  9
$USERR2
 40
0.0
  9
$USERR3
 40
0.0
  9
$USERR4
 40
0.0
  9
$USERR5
 40
0.0
  9
$WORLDVIEW
 70
     1
  9
$SHADEDGE
 70
     3
  9
$SHADEDIF
 70
    70
  9
$TILEMODE
 70
     1
  9
$MAXACTVP
 70
    16
  9
$PINSBASE
 10
0.0
 20
0.0
 30
0.0
  9
$PLIMCHECK
 70
     0
  9
$PEXTMIN
 10
0.0
 20
0.0
 30
0.0
  9
$PEXTMAX
 10
297.0
 20
210.0
 30
0.0
  9
$PLIMMIN
 10
0.0
 20
0.0
  9
$PLIMMAX
 10
297.0
 20
210.0
  9
$UNITMODE
 70
     0
  9
$VISRETAIN
 70
     0
  9
$PLINEGEN
 70
     1
  9
$PSLTSCALE
 70
     0
  9
$TREEDEPTH
 70
  3020
  9
$PICKSTYLE
 70
     1
  9
$CMLSTYLE
  2
STANDARD
  9
$CMLJUST
 70
     0
  9
$CMLSCALE
 40
1.0
  9
$PROXYGRAPHICS
 70
     0
  9
$MEASUREMENT
 70
     0
  0
ENDSEC
  0
SECTION
  2
CLASSES
  0
CLASS
  1
LWPOLYLINE
  2
AcDbPolyline
  3
"AutoCAD"
 90
        0
280
     0
281
     1
  0
CLASS
  1
IMAGE
  2
AcDbRasterImage
  3
ISM
 90
      127
280
     0
281
     1
  0
CLASS
  1
OLE2FRAME
  2
AcDbOle2Frame
  3
""
 90
        0
280
     0
281
     1
  0
CLASS
  1
HATCH
  2
AcDbHatch
  3
"ACAD_SEDONA"
 90
        0
280
     0
281
     1
  0
CLASS
  1
DICTIONARYVAR
  2
AcDbDictionaryVar
  3
"AutoCAD"
 90
        0
280
     0
281
     0
  0
CLASS
  1
RASTERVARIABLES
  2
AcDbRasterVariables
  3
ISM
 90
        0
280
     0
281
     0
  0
CLASS
  1
IMAGEDEF
  2
AcDbRasterImageDef
  3
ISM
 90
        0
280
     0
281
     0
  0
CLASS
  1
IMAGEDEF_REACTOR
  2
AcDbRasterImageDefReactor
  3
ISM
 90
        1
280
     0
281
     0
  0
CLASS
  1
IDBUFFER
  2
AcDbIdBuffer
  3
"Acad"
 90
        0
280
     0
281
     0
  0
CLASS
  1
SPATIAL_FILTER
  2
AcDbSpatialFilter
  3
"Acad"
 90
        0
280
     0
281
     0
  0
CLASS
  1
XRECORD
  2
AcDbXrecord
  3
"<Built In>"
 90
        0
280
     0
281
     0
  0
CLASS
  1
SORTENTSTABLE
  2
AcDbSortentsTable
  3
"AutoCAD"
 90
        0
280
     0
281
     0
  0
CLASS
  1
LAYER_INDEX
  2
AcDbLayerIndex
  3
"Acad"
 90
        0
280
     0
281
     0
  0
CLASS
  1
SPATIAL_INDEX
  2
AcDbSpatialIndex
  3
"Acad"
 90
        0
280
     0
281
     0
  0
CLASS
  1
OBJECT_PTR
  2
CAseDLPNTableRecord
  3
"ASE-LPNTableRecord"
 90
        1
280
     0
281
     0
  0
ENDSEC
  0
SECTION
  2
TABLES
  0
TABLE
  2
VPORT
  5
7
100
AcDbSymbolTable
 70
     1
  0
VPORT
  5
15
100
AcDbSymbolTableRecord
100
AcDbViewportTableRecord
  2
*ACTIVE
 70
     0
 10
0.0
 20
0.0
 11
1.0
 21
1.0
 12
6.591288
 22
4.579184
 13
0.0
 23
0.0
 14
1.0
 24
1.0
 15
0.0
 25
0.0
 16
0.0
 26
0.0
 36
1.0
 17
0.0
 27
0.0
 37
0.0
 40
9.158369
 41
0.688564
 42
50.0
 43
0.0
 44
0.0
 50
0.0
 51
0.0
 71
     0
 72
   100
 73
     1
 74
     1
 75
     0
 76
     0
 77
     0
 78
     0
  0
ENDTAB
  0
TABLE
  2
LTYPE
  5
4
100
AcDbSymbolTable
 70
     7
  0
LTYPE
  5
11
100
AcDbSymbolTableRecord
100
AcDbLinetypeTableRecord
  2
BYBLOCK
 70
     0
  3

 72
    65
 73
     0
 40
0.0
  0
LTYPE
  5
12
100
AcDbSymbolTableRecord
100
AcDbLinetypeTableRecord
  2
BYLAYER
 70
     0
  3

 72
    65
 73
     0
 40
0.0
  0
LTYPE
  5
13
100
AcDbSymbolTableRecord
100
AcDbLinetypeTableRecord
  2
CONTINUOUS
 70
     0
  3
Solid line
 72
    65
 73
     0
 40
0.0
  0
LTYPE
  5
1D
100
AcDbSymbolTableRecord
100
AcDbLinetypeTableRecord
  2
HIDDEN
 70
     0
  3
- - - - - - - - 
 72
    65
 73
     2
 40
12.6
 49
8.4
 74
     0
 49
-4.2
 74
     0
  0
LTYPE
  5
1E
100
AcDbSymbolTableRecord
100
AcDbLinetypeTableRecord
  2
DOT
 70
     0
  3
･ ･ ･ ･ ･ ･ ･ ･ 
 72
    65
 73
     2
 40
8.0
 49
6.0
 74
     0
 49
-2.0
 74
     0
  0
LTYPE
  5
1F
100
AcDbSymbolTableRecord
100
AcDbLinetypeTableRecord
  2
CENTER
 70
     0
  3
- ･ - ･ - ･ - ･ 
 72
    65
 73
     4
 40
50.5
 49
30.0
 74
     0
 49
-9.0
 74
     0
 49
2.5
 74
     0
 49
-9.0
 74
     0
  0
LTYPE
  5
20
100
AcDbSymbolTableRecord
100
AcDbLinetypeTableRecord
  2
PHANTOM
 70
     0
  3
- ･･ - ･･ - ･･ - ･･ 
 72
    65
 73
     6
 40
58.0
 49
30.0
 74
     0
 49
-9.0
 74
     0
 49
2.5
 74
     0
 49
-5.0
 74
     0
 49
2.5
 74
     0
 49
-9.0
 74
     0
  0
ENDTAB
  0
TABLE
  2
LAYER
  5
2
100
AcDbSymbolTable
 70
    24
  0
LAYER
  5
14
100
AcDbSymbolTableRecord
100
AcDbLayerTableRecord
  2
0
 70
     0
 62
     7
  6
CONTINUOUS
  0
LAYER
  5
21
100
AcDbSymbolTableRecord
100
AcDbLayerTableRecord
  2
1
 70
     0
 62
     4
  6
CONTINUOUS
  0
LAYER
  5
22
100
AcDbSymbolTableRecord
100
AcDbLayerTableRecord
  2
2
 70
     0
 62
     3
  6
CONTINUOUS
  0
LAYER
  5
23
100
AcDbSymbolTableRecord
100
AcDbLayerTableRecord
  2
3
 70
     0
 62
     2
  6
CONTINUOUS
  0
LAYER
  5
24
100
AcDbSymbolTableRecord
100
AcDbLayerTableRecord
  2
4
 70
     0
 62
    21
  6
CONTINUOUS
  0
LAYER
  5
25
100
AcDbSymbolTableRecord
100
AcDbLayerTableRecord
  2
5
 70
     0
 62
     5
  6
CONTINUOUS
  0
LAYER
  5
26
100
AcDbSymbolTableRecord
100
AcDbLayerTableRecord
  2
6
 70
     0
 62
    51
  6
CONTINUOUS
  0
LAYER
  5
27
100
AcDbSymbolTableRecord
100
AcDbLayerTableRecord
  2
7
 70
     0
 62
     4
  6
CONTINUOUS
  0
LAYER
  5
28
100
AcDbSymbolTableRecord
100
AcDbLayerTableRecord
  2
8
 70
     0
 62
     6
  6
CONTINUOUS
  0
LAYER
  5
29
100
AcDbSymbolTableRecord
100
AcDbLayerTableRecord
  2
9
 70
     0
 62
     2
  6
CONTINUOUS
  0
LAYER
  5
2A
100
AcDbSymbolTableRecord
100
AcDbLayerTableRecord
  2
10
 70
     0
 62
     3
  6
CONTINUOUS
  0
LAYER
  5
2B
100
AcDbSymbolTableRecord
100
AcDbLayerTableRecord
  2
11
 70
     0
 62
   251
  6
CONTINUOUS
  0
LAYER
  5
2C
100
AcDbSymbolTableRecord
100
AcDbLayerTableRecord
  2
12
 70
     0
 62
   136
  6
CONTINUOUS
  0
LAYER
  5
2D
100
AcDbSymbolTableRecord
100
AcDbLayerTableRecord
  2
13
 70
     0
 62
   216
  6
CONTINUOUS
  0
LAYER
  5
2E
100
AcDbSymbolTableRecord
100
AcDbLayerTableRecord
  2
14
 70
     0
 62
    56
  6
CONTINUOUS
  0
LAYER
  5
2F
100
AcDbSymbolTableRecord
100
AcDbLayerTableRecord
  2
15
 70
     0
 62
    96
  6
CONTINUOUS
  0
LAYER
  5
30
100
AcDbSymbolTableRecord
100
AcDbLayerTableRecord
  2
16
 70
     0
 62
    16
  6
CONTINUOUS
  0
LAYER
  5
31
100
AcDbSymbolTableRecord
100
AcDbLayerTableRecord
  2
17
 70
     0
 62
   132
  6
CONTINUOUS
  0
LAYER
  5
32
100
AcDbSymbolTableRecord
100
AcDbLayerTableRecord
  2
18
 70
     0
 62
   212
  6
CONTINUOUS
  0
LAYER
  5
33
100
AcDbSymbolTableRecord
100
AcDbLayerTableRecord
  2
19
 70
     0
 62
    52
  6
CONTINUOUS
  0
LAYER
  5
34
100
AcDbSymbolTableRecord
100
AcDbLayerTableRecord
  2
20
 70
     0
 62
   250
  6
CONTINUOUS
  0
LAYER
  5
35
100
AcDbSymbolTableRecord
100
AcDbLayerTableRecord
  2
97
 70
     0
 62
     7
  6
CONTINUOUS
  0
LAYER
  5
36
100
AcDbSymbolTableRecord
100
AcDbLayerTableRecord
  2
98
 70
     0
 62
     6
  6
CONTINUOUS
  0
LAYER
  5
37
100
AcDbSymbolTableRecord
100
AcDbLayerTableRecord
  2
128
 70
     0
 62
     7
  6
CONTINUOUS
  0
ENDTAB
  0
TABLE
  2
STYLE
  5
3
100
AcDbSymbolTable
 70
     1
  0
STYLE
  5
17
100
AcDbSymbolTableRecord
100
AcDbTextStyleTableRecord
  2
STANDARD
 70
     0
 40
0.0
 41
1.0
 50
0.0
 71
     0
 42
0.0
  3
txt
  4
bigfont
  0
ENDTAB
  0
TABLE
  2
VIEW
  5
5
100
AcDbSymbolTable
 70
     0
  0
ENDTAB
  0
TABLE
  2
UCS
  5
6
100
AcDbSymbolTable
 70
     0
  0
ENDTAB
  0
TABLE
  2
APPID
  5
8
100
AcDbSymbolTable
 70
     1
  0
APPID
  5
16
100
AcDbSymbolTableRecord
100
AcDbRegAppTableRecord
  2
ACAD
 70
     0
  0
ENDTAB
  0
TABLE
  2
DIMSTYLE
  5
9
100
AcDbSymbolTable
 70
     1
  0
DIMSTYLE
105
18
100
AcDbSymbolTableRecord
100
AcDbDimStyleTableRecord
  2
STANDARD
 70
     0
  3

  4

  5

  6

  7

 40
1.0
 41
0.18
 42
0.0625
 43
0.38
 44
0.18
 45
0.0
 46
0.0
 47
0.0
 48
0.0
140
0.18
141
0.09
142
0.0
143
25.4
144
1.0
145
0.0
146
1.0
147
0.09
 71
     0
 72
     0
 73
     1
 74
     1
 75
     0
 76
     0
 77
     0
 78
     0
170
     0
171
     2
172
     0
173
     0
174
     0
175
     0
176
     0
177
     0
178
     0
270
     2
271
     4
272
     4
273
     2
274
     2
340
17
275
     0
280
     0
281
     0
282
     0
283
     1
284
     0
285
     0
286
     0
287
     0
288
     0
  0
ENDTAB
  0
TABLE
  2
BLOCK_RECORD
  5
1
100
AcDbSymbolTable
 70
    52
  0
BLOCK_RECORD
  5
A
100
AcDbSymbolTableRecord
100
AcDbBlockTableRecord
  2
*MODEL_SPACE
  0
BLOCK_RECORD
  5
B
100
AcDbSymbolTableRecord
100
AcDbBlockTableRecord
  2
*PAPER_SPACE
  0
BLOCK_RECORD
  5
68
100
AcDbSymbolTableRecord
100
AcDbBlockTableRecord
  2
*G0
  0
BLOCK_RECORD
  5
71
100
AcDbSymbolTableRecord
100
AcDbBlockTableRecord
  2
*G1
  0
BLOCK_RECORD
  5
7B
100
AcDbSymbolTableRecord
100
AcDbBlockTableRecord
  2
*G2
  0
BLOCK_RECORD
  5
85
100
AcDbSymbolTableRecord
100
AcDbBlockTableRecord
  2
*G3
  0
BLOCK_RECORD
  5
90
100
AcDbSymbolTableRecord
100
AcDbBlockTableRecord
  2
*G4
  0
BLOCK_RECORD
  5
A4
100
AcDbSymbolTableRecord
100
AcDbBlockTableRecord
  2
*G5
  0
BLOCK_RECORD
  5
AF
100
AcDbSymbolTableRecord
100
AcDbBlockTableRecord
  2
*G6
  0
BLOCK_RECORD
  5
B9
100
AcDbSymbolTableRecord
100
AcDbBlockTableRecord
  2
*G7
  0
BLOCK_RECORD
  5
C4
100
AcDbSymbolTableRecord
100
AcDbBlockTableRecord
  2
*G8
  0
BLOCK_RECORD
  5
DB
100
AcDbSymbolTableRecord
100
AcDbBlockTableRecord
  2
*G9
  0
BLOCK_RECORD
  5
FC
100
AcDbSymbolTableRecord
100
AcDbBlockTableRecord
  2
*G10
  0
BLOCK_RECORD
  5
106
100
AcDbSymbolTableRecord
100
AcDbBlockTableRecord
  2
*G11
  0
BLOCK_RECORD
  5
111
100
AcDbSymbolTableRecord
100
AcDbBlockTableRecord
  2
*G12
  0
BLOCK_RECORD
  5
11D
100
AcDbSymbolTableRecord
100
AcDbBlockTableRecord
  2
*D13
  0
BLOCK_RECORD
  5
127
100
AcDbSymbolTableRecord
100
AcDbBlockTableRecord
  2
*G14
  0
BLOCK_RECORD
  5
12F
100
AcDbSymbolTableRecord
100
AcDbBlockTableRecord
  2
*G15
  0
BLOCK_RECORD
  5
13B
100
AcDbSymbolTableRecord
100
AcDbBlockTableRecord
  2
*G16
  0
BLOCK_RECORD
  5
143
100
AcDbSymbolTableRecord
100
AcDbBlockTableRecord
  2
*G17
  0
BLOCK_RECORD
  5
15B
100
AcDbSymbolTableRecord
100
AcDbBlockTableRecord
  2
*G18
  0
BLOCK_RECORD
  5
166
100
AcDbSymbolTableRecord
100
AcDbBlockTableRecord
  2
*G19
  0
BLOCK_RECORD
  5
1E8
100
AcDbSymbolTableRecord
100
AcDbBlockTableRecord
  2
*G20
  0
BLOCK_RECORD
  5
205
100
AcDbSymbolTableRecord
100
AcDbBlockTableRecord
  2
*G21
  0
BLOCK_RECORD
  5
258
100
AcDbSymbolTableRecord
100
AcDbBlockTableRecord
  2
*G22
  0
BLOCK_RECORD
  5
28A
100
AcDbSymbolTableRecord
100
AcDbBlockTableRecord
  2
*G23
  0
BLOCK_RECORD
  5
2A4
100
AcDbSymbolTableRecord
100
AcDbBlockTableRecord
  2
*G24
  0
BLOCK_RECORD
  5
2CD
100
AcDbSymbolTableRecord
100
AcDbBlockTableRecord
  2
*G25
  0
BLOCK_RECORD
  5
2D9
100
AcDbSymbolTableRecord
100
AcDbBlockTableRecord
  2
*G26
  0
BLOCK_RECORD
  5
2FD
100
AcDbSymbolTableRecord
100
AcDbBlockTableRecord
  2
*G27
  0
BLOCK_RECORD
  5
304
100
AcDbSymbolTableRecord
100
AcDbBlockTableRecord
  2
*G28
  0
BLOCK_RECORD
  5
30C
100
AcDbSymbolTableRecord
100
AcDbBlockTableRecord
  2
*G29
  0
BLOCK_RECORD
  5
312
100
AcDbSymbolTableRecord
100
AcDbBlockTableRecord
  2
*G30
  0
BLOCK_RECORD
  5
333
100
AcDbSymbolTableRecord
100
AcDbBlockTableRecord
  2
*G31
  0
BLOCK_RECORD
  5
33A
100
AcDbSymbolTableRecord
100
AcDbBlockTableRecord
  2
*G32
  0
BLOCK_RECORD
  5
342
100
AcDbSymbolTableRecord
100
AcDbBlockTableRecord
  2
*G33
  0
BLOCK_RECORD
  5
348
100
AcDbSymbolTableRecord
100
AcDbBlockTableRecord
  2
*G34
  0
BLOCK_RECORD
  5
368
100
AcDbSymbolTableRecord
100
AcDbBlockTableRecord
  2
*G35
  0
BLOCK_RECORD
  5
391
100
AcDbSymbolTableRecord
100
AcDbBlockTableRecord
  2
*G36
  0
BLOCK_RECORD
  5
397
100
AcDbSymbolTableRecord
100
AcDbBlockTableRecord
  2
*G37
  0
BLOCK_RECORD
  5
39E
100
AcDbSymbolTableRecord
100
AcDbBlockTableRecord
  2
*G38
  0
BLOCK_RECORD
  5
3A4
100
AcDbSymbolTableRecord
100
AcDbBlockTableRecord
  2
*G39
  0
BLOCK_RECORD
  5
439
100
AcDbSymbolTableRecord
100
AcDbBlockTableRecord
  2
*G40
  0
BLOCK_RECORD
  5
444
100
AcDbSymbolTableRecord
100
AcDbBlockTableRecord
  2
*G41
  0
BLOCK_RECORD
  5
473
100
AcDbSymbolTableRecord
100
AcDbBlockTableRecord
  2
*G42
  0
BLOCK_RECORD
  5
4BC
100
AcDbSymbolTableRecord
100
AcDbBlockTableRecord
  2
*G43
  0
BLOCK_RECORD
  5
4C5
100
AcDbSymbolTableRecord
100
AcDbBlockTableRecord
  2
*G44
  0
BLOCK_RECORD
  5
50A
100
AcDbSymbolTableRecord
100
AcDbBlockTableRecord
  2
*G45
  0
BLOCK_RECORD
  5
517
100
AcDbSymbolTableRecord
100
AcDbBlockTableRecord
  2
*D46
  0
BLOCK_RECORD
  5
525
100
AcDbSymbolTableRecord
100
AcDbBlockTableRecord
  2
*D47
  0
BLOCK_RECORD
  5
531
100
AcDbSymbolTableRecord
100
AcDbBlockTableRecord
  2
*D48
  0
BLOCK_RECORD
  5
53D
100
AcDbSymbolTableRecord
100
AcDbBlockTableRecord
  2
*D49
  0
BLOCK_RECORD
  5
549
100
AcDbSymbolTableRecord
100
AcDbBlockTableRecord
  2
*D50
  0
BLOCK_RECORD
  5
555
100
AcDbSymbolTableRecord
100
AcDbBlockTableRecord
  2
*D51
  0
ENDTAB
  0
ENDSEC
  0
SECTION
  2
BLOCKS
  0
BLOCK
  5
D
100
AcDbEntity
  8
0
100
AcDbBlockBegin
  2
*MODEL_SPACE
 70
     0
 10
0.0
 20
0.0
 30
0.0
  3
*MODEL_SPACE
  1

  0
ENDBLK
  5
E
100
AcDbEntity
  8
0
100
AcDbBlockEnd
  0
BLOCK
  5
F
100
AcDbEntity
 67
     1
  8
0
100
AcDbBlockBegin
  2
*PAPER_SPACE
 70
     0
 10
0.0
 20
0.0
 30
0.0
  3
*PAPER_SPACE
  1

  0
ENDBLK
  5
10
100
AcDbEntity
 67
     1
  8
0
100
AcDbBlockEnd
  0
BLOCK
  5
69
100
AcDbEntity
  8
1
  6
CONTINUOUS
 62
     4
100
AcDbBlockBegin
  2
*G0
 70
     0
 10
0.0
 20
0.0
 30
0.0
  3
*G0
  1

  0
LINE
  5
6A
100
AcDbEntity
  8
1
  6
CONTINUOUS
 62
     4
100
AcDbLine
 10
322.5
 20
580.0
 30
0.0
 11
322.5
 21
555.0
 31
0.0
  0
LINE
  5
6B
100
AcDbEntity
  8
1
  6
CONTINUOUS
 62
     4
100
AcDbLine
 10
322.5
 20
555.0
 30
0.0
 11
241.85
 21
555.0
 31
0.0
  0
LINE
  5
6C
100
AcDbEntity
  8
1
  6
CONTINUOUS
 62
     4
100
AcDbLine
 10
241.85
 20
555.0
 30
0.0
 11
241.85
 21
575.0
 31
0.0
  0
LINE
  5
6D
100
AcDbEntity
  8
1
  6
CONTINUOUS
 62
     4
100
AcDbLine
 10
322.5
 20
580.0
 30
0.0
 11
246.85
 21
580.0
 31
0.0
  0
LINE
  5
6E
100
AcDbEntity
  8
1
  6
CONTINUOUS
 62
     4
100
AcDbLine
 10
241.85
 20
575.0
 30
0.0
 11
246.85
 21
580.0
 31
0.0
  0
ENDBLK
  5
6F
100
AcDbEntity
  8
0
100
AcDbBlockEnd
  0
BLOCK
  5
72
100
AcDbEntity
  8
1
  6
CONTINUOUS
 62
     4
100
AcDbBlockBegin
  2
*G1
 70
     0
 10
0.0
 20
0.0
 30
0.0
  3
*G1
  1

  0
LINE
  5
73
100
AcDbEntity
  8
1
  6
CONTINUOUS
 62
     4
100
AcDbLine
 10
266.85
 20
370.0
 30
0.0
 11
266.85
 21
390.0
 31
0.0
  0
LINE
  5
74
100
AcDbEntity
  8
1
  6
CONTINUOUS
 62
     4
100
AcDbLine
 10
266.85
 20
390.0
 30
0.0
 11
317.5
 21
390.0
 31
0.0
  0
LINE
  5
75
100
AcDbEntity
  8
1
  6
CONTINUOUS
 62
     4
100
AcDbLine
 10
317.5
 20
390.0
 30
0.0
 11
317.5
 21
370.0
 31
0.0
  0
LINE
  5
76
100
AcDbEntity
  8
1
  6
CONTINUOUS
 62
     4
100
AcDbLine
 10
317.5
 20
370.0
 30
0.0
 11
266.85
 21
370.0
 31
0.0
  0
ENDBLK
  5
77
100
AcDbEntity
  8
0
100
AcDbBlockEnd
  0
BLOCK
  5
7C
100
AcDbEntity
  8
1
  6
CONTINUOUS
 62
     4
100
AcDbBlockBegin
  2
*G2
 70
     0
 10
0.0
 20
0.0
 30
0.0
  3
*G2
  1

  0
LINE
  5
7D
100
AcDbEntity
  8
1
  6
CONTINUOUS
 62
     4
100
AcDbLine
 10
241.85
 20
280.0
 30
0.0
 11
241.85
 21
555.0
 31
0.0
  0
LINE
  5
7E
100
AcDbEntity
  8
1
  6
CONTINUOUS
 62
     4
100
AcDbLine
 10
241.85
 20
555.0
 30
0.0
 11
266.85
 21
555.0
 31
0.0
  0
LINE
  5
7F
100
AcDbEntity
  8
1
  6
CONTINUOUS
 62
     4
100
AcDbLine
 10
266.85
 20
555.0
 30
0.0
 11
266.85
 21
300.0
 31
0.0
  0
LINE
  5
80
100
AcDbEntity
  8
1
  6
CONTINUOUS
 62
     4
100
AcDbLine
 10
261.85
 20
280.0
 30
0.0
 11
241.85
 21
280.0
 31
0.0
  0
ENDBLK
  5
81
100
AcDbEntity
  8
0
100
AcDbBlockEnd
  0
BLOCK
  5
86
100
AcDbEntity
  8
8
  6
CONTINUOUS
 62
     6
100
AcDbBlockBegin
  2
*G3
 70
     0
 10
0.0
 20
0.0
 30
0.0
  3
*G3
  1

  0
LINE
  5
87
100
AcDbEntity
  8
8
  6
CONTINUOUS
 62
     6
100
AcDbLine
 10
233.1
 20
305.239985
 30
0.0
 11
241.85
 21
305.239985
 31
0.0
  0
LINE
  5
88
100
AcDbEntity
  8
8
  6
CONTINUOUS
 62
     6
100
AcDbLine
 10
234.35
 20
306.489985
 30
0.0
 11
241.85
 21
306.489985
 31
0.0
  0
LINE
  5
89
100
AcDbEntity
  8
8
  6
CONTINUOUS
 62
     6
100
AcDbLine
 10
235.6
 20
307.739985
 30
0.0
 11
241.85
 21
307.739985
 31
0.0
  0
LINE
  5
8A
100
AcDbEntity
  8
8
  6
CONTINUOUS
 62
     6
100
AcDbLine
 10
236.85
 20
308.989985
 30
0.0
 11
241.85
 21
308.989985
 31
0.0
  0
LINE
  5
8B
100
AcDbEntity
  8
8
  6
CONTINUOUS
 62
     6
100
AcDbLine
 10
238.1
 20
310.239985
 30
0.0
 11
241.85
 21
310.239985
 31
0.0
  0
LINE
  5
8C
100
AcDbEntity
  8
8
  6
CONTINUOUS
 62
     6
100
AcDbLine
 10
239.35
 20
311.489985
 30
0.0
 11
241.85
 21
311.489985
 31
0.0
  0
LINE
  5
8D
100
AcDbEntity
  8
8
  6
CONTINUOUS
 62
     6
100
AcDbLine
 10
240.6
 20
312.739985
 30
0.0
 11
241.85
 21
312.739985
 31
0.0
  0
ENDBLK
  5
8E
100
AcDbEntity
  8
0
100
AcDbBlockEnd
  0
BLOCK
  5
91
100
AcDbEntity
  8
8
  6
CONTINUOUS
 62
     6
100
AcDbBlockBegin
  2
*G4
 70
     0
 10
0.0
 20
0.0
 30
0.0
  3
*G4
  1

  0
LINE
  5
92
100
AcDbEntity
  8
8
  6
CONTINUOUS
 62
     6
100
AcDbLine
 10
233.1
 20
281.25
 30
0.0
 11
241.85
 21
281.25
 31
0.0
  0
LINE
  5
93
100
AcDbEntity
  8
8
  6
CONTINUOUS
 62
     6
100
AcDbLine
 10
234.35
 20
282.5
 30
0.0
 11
241.85
 21
282.5
 31
0.0
  0
LINE
  5
94
100
AcDbEntity
  8
8
  6
CONTINUOUS
 62
     6
100
AcDbLine
 10
235.6
 20
283.75
 30
0.0
 11
241.85
 21
283.75
 31
0.0
  0
LINE
  5
95
100
AcDbEntity
  8
8
  6
CONTINUOUS
 62
     6
100
AcDbLine
 10
236.85
 20
285.0
 30
0.0
 11
241.85
 21
285.0
 31
0.0
  0
LINE
  5
96
100
AcDbEntity
  8
8
  6
CONTINUOUS
 62
     6
100
AcDbLine
 10
238.1
 20
286.25
 30
0.0
 11
241.85
 21
286.25
 31
0.0
  0
LINE
  5
97
100
AcDbEntity
  8
8
  6
CONTINUOUS
 62
     6
100
AcDbLine
 10
239.35
 20
287.5
 30
0.0
 11
241.85
 21
287.5
 31
0.0
  0
LINE
  5
98
100
AcDbEntity
  8
8
  6
CONTINUOUS
 62
     6
100
AcDbLine
 10
240.6
 20
288.75
 30
0.0
 11
241.85
 21
288.75
 31
0.0
  0
ENDBLK
  5
99
100
AcDbEntity
  8
0
100
AcDbBlockEnd
  0
BLOCK
  5
A5
100
AcDbEntity
  8
1
  6
CONTINUOUS
 62
     4
100
AcDbBlockBegin
  2
*G5
 70
     0
 10
0.0
 20
0.0
 30
0.0
  3
*G5
  1

  0
LINE
  5
A6
100
AcDbEntity
  8
1
  6
CONTINUOUS
 62
     4
100
AcDbLine
 10
377.5
 20
580.0
 30
0.0
 11
377.5
 21
555.0
 31
0.0
  0
LINE
  5
A7
100
AcDbEntity
  8
1
  6
CONTINUOUS
 62
     4
100
AcDbLine
 10
377.5
 20
555.0
 30
0.0
 11
458.15
 21
555.0
 31
0.0
  0
LINE
  5
A8
100
AcDbEntity
  8
1
  6
CONTINUOUS
 62
     4
100
AcDbLine
 10
458.15
 20
555.0
 30
0.0
 11
458.15
 21
575.0
 31
0.0
  0
LINE
  5
A9
100
AcDbEntity
  8
1
  6
CONTINUOUS
 62
     4
100
AcDbLine
 10
377.5
 20
580.0
 30
0.0
 11
453.15
 21
580.0
 31
0.0
  0
LINE
  5
AA
100
AcDbEntity
  8
1
  6
CONTINUOUS
 62
     4
100
AcDbLine
 10
458.15
 20
575.0
 30
0.0
 11
453.15
 21
580.0
 31
0.0
  0
ENDBLK
  5
AB
100
AcDbEntity
  8
0
100
AcDbBlockEnd
  0
BLOCK
  5
B0
100
AcDbEntity
  8
1
  6
CONTINUOUS
 62
     4
100
AcDbBlockBegin
  2
*G6
 70
     0
 10
0.0
 20
0.0
 30
0.0
  3
*G6
  1

  0
LINE
  5
B1
100
AcDbEntity
  8
1
  6
CONTINUOUS
 62
     4
100
AcDbLine
 10
458.15
 20
280.0
 30
0.0
 11
458.15
 21
555.0
 31
0.0
  0
LINE
  5
B2
100
AcDbEntity
  8
1
  6
CONTINUOUS
 62
     4
100
AcDbLine
 10
458.15
 20
555.0
 30
0.0
 11
433.15
 21
555.0
 31
0.0
  0
LINE
  5
B3
100
AcDbEntity
  8
1
  6
CONTINUOUS
 62
     4
100
AcDbLine
 10
433.15
 20
555.0
 30
0.0
 11
433.15
 21
300.0
 31
0.0
  0
LINE
  5
B4
100
AcDbEntity
  8
1
  6
CONTINUOUS
 62
     4
100
AcDbLine
 10
438.15
 20
280.0
 30
0.0
 11
458.15
 21
280.0
 31
0.0
  0
ENDBLK
  5
B5
100
AcDbEntity
  8
0
100
AcDbBlockEnd
  0
BLOCK
  5
BA
100
AcDbEntity
  8
8
  6
CONTINUOUS
 62
     6
100
AcDbBlockBegin
  2
*G7
 70
     0
 10
0.0
 20
0.0
 30
0.0
  3
*G7
  1

  0
LINE
  5
BB
100
AcDbEntity
  8
8
  6
CONTINUOUS
 62
     6
100
AcDbLine
 10
466.9
 20
305.239985
 30
0.0
 11
458.15
 21
305.239985
 31
0.0
  0
LINE
  5
BC
100
AcDbEntity
  8
8
  6
CONTINUOUS
 62
     6
100
AcDbLine
 10
465.65
 20
306.489985
 30
0.0
 11
458.15
 21
306.489985
 31
0.0
  0
LINE
  5
BD
100
AcDbEntity
  8
8
  6
CONTINUOUS
 62
     6
100
AcDbLine
 10
464.4
 20
307.739985
 30
0.0
 11
458.15
 21
307.739985
 31
0.0
  0
LINE
  5
BE
100
AcDbEntity
  8
8
  6
CONTINUOUS
 62
     6
100
AcDbLine
 10
463.15
 20
308.989985
 30
0.0
 11
458.15
 21
308.989985
 31
0.0
  0
LINE
  5
BF
100
AcDbEntity
  8
8
  6
CONTINUOUS
 62
     6
100
AcDbLine
 10
461.9
 20
310.239985
 30
0.0
 11
458.15
 21
310.239985
 31
0.0
  0
LINE
  5
C0
100
AcDbEntity
  8
8
  6
CONTINUOUS
 62
     6
100
AcDbLine
 10
460.65
 20
311.489985
 30
0.0
 11
458.15
 21
311.489985
 31
0.0
  0
LINE
  5
C1
100
AcDbEntity
  8
8
  6
CONTINUOUS
 62
     6
100
AcDbLine
 10
459.4
 20
312.739985
 30
0.0
 11
458.15
 21
312.739985
 31
0.0
  0
ENDBLK
  5
C2
100
AcDbEntity
  8
0
100
AcDbBlockEnd
  0
BLOCK
  5
C5
100
AcDbEntity
  8
8
  6
CONTINUOUS
 62
     6
100
AcDbBlockBegin
  2
*G8
 70
     0
 10
0.0
 20
0.0
 30
0.0
  3
*G8
  1

  0
LINE
  5
C6
100
AcDbEntity
  8
8
  6
CONTINUOUS
 62
     6
100
AcDbLine
 10
466.9
 20
281.25
 30
0.0
 11
458.15
 21
281.25
 31
0.0
  0
LINE
  5
C7
100
AcDbEntity
  8
8
  6
CONTINUOUS
 62
     6
100
AcDbLine
 10
465.65
 20
282.5
 30
0.0
 11
458.15
 21
282.5
 31
0.0
  0
LINE
  5
C8
100
AcDbEntity
  8
8
  6
CONTINUOUS
 62
     6
100
AcDbLine
 10
464.4
 20
283.75
 30
0.0
 11
458.15
 21
283.75
 31
0.0
  0
LINE
  5
C9
100
AcDbEntity
  8
8
  6
CONTINUOUS
 62
     6
100
AcDbLine
 10
463.15
 20
285.0
 30
0.0
 11
458.15
 21
285.0
 31
0.0
  0
LINE
  5
CA
100
AcDbEntity
  8
8
  6
CONTINUOUS
 62
     6
100
AcDbLine
 10
461.9
 20
286.25
 30
0.0
 11
458.15
 21
286.25
 31
0.0
  0
LINE
  5
CB
100
AcDbEntity
  8
8
  6
CONTINUOUS
 62
     6
100
AcDbLine
 10
460.65
 20
287.5
 30
0.0
 11
458.15
 21
287.5
 31
0.0
  0
LINE
  5
CC
100
AcDbEntity
  8
8
  6
CONTINUOUS
 62
     6
100
AcDbLine
 10
459.4
 20
288.75
 30
0.0
 11
458.15
 21
288.75
 31
0.0
  0
ENDBLK
  5
CD
100
AcDbEntity
  8
0
100
AcDbBlockEnd
  0
BLOCK
  5
DC
100
AcDbEntity
  8
1
  6
CONTINUOUS
 62
     4
100
AcDbBlockBegin
  2
*G9
 70
     0
 10
0.0
 20
0.0
 30
0.0
  3
*G9
  1

  0
LINE
  5
DD
100
AcDbEntity
  8
1
  6
CONTINUOUS
 62
     4
100
AcDbLine
 10
377.320508
 20
402.0
 30
0.0
 11
374.820508
 21
406.330127
 31
0.0
  0
LINE
  5
DE
100
AcDbEntity
  8
1
  6
CONTINUOUS
 62
     4
100
AcDbLine
 10
374.820508
 20
406.330127
 30
0.0
 11
369.820508
 21
406.330127
 31
0.0
  0
LINE
  5
DF
100
AcDbEntity
  8
1
  6
CONTINUOUS
 62
     4
100
AcDbLine
 10
369.820508
 20
406.330127
 30
0.0
 11
367.320508
 21
402.0
 31
0.0
  0
LINE
  5
E0
100
AcDbEntity
  8
1
  6
CONTINUOUS
 62
     4
100
AcDbLine
 10
367.320508
 20
402.0
 30
0.0
 11
369.820508
 21
397.669873
 31
0.0
  0
LINE
  5
E1
100
AcDbEntity
  8
1
  6
CONTINUOUS
 62
     4
100
AcDbLine
 10
369.820508
 20
397.669873
 30
0.0
 11
374.820508
 21
397.669873
 31
0.0
  0
LINE
  5
E2
100
AcDbEntity
  8
1
  6
CONTINUOUS
 62
     4
100
AcDbLine
 10
374.820508
 20
397.669873
 30
0.0
 11
377.320508
 21
402.0
 31
0.0
  0
ENDBLK
  5
E3
100
AcDbEntity
  8
0
100
AcDbBlockEnd
  0
BLOCK
  5
FD
100
AcDbEntity
  8
1
  6
CONTINUOUS
 62
     4
100
AcDbBlockBegin
  2
*G10
 70
     0
 10
0.0
 20
0.0
 30
0.0
  3
*G10
  1

  0
LINE
  5
FE
100
AcDbEntity
  8
1
  6
CONTINUOUS
 62
     4
100
AcDbLine
 10
367.320508
 20
830.0
 30
0.0
 11
358.660254
 21
845.0
 31
0.0
  0
LINE
  5
FF
100
AcDbEntity
  8
1
  6
CONTINUOUS
 62
     4
100
AcDbLine
 10
358.660254
 20
845.0
 30
0.0
 11
341.339746
 21
845.0
 31
0.0
  0
LINE
  5
100
100
AcDbEntity
  8
1
  6
CONTINUOUS
 62
     4
100
AcDbLine
 10
341.339746
 20
845.0
 30
0.0
 11
332.679492
 21
830.0
 31
0.0
  0
LINE
  5
101
100
AcDbEntity
  8
1
  6
CONTINUOUS
 62
     4
100
AcDbLine
 10
332.679492
 20
830.0
 30
0.0
 11
341.339746
 21
815.0
 31
0.0
  0
LINE
  5
102
100
AcDbEntity
  8
1
  6
CONTINUOUS
 62
     4
100
AcDbLine
 10
341.339746
 20
815.0
 30
0.0
 11
358.660254
 21
815.0
 31
0.0
  0
LINE
  5
103
100
AcDbEntity
  8
1
  6
CONTINUOUS
 62
     4
100
AcDbLine
 10
358.660254
 20
815.0
 30
0.0
 11
367.320508
 21
830.0
 31
0.0
  0
ENDBLK
  5
104
100
AcDbEntity
  8
0
100
AcDbBlockEnd
  0
BLOCK
  5
107
100
AcDbEntity
  8
1
  6
CONTINUOUS
 62
     4
100
AcDbBlockBegin
  2
*G11
 70
     0
 10
0.0
 20
0.0
 30
0.0
  3
*G11
  1

  0
LINE
  5
108
100
AcDbEntity
  8
1
  6
CONTINUOUS
 62
     4
100
AcDbLine
 10
451.15
 20
825.0
 30
0.0
 11
451.15
 21
835.0
 31
0.0
  0
LINE
  5
109
100
AcDbEntity
  8
1
  6
CONTINUOUS
 62
     4
100
AcDbLine
 10
451.15
 20
835.0
 30
0.0
 11
411.15
 21
835.0
 31
0.0
  0
LINE
  5
10A
100
AcDbEntity
  8
1
  6
CONTINUOUS
 62
     4
100
AcDbLine
 10
411.15
 20
835.0
 30
0.0
 11
411.15
 21
825.0
 31
0.0
  0
LINE
  5
10B
100
AcDbEntity
  8
1
  6
CONTINUOUS
 62
     4
100
AcDbLine
 10
411.15
 20
825.0
 30
0.0
 11
451.15
 21
825.0
 31
0.0
  0
ENDBLK
  5
10C
100
AcDbEntity
  8
0
100
AcDbBlockEnd
  0
BLOCK
  5
112
100
AcDbEntity
  8
1
  6
CONTINUOUS
 62
     4
100
AcDbBlockBegin
  2
*G12
 70
     0
 10
0.0
 20
0.0
 30
0.0
  3
*G12
  1

  0
LINE
  5
113
100
AcDbEntity
  8
1
  6
CONTINUOUS
 62
     4
100
AcDbLine
 10
248.85
 20
825.0
 30
0.0
 11
248.85
 21
835.0
 31
0.0
  0
LINE
  5
114
100
AcDbEntity
  8
1
  6
CONTINUOUS
 62
     4
100
AcDbLine
 10
248.85
 20
835.0
 30
0.0
 11
288.85
 21
835.0
 31
0.0
  0
LINE
  5
115
100
AcDbEntity
  8
1
  6
CONTINUOUS
 62
     4
100
AcDbLine
 10
288.85
 20
835.0
 30
0.0
 11
288.85
 21
825.0
 31
0.0
  0
LINE
  5
116
100
AcDbEntity
  8
1
  6
CONTINUOUS
 62
     4
100
AcDbLine
 10
288.85
 20
825.0
 30
0.0
 11
248.85
 21
825.0
 31
0.0
  0
ENDBLK
  5
117
100
AcDbEntity
  8
0
100
AcDbBlockEnd
  0
BLOCK
  5
11E
100
AcDbEntity
  8
7
  6
CONTINUOUS
 62
     4
100
AcDbBlockBegin
  2
*D13
 70
     0
 10
0.0
 20
0.0
 30
0.0
  3
*D13
  1

  0
LINE
  5
11F
100
AcDbEntity
  8
7
  6
CONTINUOUS
 62
     4
100
AcDbLine
 10
286.85
 20
450.0
 30
0.0
 11
212.475
 21
450.0
 31
0.0
  0
LINE
  5
120
100
AcDbEntity
  8
7
  6
CONTINUOUS
 62
     4
100
AcDbLine
 10
266.85
 20
450.0
 30
0.0
 11
276.509258
 21
452.58819
 31
0.0
  0
LINE
  5
121
100
AcDbEntity
  8
7
  6
CONTINUOUS
 62
     4
100
AcDbLine
 10
266.85
 20
450.0
 30
0.0
 11
276.509258
 21
447.41181
 31
0.0
  0
LINE
  5
122
100
AcDbEntity
  8
7
  6
CONTINUOUS
 62
     4
100
AcDbLine
 10
241.85
 20
450.0
 30
0.0
 11
232.190742
 21
447.41181
 31
0.0
  0
LINE
  5
123
100
AcDbEntity
  8
7
  6
CONTINUOUS
 62
     4
100
AcDbLine
 10
241.85
 20
450.0
 30
0.0
 11
232.190742
 21
452.58819
 31
0.0
  0
TEXT
  5
124
100
AcDbEntity
  8
7
  6
CONTINUOUS
 62
     4
100
AcDbText
 10
213.1
 20
450.0
 30
0.0
 40
15.0
  1
25
 41
0.5
 11
213.1
 21
450.0
 31
0.0
100
AcDbText
 73
     1
  0
ENDBLK
  5
125
100
AcDbEntity
  8
7
  6
CONTINUOUS
 62
     4
100
AcDbBlockEnd
  0
BLOCK
  5
128
100
AcDbEntity
  8
1
  6
CONTINUOUS
 62
     4
100
AcDbBlockBegin
  2
*G14
 70
     0
 10
0.0
 20
0.0
 30
0.0
  3
*G14
  1

  0
LINE
  5
129
100
AcDbEntity
  8
1
  6
CONTINUOUS
 62
     4
100
AcDbLine
 10
261.85
 20
280.0
 30
0.0
 11
261.85
 21
300.0
 31
0.0
  0
LINE
  5
12A
100
AcDbEntity
  8
1
  6
CONTINUOUS
 62
     4
100
AcDbLine
 10
261.85
 20
300.0
 30
0.0
 11
275.0
 21
300.0
 31
0.0
  0
LINE
  5
12B
100
AcDbEntity
  8
1
  6
CONTINUOUS
 62
     4
100
AcDbLine
 10
275.0
 20
300.0
 30
0.0
 11
275.0
 21
280.0
 31
0.0
  0
LINE
  5
12C
100
AcDbEntity
  8
1
  6
CONTINUOUS
 62
     4
100
AcDbLine
 10
275.0
 20
280.0
 30
0.0
 11
261.85
 21
280.0
 31
0.0
  0
ENDBLK
  5
12D
100
AcDbEntity
  8
0
100
AcDbBlockEnd
  0
BLOCK
  5
130
100
AcDbEntity
  8
1
  6
CONTINUOUS
 62
     4
100
AcDbBlockBegin
  2
*G15
 70
     0
 10
0.0
 20
0.0
 30
0.0
  3
*G15
  1

  0
LINE
  5
131
100
AcDbEntity
  8
1
  6
CONTINUOUS
 62
     4
100
AcDbLine
 10
438.15
 20
280.0
 30
0.0
 11
438.15
 21
300.0
 31
0.0
  0
LINE
  5
132
100
AcDbEntity
  8
1
  6
CONTINUOUS
 62
     4
100
AcDbLine
 10
438.15
 20
300.0
 30
0.0
 11
425.0
 21
300.0
 31
0.0
  0
LINE
  5
133
100
AcDbEntity
  8
1
  6
CONTINUOUS
 62
     4
100
AcDbLine
 10
425.0
 20
300.0
 30
0.0
 11
425.0
 21
280.0
 31
0.0
  0
LINE
  5
134
100
AcDbEntity
  8
1
  6
CONTINUOUS
 62
     4
100
AcDbLine
 10
425.0
 20
280.0
 30
0.0
 11
438.15
 21
280.0
 31
0.0
  0
ENDBLK
  5
135
100
AcDbEntity
  8
0
100
AcDbBlockEnd
  0
BLOCK
  5
13C
100
AcDbEntity
  8
7
  6
CONTINUOUS
 62
     4
100
AcDbBlockBegin
  2
*G16
 70
     0
 10
0.0
 20
0.0
 30
0.0
  3
*G16
  1

  0
LINE
  5
13D
100
AcDbEntity
  8
7
  6
CONTINUOUS
 62
     4
100
AcDbLine
 10
396.489746
 20
289.0
 30
0.0
 11
396.489746
 21
290.0
 31
0.0
  0
LINE
  5
13E
100
AcDbEntity
  8
7
  6
CONTINUOUS
 62
     4
100
AcDbLine
 10
396.489746
 20
290.0
 30
0.0
 11
413.810254
 21
290.0
 31
0.0
  0
LINE
  5
13F
100
AcDbEntity
  8
7
  6
CONTINUOUS
 62
     4
100
AcDbLine
 10
413.810254
 20
290.0
 30
0.0
 11
413.810254
 21
289.0
 31
0.0
  0
LINE
  5
140
100
AcDbEntity
  8
7
  6
CONTINUOUS
 62
     4
100
AcDbLine
 10
413.810254
 20
289.0
 30
0.0
 11
396.489746
 21
289.0
 31
0.0
  0
ENDBLK
  5
141
100
AcDbEntity
  8
0
100
AcDbBlockEnd
  0
BLOCK
  5
144
100
AcDbEntity
  8
7
  6
CONTINUOUS
 62
     4
100
AcDbBlockBegin
  2
*G17
 70
     0
 10
0.0
 20
0.0
 30
0.0
  3
*G17
  1

  0
LINE
  5
145
100
AcDbEntity
  8
7
  6
CONTINUOUS
 62
     4
100
AcDbLine
 10
395.15
 20
290.0
 30
0.0
 11
395.15
 21
291.0
 31
0.0
  0
LINE
  5
146
100
AcDbEntity
  8
7
  6
CONTINUOUS
 62
     4
100
AcDbLine
 10
395.15
 20
291.0
 30
0.0
 11
415.15
 21
291.0
 31
0.0
  0
LINE
  5
147
100
AcDbEntity
  8
7
  6
CONTINUOUS
 62
     4
100
AcDbLine
 10
415.15
 20
291.0
 30
0.0
 11
415.15
 21
290.0
 31
0.0
  0
LINE
  5
148
100
AcDbEntity
  8
7
  6
CONTINUOUS
 62
     4
100
AcDbLine
 10
415.15
 20
290.0
 30
0.0
 11
395.15
 21
290.0
 31
0.0
  0
ENDBLK
  5
149
100
AcDbEntity
  8
0
100
AcDbBlockEnd
  0
BLOCK
  5
15C
100
AcDbEntity
  8
1
  6
CONTINUOUS
 62
     4
100
AcDbBlockBegin
  2
*G18
 70
     0
 10
0.0
 20
0.0
 30
0.0
  3
*G18
  1

  0
LINE
  5
15D
100
AcDbEntity
  8
1
  6
CONTINUOUS
 62
     4
100
AcDbLine
 10
423.15
 20
280.0
 30
0.0
 11
276.85
 21
280.0
 31
0.0
  0
LINE
  5
15E
100
AcDbEntity
  8
1
  6
CONTINUOUS
 62
     4
100
AcDbLine
 10
276.85
 20
280.0
 30
0.0
 11
276.85
 21
365.0
 31
0.0
  0
ARC
  5
15F
100
AcDbEntity
  8
1
  6
CONTINUOUS
 62
     4
100
AcDbCircle
 10
281.85
 20
365.0
 30
0.0
 40
5.0
100
AcDbArc
 50
90.0
 51
180.0
  0
LINE
  5
160
100
AcDbEntity
  8
1
  6
CONTINUOUS
 62
     4
100
AcDbLine
 10
423.15
 20
365.0
 30
0.0
 11
423.15
 21
280.0
 31
0.0
  0
ARC
  5
161
100
AcDbEntity
  8
1
  6
CONTINUOUS
 62
     4
100
AcDbCircle
 10
418.15
 20
365.0
 30
0.0
 40
5.0
100
AcDbArc
 50
0.0
 51
90.0
  0
LINE
  5
162
100
AcDbEntity
  8
1
  6
CONTINUOUS
 62
     4
100
AcDbLine
 10
283.85
 20
370.0
 30
0.0
 11
400.15
 21
370.0
 31
0.0
  0
LINE
  5
163
100
AcDbEntity
  8
1
  6
CONTINUOUS
 62
     4
100
AcDbLine
 10
410.15
 20
370.0
 30
0.0
 11
416.15
 21
370.0
 31
0.0
  0
ENDBLK
  5
164
100
AcDbEntity
  8
0
100
AcDbBlockEnd
  0
BLOCK
  5
167
100
AcDbEntity
  8
1
  6
CONTINUOUS
 62
     4
100
AcDbBlockBegin
  2
*G19
 70
     0
 10
0.0
 20
0.0
 30
0.0
  3
*G19
  1

  0
LINE
  5
168
100
AcDbEntity
  8
1
  6
CONTINUOUS
 62
     4
100
AcDbLine
 10
433.15
 20
370.0
 30
0.0
 11
433.15
 21
390.0
 31
0.0
  0
LINE
  5
169
100
AcDbEntity
  8
1
  6
CONTINUOUS
 62
     4
100
AcDbLine
 10
382.5
 20
390.0
 30
0.0
 11
382.5
 21
370.0
 31
0.0
  0
LINE
  5
16A
100
AcDbEntity
  8
1
  6
CONTINUOUS
 62
     4
100
AcDbLine
 10
433.15
 20
390.0
 30
0.0
 11
410.15
 21
390.0
 31
0.0
  0
LINE
  5
16B
100
AcDbEntity
  8
1
  6
CONTINUOUS
 62
     4
100
AcDbLine
 10
400.15
 20
390.0
 30
0.0
 11
382.5
 21
390.0
 31
0.0
  0
LINE
  5
16C
100
AcDbEntity
  8
1
  6
CONTINUOUS
 62
     4
100
AcDbLine
 10
382.5
 20
370.0
 30
0.0
 11
400.15
 21
370.0
 31
0.0
  0
LINE
  5
16D
100
AcDbEntity
  8
1
  6
CONTINUOUS
 62
     4
100
AcDbLine
 10
410.15
 20
370.0
 30
0.0
 11
433.15
 21
370.0
 31
0.0
  0
ENDBLK
  5
16E
100
AcDbEntity
  8
0
100
AcDbBlockEnd
  0
BLOCK
  5
1E9
100
AcDbEntity
  8
8
  6
CONTINUOUS
 62
     6
100
AcDbBlockBegin
  2
*G20
 70
     0
 10
0.0
 20
0.0
 30
0.0
  3
*G20
  1

  0
LINE
  5
1EA
100
AcDbEntity
  8
8
  6
CONTINUOUS
 62
     6
100
AcDbLine
 10
392.751357
 20
280.0
 30
0.0
 11
394.15
 21
281.398643
 31
0.0
  0
LINE
  5
1EB
100
AcDbEntity
  8
8
  6
CONTINUOUS
 62
     6
100
AcDbLine
 10
390.721393
 20
281.50557
 30
0.0
 11
394.15
 21
284.934177
 31
0.0
  0
LINE
  5
1EC
100
AcDbEntity
  8
8
  6
CONTINUOUS
 62
     6
100
AcDbLine
 10
390.500431
 20
284.820143
 30
0.0
 11
394.15
 21
288.469711
 31
0.0
  0
LINE
  5
1ED
100
AcDbEntity
  8
8
  6
CONTINUOUS
 62
     6
100
AcDbLine
 10
396.680289
 20
291.0
 30
0.0
 11
400.15
 21
294.469711
 31
0.0
  0
LINE
  5
1EE
100
AcDbEntity
  8
8
  6
CONTINUOUS
 62
     6
100
AcDbLine
 10
390.677576
 20
288.532821
 30
0.0
 11
400.15
 21
298.005245
 31
0.0
  0
LINE
  5
1EF
100
AcDbEntity
  8
8
  6
CONTINUOUS
 62
     6
100
AcDbLine
 10
391.156379
 20
292.547158
 30
0.0
 11
400.15
 21
301.540779
 31
0.0
  0
LINE
  5
1F0
100
AcDbEntity
  8
8
  6
CONTINUOUS
 62
     6
100
AcDbLine
 10
391.790496
 20
296.716809
 30
0.0
 11
400.15
 21
305.076313
 31
0.0
  0
LINE
  5
1F1
100
AcDbEntity
  8
8
  6
CONTINUOUS
 62
     6
100
AcDbLine
 10
392.457552
 20
300.919399
 30
0.0
 11
400.15
 21
308.611847
 31
0.0
  0
LINE
  5
1F2
100
AcDbEntity
  8
8
  6
CONTINUOUS
 62
     6
100
AcDbLine
 10
393.105653
 20
305.103034
 30
0.0
 11
400.15
 21
312.147381
 31
0.0
  0
LINE
  5
1F3
100
AcDbEntity
  8
8
  6
CONTINUOUS
 62
     6
100
AcDbLine
 10
393.713998
 20
309.246913
 30
0.0
 11
400.15
 21
315.682915
 31
0.0
  0
LINE
  5
1F4
100
AcDbEntity
  8
8
  6
CONTINUOUS
 62
     6
100
AcDbLine
 10
394.267623
 20
313.336072
 30
0.0
 11
400.15
 21
319.218449
 31
0.0
  0
LINE
  5
1F5
100
AcDbEntity
  8
8
  6
CONTINUOUS
 62
     6
100
AcDbLine
 10
394.768623
 20
317.372605
 30
0.0
 11
400.15
 21
322.753983
 31
0.0
  0
LINE
  5
1F6
100
AcDbEntity
  8
8
  6
CONTINUOUS
 62
     6
100
AcDbLine
 10
395.213991
 20
321.353508
 30
0.0
 11
400.15
 21
326.289516
 31
0.0
  0
LINE
  5
1F7
100
AcDbEntity
  8
8
  6
CONTINUOUS
 62
     6
100
AcDbLine
 10
395.607102
 20
325.282152
 30
0.0
 11
400.15
 21
329.82505
 31
0.0
  0
LINE
  5
1F8
100
AcDbEntity
  8
8
  6
CONTINUOUS
 62
     6
100
AcDbLine
 10
395.957827
 20
329.168411
 30
0.0
 11
400.15
 21
333.360584
 31
0.0
  0
LINE
  5
1F9
100
AcDbEntity
  8
8
  6
CONTINUOUS
 62
     6
100
AcDbLine
 10
396.279608
 20
333.025726
 30
0.0
 11
400.15
 21
336.896118
 31
0.0
  0
LINE
  5
1FA
100
AcDbEntity
  8
8
  6
CONTINUOUS
 62
     6
100
AcDbLine
 10
396.576609
 20
336.858261
 30
0.0
 11
400.15
 21
340.431652
 31
0.0
  0
LINE
  5
1FB
100
AcDbEntity
  8
8
  6
CONTINUOUS
 62
     6
100
AcDbLine
 10
396.853425
 20
340.670611
 30
0.0
 11
400.15
 21
343.967186
 31
0.0
  0
LINE
  5
1FC
100
AcDbEntity
  8
8
  6
CONTINUOUS
 62
     6
100
AcDbLine
 10
397.114148
 20
344.466868
 30
0.0
 11
400.15
 21
347.50272
 31
0.0
  0
LINE
  5
1FD
100
AcDbEntity
  8
8
  6
CONTINUOUS
 62
     6
100
AcDbLine
 10
397.362046
 20
348.2503
 30
0.0
 11
400.15
 21
351.038254
 31
0.0
  0
LINE
  5
1FE
100
AcDbEntity
  8
8
  6
CONTINUOUS
 62
     6
100
AcDbLine
 10
397.599655
 20
352.023443
 30
0.0
 11
400.15
 21
354.573788
 31
0.0
  0
LINE
  5
1FF
100
AcDbEntity
  8
8
  6
CONTINUOUS
 62
     6
100
AcDbLine
 10
397.829049
 20
355.78837
 30
0.0
 11
400.15
 21
358.109322
 31
0.0
  0
LINE
  5
200
100
AcDbEntity
  8
8
  6
CONTINUOUS
 62
     6
100
AcDbLine
 10
398.052104
 20
359.54696
 30
0.0
 11
400.15
 21
361.644855
 31
0.0
  0
LINE
  5
201
100
AcDbEntity
  8
8
  6
CONTINUOUS
 62
     6
100
AcDbLine
 10
398.270641
 20
363.301031
 30
0.0
 11
400.15
 21
365.180389
 31
0.0
  0
LINE
  5
202
100
AcDbEntity
  8
8
  6
CONTINUOUS
 62
     6
100
AcDbLine
 10
398.48633
 20
367.052254
 30
0.0
 11
400.15
 21
368.715923
 31
0.0
  0
ENDBLK
  5
203
100
AcDbEntity
  8
0
100
AcDbBlockEnd
  0
BLOCK
  5
206
100
AcDbEntity
  8
8
  6
CONTINUOUS
 62
     6
100
AcDbBlockBegin
  2
*G21
 70
     0
 10
0.0
 20
0.0
 30
0.0
  3
*G21
  1

  0
LINE
  5
207
100
AcDbEntity
  8
8
  6
CONTINUOUS
 62
     6
100
AcDbLine
 10
416.15
 20
280.213009
 30
0.0
 11
419.780113
 21
283.843122
 31
0.0
  0
LINE
  5
208
100
AcDbEntity
  8
8
  6
CONTINUOUS
 62
     6
100
AcDbLine
 10
416.15
 20
283.748543
 30
0.0
 11
419.71839
 21
287.316933
 31
0.0
  0
LINE
  5
209
100
AcDbEntity
  8
8
  6
CONTINUOUS
 62
     6
100
AcDbLine
 10
416.15
 20
287.284077
 30
0.0
 11
419.409813
 21
290.54389
 31
0.0
  0
LINE
  5
20A
100
AcDbEntity
  8
8
  6
CONTINUOUS
 62
     6
100
AcDbLine
 10
416.15
 20
290.819611
 30
0.0
 11
418.982546
 21
293.652157
 31
0.0
  0
LINE
  5
20B
100
AcDbEntity
  8
8
  6
CONTINUOUS
 62
     6
100
AcDbLine
 10
412.794855
 20
291.0
 30
0.0
 11
418.509798
 21
296.714943
 31
0.0
  0
LINE
  5
20C
100
AcDbEntity
  8
8
  6
CONTINUOUS
 62
     6
100
AcDbLine
 10
410.15
 20
291.890678
 30
0.0
 11
418.025117
 21
299.765795
 31
0.0
  0
LINE
  5
20D
100
AcDbEntity
  8
8
  6
CONTINUOUS
 62
     6
100
AcDbLine
 10
410.15
 20
295.426212
 30
0.0
 11
417.544536
 21
302.820748
 31
0.0
  0
LINE
  5
20E
100
AcDbEntity
  8
8
  6
CONTINUOUS
 62
     6
100
AcDbLine
 10
410.15
 20
298.961746
 30
0.0
 11
417.076289
 21
305.888035
 31
0.0
  0
LINE
  5
20F
100
AcDbEntity
  8
8
  6
CONTINUOUS
 62
     6
100
AcDbLine
 10
410.15
 20
302.49728
 30
0.0
 11
416.625542
 21
308.972822
 31
0.0
  0
LINE
  5
210
100
AcDbEntity
  8
8
  6
CONTINUOUS
 62
     6
100
AcDbLine
 10
410.15
 20
306.032814
 30
0.0
 11
416.196231
 21
312.079045
 31
0.0
  0
LINE
  5
211
100
AcDbEntity
  8
8
  6
CONTINUOUS
 62
     6
100
AcDbLine
 10
410.15
 20
309.568348
 30
0.0
 11
415.793438
 21
315.211786
 31
0.0
  0
LINE
  5
212
100
AcDbEntity
  8
8
  6
CONTINUOUS
 62
     6
100
AcDbLine
 10
410.15
 20
313.103882
 30
0.0
 11
415.414527
 21
318.368408
 31
0.0
  0
LINE
  5
213
100
AcDbEntity
  8
8
  6
CONTINUOUS
 62
     6
100
AcDbLine
 10
410.15
 20
316.639416
 30
0.0
 11
415.06489
 21
321.554306
 31
0.0
  0
LINE
  5
214
100
AcDbEntity
  8
8
  6
CONTINUOUS
 62
     6
100
AcDbLine
 10
410.15
 20
320.17495
 30
0.0
 11
414.742822
 21
324.767771
 31
0.0
  0
LINE
  5
215
100
AcDbEntity
  8
8
  6
CONTINUOUS
 62
     6
100
AcDbLine
 10
410.15
 20
323.710484
 30
0.0
 11
414.443242
 21
328.003725
 31
0.0
  0
LINE
  5
216
100
AcDbEntity
  8
8
  6
CONTINUOUS
 62
     6
100
AcDbLine
 10
410.15
 20
327.246017
 30
0.0
 11
414.163885
 21
331.259902
 31
0.0
  0
LINE
  5
217
100
AcDbEntity
  8
8
  6
CONTINUOUS
 62
     6
100
AcDbLine
 10
410.15
 20
330.781551
 30
0.0
 11
413.900369
 21
334.531921
 31
0.0
  0
LINE
  5
218
100
AcDbEntity
  8
8
  6
CONTINUOUS
 62
     6
100
AcDbLine
 10
410.15
 20
334.317085
 30
0.0
 11
413.650416
 21
337.817501
 31
0.0
  0
LINE
  5
219
100
AcDbEntity
  8
8
  6
CONTINUOUS
 62
     6
100
AcDbLine
 10
410.15
 20
337.852619
 30
0.0
 11
413.414667
 21
341.117286
 31
0.0
  0
LINE
  5
21A
100
AcDbEntity
  8
8
  6
CONTINUOUS
 62
     6
100
AcDbLine
 10
410.15
 20
341.388153
 30
0.0
 11
413.188561
 21
344.426714
 31
0.0
  0
LINE
  5
21B
100
AcDbEntity
  8
8
  6
CONTINUOUS
 62
     6
100
AcDbLine
 10
410.15
 20
344.923687
 30
0.0
 11
412.970463
 21
347.74415
 31
0.0
  0
LINE
  5
21C
100
AcDbEntity
  8
8
  6
CONTINUOUS
 62
     6
100
AcDbLine
 10
410.15
 20
348.459221
 30
0.0
 11
412.759277
 21
351.068498
 31
0.0
  0
LINE
  5
21D
100
AcDbEntity
  8
8
  6
CONTINUOUS
 62
     6
100
AcDbLine
 10
410.15
 20
351.994755
 30
0.0
 11
412.554135
 21
354.39889
 31
0.0
  0
LINE
  5
21E
100
AcDbEntity
  8
8
  6
CONTINUOUS
 62
     6
100
AcDbLine
 10
410.15
 20
355.530289
 30
0.0
 11
412.35443
 21
357.734719
 31
0.0
  0
LINE
  5
21F
100
AcDbEntity
  8
8
  6
CONTINUOUS
 62
     6
100
AcDbLine
 10
410.15
 20
359.065823
 30
0.0
 11
412.158391
 21
361.074213
 31
0.0
  0
LINE
  5
220
100
AcDbEntity
  8
8
  6
CONTINUOUS
 62
     6
100
AcDbLine
 10
410.15
 20
362.601357
 30
0.0
 11
411.964888
 21
364.416244
 31
0.0
  0
LINE
  5
221
100
AcDbEntity
  8
8
  6
CONTINUOUS
 62
     6
100
AcDbLine
 10
410.15
 20
366.13689
 30
0.0
 11
411.77319
 21
367.76008
 31
0.0
  0
LINE
  5
222
100
AcDbEntity
  8
8
  6
CONTINUOUS
 62
     6
100
AcDbLine
 10
410.15
 20
369.672424
 30
0.0
 11
410.477576
 21
370.0
 31
0.0
  0
ENDBLK
  5
223
100
AcDbEntity
  8
0
100
AcDbBlockEnd
  0
BLOCK
  5
259
100
AcDbEntity
  8
6
  6
CONTINUOUS
 62
    51
100
AcDbBlockBegin
  2
*G22
 70
     0
 10
0.0
 20
0.0
 30
0.0
  3
*G22
  1

  0
LINE
  5
25A
100
AcDbEntity
  8
6
  6
CONTINUOUS
 62
    51
100
AcDbLine
 10
107.810067
 20
171.475
 30
0.0
 11
107.810067
 21
76.475
 31
0.0
  0
LINE
  5
25B
100
AcDbEntity
  8
6
  6
CONTINUOUS
 62
    51
100
AcDbLine
 10
107.810067
 20
76.475
 30
0.0
 11
337.810067
 21
76.475
 31
0.0
  0
LINE
  5
25C
100
AcDbEntity
  8
6
  6
CONTINUOUS
 62
    51
100
AcDbLine
 10
337.810067
 20
76.475
 30
0.0
 11
337.810067
 21
171.475
 31
0.0
  0
LINE
  5
25D
100
AcDbEntity
  8
6
  6
CONTINUOUS
 62
    51
100
AcDbLine
 10
337.810067
 20
171.475
 30
0.0
 11
107.810067
 21
171.475
 31
0.0
  0
ENDBLK
  5
25E
100
AcDbEntity
  8
0
100
AcDbBlockEnd
  0
BLOCK
  5
28B
100
AcDbEntity
  8
4
  6
CONTINUOUS
 62
    21
100
AcDbBlockBegin
  2
*G23
 70
     0
 10
0.0
 20
0.0
 30
0.0
  3
*G23
  1

  0
LINE
  5
28C
100
AcDbEntity
  8
4
  6
CONTINUOUS
 62
    21
100
AcDbLine
 10
1412.9
 20
961.475
 30
0.0
 11
67.45
 21
961.475
 31
0.0
  0
LINE
  5
28D
100
AcDbEntity
  8
4
  6
CONTINUOUS
 62
    21
100
AcDbLine
 10
67.45
 20
961.475
 30
0.0
 11
67.45
 21
51.475
 31
0.0
  0
LINE
  5
28E
100
AcDbEntity
  8
4
  6
CONTINUOUS
 62
    21
100
AcDbLine
 10
67.45
 20
51.475
 30
0.0
 11
1412.9
 21
51.475
 31
0.0
  0
LINE
  5
28F
100
AcDbEntity
  8
4
  6
CONTINUOUS
 62
    21
100
AcDbLine
 10
1412.9
 20
51.475
 30
0.0
 11
1412.9
 21
996.975
 31
0.0
  0
LINE
  5
290
100
AcDbEntity
  8
4
  6
CONTINUOUS
 62
    21
100
AcDbLine
 10
1412.9
 20
996.975
 30
0.0
 11
1199.9
 21
996.975
 31
0.0
  0
LINE
  5
291
100
AcDbEntity
  8
4
  6
CONTINUOUS
 62
    21
100
AcDbLine
 10
1199.9
 20
996.975
 30
0.0
 11
1199.9
 21
961.475
 31
0.0
  0
ENDBLK
  5
292
100
AcDbEntity
  8
0
100
AcDbBlockEnd
  0
BLOCK
  5
2A5
100
AcDbEntity
  8
4
  6
CONTINUOUS
 62
    21
100
AcDbBlockBegin
  2
*G24
 70
     0
 10
0.0
 20
0.0
 30
0.0
  3
*G24
  1

  0
LINE
  5
2A6
100
AcDbEntity
  8
4
  6
CONTINUOUS
 62
    21
100
AcDbLine
 10
108.408125
 20
997.108125
 30
0.0
 11
87.640625
 21
997.108125
 31
0.0
  0
LINE
  5
2A7
100
AcDbEntity
  8
4
  6
CONTINUOUS
 62
    21
100
AcDbLine
 10
87.640625
 20
997.108125
 30
0.0
 11
87.640625
 21
993.07
 31
0.0
  0
LINE
  5
2A8
100
AcDbEntity
  8
4
  6
CONTINUOUS
 62
    21
100
AcDbLine
 10
87.640625
 20
993.07
 30
0.0
 11
103.21625
 21
993.07
 31
0.0
  0
LINE
  5
2A9
100
AcDbEntity
  8
4
  6
CONTINUOUS
 62
    21
100
AcDbLine
 10
103.21625
 20
993.07
 30
0.0
 11
103.21625
 21
987.878125
 31
0.0
  0
LINE
  5
2AA
100
AcDbEntity
  8
4
  6
CONTINUOUS
 62
    21
100
AcDbLine
 10
103.21625
 20
987.878125
 30
0.0
 11
87.640625
 21
987.878125
 31
0.0
  0
LINE
  5
2AB
100
AcDbEntity
  8
4
  6
CONTINUOUS
 62
    21
100
AcDbLine
 10
87.640625
 20
987.878125
 30
0.0
 11
87.640625
 21
979.225
 31
0.0
  0
LINE
  5
2AC
100
AcDbEntity
  8
4
  6
CONTINUOUS
 62
    21
100
AcDbLine
 10
87.640625
 20
979.225
 30
0.0
 11
67.45
 21
979.225
 31
0.0
  0
LINE
  5
2AD
100
AcDbEntity
  8
4
  6
CONTINUOUS
 62
    21
100
AcDbLine
 10
67.45
 20
979.225
 30
0.0
 11
67.45
 21
1002.3
 31
0.0
  0
LINE
  5
2AE
100
AcDbEntity
  8
4
  6
CONTINUOUS
 62
    21
100
AcDbLine
 10
67.45
 20
1002.3
 30
0.0
 11
108.408125
 21
1002.3
 31
0.0
  0
LINE
  5
2AF
100
AcDbEntity
  8
4
  6
CONTINUOUS
 62
    21
100
AcDbLine
 10
108.408125
 20
1002.3
 30
0.0
 11
108.408125
 21
997.108125
 31
0.0
  0
ENDBLK
  5
2B0
100
AcDbEntity
  8
0
100
AcDbBlockEnd
  0
BLOCK
  5
2CE
100
AcDbEntity
  8
4
  6
CONTINUOUS
 62
    21
100
AcDbBlockBegin
  2
*G25
 70
     0
 10
0.0
 20
0.0
 30
0.0
  3
*G25
  1

  0
LINE
  5
2CF
100
AcDbEntity
  8
4
  6
CONTINUOUS
 62
    21
100
AcDbLine
 10
196.451927
 20
1002.3
 30
0.0
 11
164.146927
 21
1002.3
 31
0.0
  0
LINE
  5
2D0
100
AcDbEntity
  8
4
  6
CONTINUOUS
 62
    21
100
AcDbLine
 10
164.146927
 20
1002.3
 30
0.0
 11
164.146927
 21
979.225
 31
0.0
  0
LINE
  5
2D1
100
AcDbEntity
  8
4
  6
CONTINUOUS
 62
    21
100
AcDbLine
 10
164.146927
 20
979.225
 30
0.0
 11
180.299427
 21
979.225
 31
0.0
  0
LINE
  5
2D2
100
AcDbEntity
  8
4
  6
CONTINUOUS
 62
    21
100
AcDbLine
 10
180.299427
 20
979.225
 30
0.0
 11
180.299427
 21
985.570625
 31
0.0
  0
LINE
  5
2D3
100
AcDbEntity
  8
4
  6
CONTINUOUS
 62
    21
100
AcDbLine
 10
180.299427
 20
985.570625
 30
0.0
 11
187.221927
 21
979.225
 31
0.0
  0
LINE
  5
2D4
100
AcDbEntity
  8
4
  6
CONTINUOUS
 62
    21
100
AcDbLine
 10
187.221927
 20
979.225
 30
0.0
 11
204.528177
 21
979.225
 31
0.0
  0
LINE
  5
2D5
100
AcDbEntity
  8
4
  6
CONTINUOUS
 62
    21
100
AcDbLine
 10
204.528177
 20
979.225
 30
0.0
 11
198.031971
 21
985.720975
 31
0.0
  0
ENDBLK
  5
2D6
100
AcDbEntity
  8
0
100
AcDbBlockEnd
  0
BLOCK
  5
2DA
100
AcDbEntity
  8
4
  6
CONTINUOUS
 62
    21
100
AcDbBlockBegin
  2
*G26
 70
     0
 10
0.0
 20
0.0
 30
0.0
  3
*G26
  1

  0
LINE
  5
2DB
100
AcDbEntity
  8
4
  6
CONTINUOUS
 62
    21
100
AcDbLine
 10
187.798802
 20
997.108125
 30
0.0
 11
180.299427
 21
997.108125
 31
0.0
  0
LINE
  5
2DC
100
AcDbEntity
  8
4
  6
CONTINUOUS
 62
    21
100
AcDbLine
 10
180.299427
 20
997.108125
 30
0.0
 11
180.299427
 21
989.031875
 31
0.0
  0
LINE
  5
2DD
100
AcDbEntity
  8
4
  6
CONTINUOUS
 62
    21
100
AcDbLine
 10
180.299427
 20
989.031875
 30
0.0
 11
187.798802
 21
989.031875
 31
0.0
  0
ENDBLK
  5
2DE
100
AcDbEntity
  8
0
100
AcDbBlockEnd
  0
BLOCK
  5
2FE
100
AcDbEntity
  8
4
  6
CONTINUOUS
 62
    21
100
AcDbBlockBegin
  2
*G27
 70
     0
 10
0.0
 20
0.0
 30
0.0
  3
*G27
  1

  0
LINE
  5
2FF
100
AcDbEntity
  8
4
  6
CONTINUOUS
 62
    21
100
AcDbLine
 10
157.333465
 20
1002.3
 30
0.0
 11
141.180965
 21
1002.3
 31
0.0
  0
LINE
  5
300
100
AcDbEntity
  8
4
  6
CONTINUOUS
 62
    21
100
AcDbLine
 10
141.180965
 20
1002.3
 30
0.0
 11
141.180965
 21
989.897187
 31
0.0
  0
ENDBLK
  5
301
100
AcDbEntity
  8
0
100
AcDbBlockEnd
  0
BLOCK
  5
305
100
AcDbEntity
  8
4
  6
CONTINUOUS
 62
    21
100
AcDbBlockBegin
  2
*G28
 70
     0
 10
0.0
 20
0.0
 30
0.0
  3
*G28
  1

  0
LINE
  5
306
100
AcDbEntity
  8
4
  6
CONTINUOUS
 62
    21
100
AcDbLine
 10
131.37409
 20
989.897187
 30
0.0
 11
131.37409
 21
1002.3
 31
0.0
  0
LINE
  5
307
100
AcDbEntity
  8
4
  6
CONTINUOUS
 62
    21
100
AcDbLine
 10
131.37409
 20
1002.3
 30
0.0
 11
115.22159
 21
1002.3
 31
0.0
  0
LINE
  5
308
100
AcDbEntity
  8
4
  6
CONTINUOUS
 62
    21
100
AcDbLine
 10
115.22159
 20
1002.3
 30
0.0
 11
115.22159
 21
990.7625
 31
0.0
  0
ENDBLK
  5
309
100
AcDbEntity
  8
0
100
AcDbBlockEnd
  0
BLOCK
  5
30D
100
AcDbEntity
  8
4
  6
CONTINUOUS
 62
    21
100
AcDbBlockBegin
  2
*G29
 70
     0
 10
0.0
 20
0.0
 30
0.0
  3
*G29
  1

  0
LINE
  5
30E
100
AcDbEntity
  8
4
  6
CONTINUOUS
 62
    21
100
AcDbLine
 10
126.75909
 20
979.225
 30
0.0
 11
145.795965
 21
979.225
 31
0.0
  0
ENDBLK
  5
30F
100
AcDbEntity
  8
0
100
AcDbBlockEnd
  0
BLOCK
  5
313
100
AcDbEntity
  8
4
  6
CONTINUOUS
 62
    21
100
AcDbBlockBegin
  2
*G30
 70
     0
 10
0.0
 20
0.0
 30
0.0
  3
*G30
  1

  0
LINE
  5
314
100
AcDbEntity
  8
4
  6
CONTINUOUS
 62
    21
100
AcDbLine
 10
157.333465
 20
990.7625
 30
0.0
 11
157.333465
 21
1002.3
 31
0.0
  0
ENDBLK
  5
315
100
AcDbEntity
  8
0
100
AcDbBlockEnd
  0
BLOCK
  5
334
100
AcDbEntity
  8
4
  6
CONTINUOUS
 62
    21
100
AcDbBlockBegin
  2
*G31
 70
     0
 10
0.0
 20
0.0
 30
0.0
  3
*G31
  1

  0
LINE
  5
335
100
AcDbEntity
  8
4
  6
CONTINUOUS
 62
    21
100
AcDbLine
 10
253.453517
 20
1002.3
 30
0.0
 11
237.301017
 21
1002.3
 31
0.0
  0
LINE
  5
336
100
AcDbEntity
  8
4
  6
CONTINUOUS
 62
    21
100
AcDbLine
 10
237.301017
 20
1002.3
 30
0.0
 11
237.301017
 21
989.897187
 31
0.0
  0
ENDBLK
  5
337
100
AcDbEntity
  8
0
100
AcDbBlockEnd
  0
BLOCK
  5
33B
100
AcDbEntity
  8
4
  6
CONTINUOUS
 62
    21
100
AcDbBlockBegin
  2
*G32
 70
     0
 10
0.0
 20
0.0
 30
0.0
  3
*G32
  1

  0
LINE
  5
33C
100
AcDbEntity
  8
4
  6
CONTINUOUS
 62
    21
100
AcDbLine
 10
227.494142
 20
989.897187
 30
0.0
 11
227.494142
 21
1002.3
 31
0.0
  0
LINE
  5
33D
100
AcDbEntity
  8
4
  6
CONTINUOUS
 62
    21
100
AcDbLine
 10
227.494142
 20
1002.3
 30
0.0
 11
211.341642
 21
1002.3
 31
0.0
  0
LINE
  5
33E
100
AcDbEntity
  8
4
  6
CONTINUOUS
 62
    21
100
AcDbLine
 10
211.341642
 20
1002.3
 30
0.0
 11
211.341642
 21
990.7625
 31
0.0
  0
ENDBLK
  5
33F
100
AcDbEntity
  8
0
100
AcDbBlockEnd
  0
BLOCK
  5
343
100
AcDbEntity
  8
4
  6
CONTINUOUS
 62
    21
100
AcDbBlockBegin
  2
*G33
 70
     0
 10
0.0
 20
0.0
 30
0.0
  3
*G33
  1

  0
LINE
  5
344
100
AcDbEntity
  8
4
  6
CONTINUOUS
 62
    21
100
AcDbLine
 10
222.879142
 20
979.225
 30
0.0
 11
241.916017
 21
979.225
 31
0.0
  0
ENDBLK
  5
345
100
AcDbEntity
  8
0
100
AcDbBlockEnd
  0
BLOCK
  5
349
100
AcDbEntity
  8
4
  6
CONTINUOUS
 62
    21
100
AcDbBlockBegin
  2
*G34
 70
     0
 10
0.0
 20
0.0
 30
0.0
  3
*G34
  1

  0
LINE
  5
34A
100
AcDbEntity
  8
4
  6
CONTINUOUS
 62
    21
100
AcDbLine
 10
253.453517
 20
990.762493
 30
0.0
 11
253.453517
 21
1002.3
 31
0.0
  0
ENDBLK
  5
34B
100
AcDbEntity
  8
0
100
AcDbBlockEnd
  0
BLOCK
  5
369
100
AcDbEntity
  8
4
  6
CONTINUOUS
 62
    21
100
AcDbBlockBegin
  2
*G35
 70
     0
 10
0.0
 20
0.0
 30
0.0
  3
*G35
  1

  0
LINE
  5
36A
100
AcDbEntity
  8
4
  6
CONTINUOUS
 62
    21
100
AcDbLine
 10
282.765108
 20
994.223519
 30
0.0
 11
282.765108
 21
1002.3
 31
0.0
  0
LINE
  5
36B
100
AcDbEntity
  8
4
  6
CONTINUOUS
 62
    21
100
AcDbLine
 10
282.765108
 20
1002.3
 30
0.0
 11
300.071358
 21
1002.3
 31
0.0
  0
LINE
  5
36C
100
AcDbEntity
  8
4
  6
CONTINUOUS
 62
    21
100
AcDbLine
 10
300.071358
 20
1002.3
 30
0.0
 11
300.071358
 21
979.225
 31
0.0
  0
LINE
  5
36D
100
AcDbEntity
  8
4
  6
CONTINUOUS
 62
    21
100
AcDbLine
 10
300.071358
 20
979.225
 30
0.0
 11
282.765108
 21
979.225
 31
0.0
  0
LINE
  5
36E
100
AcDbEntity
  8
4
  6
CONTINUOUS
 62
    21
100
AcDbLine
 10
282.765108
 20
979.225
 30
0.0
 11
277.573233
 21
987.30125
 31
0.0
  0
LINE
  5
36F
100
AcDbEntity
  8
4
  6
CONTINUOUS
 62
    21
100
AcDbLine
 10
277.573233
 20
987.30125
 30
0.0
 11
277.573233
 21
979.225
 31
0.0
  0
LINE
  5
370
100
AcDbEntity
  8
4
  6
CONTINUOUS
 62
    21
100
AcDbLine
 10
277.573233
 20
979.225
 30
0.0
 11
260.266983
 21
979.225
 31
0.0
  0
LINE
  5
371
100
AcDbEntity
  8
4
  6
CONTINUOUS
 62
    21
100
AcDbLine
 10
260.266983
 20
979.225
 30
0.0
 11
260.266983
 21
1002.3
 31
0.0
  0
LINE
  5
372
100
AcDbEntity
  8
4
  6
CONTINUOUS
 62
    21
100
AcDbLine
 10
260.266983
 20
1002.3
 30
0.0
 11
277.573233
 21
1002.3
 31
0.0
  0
LINE
  5
373
100
AcDbEntity
  8
4
  6
CONTINUOUS
 62
    21
100
AcDbLine
 10
277.573233
 20
1002.3
 30
0.0
 11
282.765108
 21
994.223519
 31
0.0
  0
ENDBLK
  5
374
100
AcDbEntity
  8
0
100
AcDbBlockEnd
  0
BLOCK
  5
392
100
AcDbEntity
  8
4
  6
CONTINUOUS
 62
    21
100
AcDbBlockBegin
  2
*G36
 70
     0
 10
0.0
 20
0.0
 30
0.0
  3
*G36
  1

  0
LINE
  5
393
100
AcDbEntity
  8
4
  6
CONTINUOUS
 62
    21
100
AcDbLine
 10
318.422323
 20
979.225
 30
0.0
 11
335.728573
 21
979.225
 31
0.0
  0
ENDBLK
  5
394
100
AcDbEntity
  8
0
100
AcDbBlockEnd
  0
BLOCK
  5
398
100
AcDbEntity
  8
4
  6
CONTINUOUS
 62
    21
100
AcDbBlockBegin
  2
*G37
 70
     0
 10
0.0
 20
0.0
 30
0.0
  3
*G37
  1

  0
LINE
  5
399
100
AcDbEntity
  8
4
  6
CONTINUOUS
 62
    21
100
AcDbLine
 10
335.728573
 20
1002.3
 30
0.0
 11
318.422323
 21
1002.3
 31
0.0
  0
ENDBLK
  5
39A
100
AcDbEntity
  8
0
100
AcDbBlockEnd
  0
BLOCK
  5
39F
100
AcDbEntity
  8
4
  6
CONTINUOUS
 62
    21
100
AcDbBlockBegin
  2
*G38
 70
     0
 10
0.0
 20
0.0
 30
0.0
  3
*G38
  1

  0
LINE
  5
3A0
100
AcDbEntity
  8
4
  6
CONTINUOUS
 62
    21
100
AcDbLine
 10
324.191073
 20
995.3775
 30
0.0
 11
324.191073
 21
986.1475
 31
0.0
  0
ENDBLK
  5
3A1
100
AcDbEntity
  8
0
100
AcDbBlockEnd
  0
BLOCK
  5
3A5
100
AcDbEntity
  8
4
  6
CONTINUOUS
 62
    21
100
AcDbBlockBegin
  2
*G39
 70
     0
 10
0.0
 20
0.0
 30
0.0
  3
*G39
  1

  0
LINE
  5
3A6
100
AcDbEntity
  8
4
  6
CONTINUOUS
 62
    21
100
AcDbLine
 10
329.959823
 20
986.1475
 30
0.0
 11
329.959823
 21
995.3775
 31
0.0
  0
ENDBLK
  5
3A7
100
AcDbEntity
  8
0
100
AcDbBlockEnd
  0
BLOCK
  5
43A
100
AcDbEntity
  8
1
  6
CONTINUOUS
 62
     4
100
AcDbBlockBegin
  2
*G40
 70
     0
 10
0.0
 20
0.0
 30
0.0
  3
*G40
  1

  0
LINE
  5
43B
100
AcDbEntity
  8
1
  6
CONTINUOUS
 62
     4
100
AcDbLine
 10
288.85
 20
580.0
 30
0.0
 11
248.85
 21
580.0
 31
0.0
  0
LINE
  5
43C
100
AcDbEntity
  8
1
  6
CONTINUOUS
 62
     4
100
AcDbLine
 10
248.85
 20
580.0
 30
0.0
 11
248.85
 21
615.0
 31
0.0
  0
LINE
  5
43D
100
AcDbEntity
  8
1
  6
CONTINUOUS
 62
     4
100
AcDbLine
 10
253.85
 20
620.0
 30
0.0
 11
248.85
 21
615.0
 31
0.0
  0
LINE
  5
43E
100
AcDbEntity
  8
1
  6
CONTINUOUS
 62
     4
100
AcDbLine
 10
253.85
 20
620.0
 30
0.0
 11
283.85
 21
620.0
 31
0.0
  0
LINE
  5
43F
100
AcDbEntity
  8
1
  6
CONTINUOUS
 62
     4
100
AcDbLine
 10
288.85
 20
580.0
 30
0.0
 11
288.85
 21
615.0
 31
0.0
  0
LINE
  5
440
100
AcDbEntity
  8
1
  6
CONTINUOUS
 62
     4
100
AcDbLine
 10
283.85
 20
620.0
 30
0.0
 11
288.85
 21
615.0
 31
0.0
  0
ENDBLK
  5
441
100
AcDbEntity
  8
0
100
AcDbBlockEnd
  0
BLOCK
  5
445
100
AcDbEntity
  8
1
  6
CONTINUOUS
 62
     4
100
AcDbBlockBegin
  2
*G41
 70
     0
 10
0.0
 20
0.0
 30
0.0
  3
*G41
  1

  0
LINE
  5
446
100
AcDbEntity
  8
1
  6
CONTINUOUS
 62
     4
100
AcDbLine
 10
411.15
 20
580.0
 30
0.0
 11
451.15
 21
580.0
 31
0.0
  0
LINE
  5
447
100
AcDbEntity
  8
1
  6
CONTINUOUS
 62
     4
100
AcDbLine
 10
451.15
 20
580.0
 30
0.0
 11
451.15
 21
615.0
 31
0.0
  0
LINE
  5
448
100
AcDbEntity
  8
1
  6
CONTINUOUS
 62
     4
100
AcDbLine
 10
446.15
 20
620.0
 30
0.0
 11
451.15
 21
615.0
 31
0.0
  0
LINE
  5
449
100
AcDbEntity
  8
1
  6
CONTINUOUS
 62
     4
100
AcDbLine
 10
446.15
 20
620.0
 30
0.0
 11
416.15
 21
620.0
 31
0.0
  0
LINE
  5
44A
100
AcDbEntity
  8
1
  6
CONTINUOUS
 62
     4
100
AcDbLine
 10
411.15
 20
580.0
 30
0.0
 11
411.15
 21
615.0
 31
0.0
  0
LINE
  5
44B
100
AcDbEntity
  8
1
  6
CONTINUOUS
 62
     4
100
AcDbLine
 10
416.15
 20
620.0
 30
0.0
 11
411.15
 21
615.0
 31
0.0
  0
ENDBLK
  5
44C
100
AcDbEntity
  8
0
100
AcDbBlockEnd
  0
BLOCK
  5
474
100
AcDbEntity
  8
8
  6
CONTINUOUS
 62
     6
100
AcDbBlockBegin
  2
*G42
 70
     0
 10
0.0
 20
0.0
 30
0.0
  3
*G42
  1

  0
LINE
  5
475
100
AcDbEntity
  8
8
  6
CONTINUOUS
 62
     6
100
AcDbLine
 10
453.453102
 20
280.0
 30
0.0
 11
458.15
 21
284.696898
 31
0.0
  0
LINE
  5
476
100
AcDbEntity
  8
8
  6
CONTINUOUS
 62
     6
100
AcDbLine
 10
446.382034
 20
280.0
 30
0.0
 11
458.15
 21
291.767966
 31
0.0
  0
LINE
  5
477
100
AcDbEntity
  8
8
  6
CONTINUOUS
 62
     6
100
AcDbLine
 10
439.310967
 20
280.0
 30
0.0
 11
458.15
 21
298.839033
 31
0.0
  0
LINE
  5
478
100
AcDbEntity
  8
8
  6
CONTINUOUS
 62
     6
100
AcDbLine
 10
432.239899
 20
280.0
 30
0.0
 11
458.15
 21
305.910101
 31
0.0
  0
LINE
  5
479
100
AcDbEntity
  8
8
  6
CONTINUOUS
 62
     6
100
AcDbLine
 10
425.168831
 20
280.0
 30
0.0
 11
458.15
 21
312.981169
 31
0.0
  0
LINE
  5
47A
100
AcDbEntity
  8
8
  6
CONTINUOUS
 62
     6
100
AcDbLine
 10
425.0
 20
286.902237
 30
0.0
 11
458.15
 21
320.052237
 31
0.0
  0
LINE
  5
47B
100
AcDbEntity
  8
8
  6
CONTINUOUS
 62
     6
100
AcDbLine
 10
425.0
 20
293.973305
 30
0.0
 11
431.026695
 21
300.0
 31
0.0
  0
LINE
  5
47C
100
AcDbEntity
  8
8
  6
CONTINUOUS
 62
     6
100
AcDbLine
 10
433.15
 20
302.123305
 30
0.0
 11
458.15
 21
327.123305
 31
0.0
  0
LINE
  5
47D
100
AcDbEntity
  8
8
  6
CONTINUOUS
 62
     6
100
AcDbLine
 10
433.15
 20
309.194373
 30
0.0
 11
458.15
 21
334.194373
 31
0.0
  0
LINE
  5
47E
100
AcDbEntity
  8
8
  6
CONTINUOUS
 62
     6
100
AcDbLine
 10
433.15
 20
316.26544
 30
0.0
 11
458.15
 21
341.26544
 31
0.0
  0
LINE
  5
47F
100
AcDbEntity
  8
8
  6
CONTINUOUS
 62
     6
100
AcDbLine
 10
433.15
 20
323.336508
 30
0.0
 11
458.15
 21
348.336508
 31
0.0
  0
LINE
  5
480
100
AcDbEntity
  8
8
  6
CONTINUOUS
 62
     6
100
AcDbLine
 10
433.15
 20
330.407576
 30
0.0
 11
458.15
 21
355.407576
 31
0.0
  0
LINE
  5
481
100
AcDbEntity
  8
8
  6
CONTINUOUS
 62
     6
100
AcDbLine
 10
433.15
 20
337.478644
 30
0.0
 11
458.15
 21
362.478644
 31
0.0
  0
LINE
  5
482
100
AcDbEntity
  8
8
  6
CONTINUOUS
 62
     6
100
AcDbLine
 10
433.15
 20
344.549712
 30
0.0
 11
458.15
 21
369.549712
 31
0.0
  0
LINE
  5
483
100
AcDbEntity
  8
8
  6
CONTINUOUS
 62
     6
100
AcDbLine
 10
433.15
 20
351.620779
 30
0.0
 11
458.15
 21
376.620779
 31
0.0
  0
LINE
  5
484
100
AcDbEntity
  8
8
  6
CONTINUOUS
 62
     6
100
AcDbLine
 10
433.15
 20
358.691847
 30
0.0
 11
458.15
 21
383.691847
 31
0.0
  0
LINE
  5
485
100
AcDbEntity
  8
8
  6
CONTINUOUS
 62
     6
100
AcDbLine
 10
433.15
 20
365.762915
 30
0.0
 11
458.15
 21
390.762915
 31
0.0
  0
LINE
  5
486
100
AcDbEntity
  8
8
  6
CONTINUOUS
 62
     6
100
AcDbLine
 10
430.316017
 20
370.0
 30
0.0
 11
458.15
 21
397.833983
 31
0.0
  0
LINE
  5
487
100
AcDbEntity
  8
8
  6
CONTINUOUS
 62
     6
100
AcDbLine
 10
423.244949
 20
370.0
 30
0.0
 11
458.15
 21
404.905051
 31
0.0
  0
LINE
  5
488
100
AcDbEntity
  8
8
  6
CONTINUOUS
 62
     6
100
AcDbLine
 10
416.173882
 20
370.0
 30
0.0
 11
458.15
 21
411.976118
 31
0.0
  0
LINE
  5
489
100
AcDbEntity
  8
8
  6
CONTINUOUS
 62
     6
100
AcDbLine
 10
410.15
 20
371.047186
 30
0.0
 11
429.102814
 21
390.0
 31
0.0
  0
LINE
  5
48A
100
AcDbEntity
  8
8
  6
CONTINUOUS
 62
     6
100
AcDbLine
 10
433.15
 20
394.047186
 30
0.0
 11
458.15
 21
419.047186
 31
0.0
  0
LINE
  5
48B
100
AcDbEntity
  8
8
  6
CONTINUOUS
 62
     6
100
AcDbLine
 10
410.15
 20
378.118254
 30
0.0
 11
422.031746
 21
390.0
 31
0.0
  0
LINE
  5
48C
100
AcDbEntity
  8
8
  6
CONTINUOUS
 62
     6
100
AcDbLine
 10
433.15
 20
401.118254
 30
0.0
 11
458.15
 21
426.118254
 31
0.0
  0
LINE
  5
48D
100
AcDbEntity
  8
8
  6
CONTINUOUS
 62
     6
100
AcDbLine
 10
410.15
 20
385.189322
 30
0.0
 11
414.960678
 21
390.0
 31
0.0
  0
LINE
  5
48E
100
AcDbEntity
  8
8
  6
CONTINUOUS
 62
     6
100
AcDbLine
 10
433.15
 20
408.189322
 30
0.0
 11
458.15
 21
433.189322
 31
0.0
  0
LINE
  5
48F
100
AcDbEntity
  8
8
  6
CONTINUOUS
 62
     6
100
AcDbLine
 10
433.15
 20
415.26039
 30
0.0
 11
458.15
 21
440.26039
 31
0.0
  0
LINE
  5
490
100
AcDbEntity
  8
8
  6
CONTINUOUS
 62
     6
100
AcDbLine
 10
433.15
 20
422.331458
 30
0.0
 11
458.15
 21
447.331458
 31
0.0
  0
LINE
  5
491
100
AcDbEntity
  8
8
  6
CONTINUOUS
 62
     6
100
AcDbLine
 10
433.15
 20
429.402525
 30
0.0
 11
458.15
 21
454.402525
 31
0.0
  0
LINE
  5
492
100
AcDbEntity
  8
8
  6
CONTINUOUS
 62
     6
100
AcDbLine
 10
433.15
 20
436.473593
 30
0.0
 11
458.15
 21
461.473593
 31
0.0
  0
LINE
  5
493
100
AcDbEntity
  8
8
  6
CONTINUOUS
 62
     6
100
AcDbLine
 10
433.15
 20
443.544661
 30
0.0
 11
458.15
 21
468.544661
 31
0.0
  0
LINE
  5
494
100
AcDbEntity
  8
8
  6
CONTINUOUS
 62
     6
100
AcDbLine
 10
433.15
 20
450.615729
 30
0.0
 11
458.15
 21
475.615729
 31
0.0
  0
LINE
  5
495
100
AcDbEntity
  8
8
  6
CONTINUOUS
 62
     6
100
AcDbLine
 10
433.15
 20
457.686797
 30
0.0
 11
458.15
 21
482.686797
 31
0.0
  0
LINE
  5
496
100
AcDbEntity
  8
8
  6
CONTINUOUS
 62
     6
100
AcDbLine
 10
433.15
 20
464.757864
 30
0.0
 11
458.15
 21
489.757864
 31
0.0
  0
LINE
  5
497
100
AcDbEntity
  8
8
  6
CONTINUOUS
 62
     6
100
AcDbLine
 10
433.15
 20
471.828932
 30
0.0
 11
458.15
 21
496.828932
 31
0.0
  0
LINE
  5
498
100
AcDbEntity
  8
8
  6
CONTINUOUS
 62
     6
100
AcDbLine
 10
433.15
 20
478.9
 30
0.0
 11
458.15
 21
503.9
 31
0.0
  0
LINE
  5
499
100
AcDbEntity
  8
8
  6
CONTINUOUS
 62
     6
100
AcDbLine
 10
433.15
 20
485.971068
 30
0.0
 11
458.15
 21
510.971068
 31
0.0
  0
LINE
  5
49A
100
AcDbEntity
  8
8
  6
CONTINUOUS
 62
     6
100
AcDbLine
 10
433.15
 20
493.042136
 30
0.0
 11
458.15
 21
518.042136
 31
0.0
  0
LINE
  5
49B
100
AcDbEntity
  8
8
  6
CONTINUOUS
 62
     6
100
AcDbLine
 10
433.15
 20
500.113203
 30
0.0
 11
458.15
 21
525.113203
 31
0.0
  0
LINE
  5
49C
100
AcDbEntity
  8
8
  6
CONTINUOUS
 62
     6
100
AcDbLine
 10
433.15
 20
507.184271
 30
0.0
 11
458.15
 21
532.184271
 31
0.0
  0
LINE
  5
49D
100
AcDbEntity
  8
8
  6
CONTINUOUS
 62
     6
100
AcDbLine
 10
433.15
 20
514.255339
 30
0.0
 11
458.15
 21
539.255339
 31
0.0
  0
LINE
  5
49E
100
AcDbEntity
  8
8
  6
CONTINUOUS
 62
     6
100
AcDbLine
 10
433.15
 20
521.326407
 30
0.0
 11
458.15
 21
546.326407
 31
0.0
  0
LINE
  5
49F
100
AcDbEntity
  8
8
  6
CONTINUOUS
 62
     6
100
AcDbLine
 10
433.15
 20
528.397475
 30
0.0
 11
458.15
 21
553.397475
 31
0.0
  0
LINE
  5
4A0
100
AcDbEntity
  8
8
  6
CONTINUOUS
 62
     6
100
AcDbLine
 10
433.15
 20
535.468542
 30
0.0
 11
458.15
 21
560.468542
 31
0.0
  0
LINE
  5
4A1
100
AcDbEntity
  8
8
  6
CONTINUOUS
 62
     6
100
AcDbLine
 10
433.15
 20
542.53961
 30
0.0
 11
458.15
 21
567.53961
 31
0.0
  0
LINE
  5
4A2
100
AcDbEntity
  8
8
  6
CONTINUOUS
 62
     6
100
AcDbLine
 10
433.15
 20
549.610678
 30
0.0
 11
458.15
 21
574.610678
 31
0.0
  0
LINE
  5
4A3
100
AcDbEntity
  8
8
  6
CONTINUOUS
 62
     6
100
AcDbLine
 10
431.468254
 20
555.0
 30
0.0
 11
454.809127
 21
578.340873
 31
0.0
  0
LINE
  5
4A4
100
AcDbEntity
  8
8
  6
CONTINUOUS
 62
     6
100
AcDbLine
 10
424.397186
 20
555.0
 30
0.0
 11
449.397186
 21
580.0
 31
0.0
  0
LINE
  5
4A5
100
AcDbEntity
  8
8
  6
CONTINUOUS
 62
     6
100
AcDbLine
 10
417.326118
 20
555.0
 30
0.0
 11
442.326118
 21
580.0
 31
0.0
  0
LINE
  5
4A6
100
AcDbEntity
  8
8
  6
CONTINUOUS
 62
     6
100
AcDbLine
 10
410.255051
 20
555.0
 30
0.0
 11
435.255051
 21
580.0
 31
0.0
  0
LINE
  5
4A7
100
AcDbEntity
  8
8
  6
CONTINUOUS
 62
     6
100
AcDbLine
 10
403.183983
 20
555.0
 30
0.0
 11
428.183983
 21
580.0
 31
0.0
  0
LINE
  5
4A8
100
AcDbEntity
  8
8
  6
CONTINUOUS
 62
     6
100
AcDbLine
 10
396.112915
 20
555.0
 30
0.0
 11
421.112915
 21
580.0
 31
0.0
  0
LINE
  5
4A9
100
AcDbEntity
  8
8
  6
CONTINUOUS
 62
     6
100
AcDbLine
 10
389.041847
 20
555.0
 30
0.0
 11
414.041847
 21
580.0
 31
0.0
  0
LINE
  5
4AA
100
AcDbEntity
  8
8
  6
CONTINUOUS
 62
     6
100
AcDbLine
 10
381.970779
 20
555.0
 30
0.0
 11
406.970779
 21
580.0
 31
0.0
  0
LINE
  5
4AB
100
AcDbEntity
  8
8
  6
CONTINUOUS
 62
     6
100
AcDbLine
 10
374.899712
 20
555.0
 30
0.0
 11
399.899712
 21
580.0
 31
0.0
  0
LINE
  5
4AC
100
AcDbEntity
  8
8
  6
CONTINUOUS
 62
     6
100
AcDbLine
 10
367.828644
 20
555.0
 30
0.0
 11
392.828644
 21
580.0
 31
0.0
  0
LINE
  5
4AD
100
AcDbEntity
  8
8
  6
CONTINUOUS
 62
     6
100
AcDbLine
 10
361.053788
 20
555.296212
 30
0.0
 11
385.757576
 21
580.0
 31
0.0
  0
LINE
  5
4AE
100
AcDbEntity
  8
8
  6
CONTINUOUS
 62
     6
100
AcDbLine
 10
360.35
 20
561.663492
 30
0.0
 11
380.0
 21
581.313492
 31
0.0
  0
LINE
  5
4AF
100
AcDbEntity
  8
8
  6
CONTINUOUS
 62
     6
100
AcDbLine
 10
360.35
 20
568.73456
 30
0.0
 11
380.0
 21
588.38456
 31
0.0
  0
LINE
  5
4B0
100
AcDbEntity
  8
8
  6
CONTINUOUS
 62
     6
100
AcDbLine
 10
360.35
 20
575.805627
 30
0.0
 11
380.0
 21
595.455627
 31
0.0
  0
LINE
  5
4B1
100
AcDbEntity
  8
8
  6
CONTINUOUS
 62
     6
100
AcDbLine
 10
360.35
 20
582.876695
 30
0.0
 11
362.473305
 21
585.0
 31
0.0
  0
LINE
  5
4B2
100
AcDbEntity
  8
8
  6
CONTINUOUS
 62
     6
100
AcDbLine
 10
367.320508
 20
589.847203
 30
0.0
 11
380.0
 21
602.526695
 31
0.0
  0
LINE
  5
4B3
100
AcDbEntity
  8
8
  6
CONTINUOUS
 62
     6
100
AcDbLine
 10
367.320508
 20
596.918271
 30
0.0
 11
380.0
 21
609.597763
 31
0.0
  0
LINE
  5
4B4
100
AcDbEntity
  8
8
  6
CONTINUOUS
 62
     6
100
AcDbLine
 10
363.331169
 20
600.0
 30
0.0
 11
378.331169
 21
615.0
 31
0.0
  0
LINE
  5
4B5
100
AcDbEntity
  8
8
  6
CONTINUOUS
 62
     6
100
AcDbLine
 10
360.35
 20
604.089899
 30
0.0
 11
371.260101
 21
615.0
 31
0.0
  0
LINE
  5
4B6
100
AcDbEntity
  8
8
  6
CONTINUOUS
 62
     6
100
AcDbLine
 10
360.35
 20
611.160967
 30
0.0
 11
367.320508
 21
618.131475
 31
0.0
  0
LINE
  5
4B7
100
AcDbEntity
  8
8
  6
CONTINUOUS
 62
     6
100
AcDbLine
 10
369.189033
 20
620.0
 30
0.0
 11
375.0
 21
625.810967
 31
0.0
  0
LINE
  5
4B8
100
AcDbEntity
  8
8
  6
CONTINUOUS
 62
     6
100
AcDbLine
 10
360.35
 20
618.232034
 30
0.0
 11
372.117966
 21
630.0
 31
0.0
  0
LINE
  5
4B9
100
AcDbEntity
  8
8
  6
CONTINUOUS
 62
     6
100
AcDbLine
 10
360.35
 20
625.303102
 30
0.0
 11
365.046898
 21
630.0
 31
0.0
  0
ENDBLK
  5
4BA
100
AcDbEntity
  8
0
100
AcDbBlockEnd
  0
BLOCK
  5
4BD
100
AcDbEntity
  8
8
  6
CONTINUOUS
 62
     6
100
AcDbBlockBegin
  2
*G43
 70
     0
 10
0.0
 20
0.0
 30
0.0
  3
*G43
  1

  0
LINE
  5
4BE
100
AcDbEntity
  8
8
  6
CONTINUOUS
 62
     6
100
AcDbLine
 10
395.467136
 20
370.0
 30
0.0
 11
400.15
 21
374.682864
 31
0.0
  0
LINE
  5
4BF
100
AcDbEntity
  8
8
  6
CONTINUOUS
 62
     6
100
AcDbLine
 10
388.396068
 20
370.0
 30
0.0
 11
400.15
 21
381.753932
 31
0.0
  0
LINE
  5
4C0
100
AcDbEntity
  8
8
  6
CONTINUOUS
 62
     6
100
AcDbLine
 10
382.5
 20
371.175
 30
0.0
 11
400.15
 21
388.825
 31
0.0
  0
LINE
  5
4C1
100
AcDbEntity
  8
8
  6
CONTINUOUS
 62
     6
100
AcDbLine
 10
382.5
 20
378.246068
 30
0.0
 11
394.253932
 21
390.0
 31
0.0
  0
LINE
  5
4C2
100
AcDbEntity
  8
8
  6
CONTINUOUS
 62
     6
100
AcDbLine
 10
382.5
 20
385.317136
 30
0.0
 11
387.182864
 21
390.0
 31
0.0
  0
ENDBLK
  5
4C3
100
AcDbEntity
  8
0
100
AcDbBlockEnd
  0
BLOCK
  5
4C6
100
AcDbEntity
  8
8
  6
CONTINUOUS
 62
     6
100
AcDbBlockBegin
  2
*G44
 70
     0
 10
0.0
 20
0.0
 30
0.0
  3
*G44
  1

  0
LINE
  5
4C7
100
AcDbEntity
  8
8
  6
CONTINUOUS
 62
     6
100
AcDbLine
 10
271.313492
 20
280.0
 30
0.0
 11
275.0
 21
283.686508
 31
0.0
  0
LINE
  5
4C8
100
AcDbEntity
  8
8
  6
CONTINUOUS
 62
     6
100
AcDbLine
 10
264.242424
 20
280.0
 30
0.0
 11
275.0
 21
290.757576
 31
0.0
  0
LINE
  5
4C9
100
AcDbEntity
  8
8
  6
CONTINUOUS
 62
     6
100
AcDbLine
 10
257.171356
 20
280.0
 30
0.0
 11
275.0
 21
297.828644
 31
0.0
  0
LINE
  5
4CA
100
AcDbEntity
  8
8
  6
CONTINUOUS
 62
     6
100
AcDbLine
 10
250.100288
 20
280.0
 30
0.0
 11
270.100288
 21
300.0
 31
0.0
  0
LINE
  5
4CB
100
AcDbEntity
  8
8
  6
CONTINUOUS
 62
     6
100
AcDbLine
 10
243.029221
 20
280.0
 30
0.0
 11
266.85
 21
303.820779
 31
0.0
  0
LINE
  5
4CC
100
AcDbEntity
  8
8
  6
CONTINUOUS
 62
     6
100
AcDbLine
 10
241.85
 20
285.891847
 30
0.0
 11
266.85
 21
310.891847
 31
0.0
  0
LINE
  5
4CD
100
AcDbEntity
  8
8
  6
CONTINUOUS
 62
     6
100
AcDbLine
 10
241.85
 20
292.962915
 30
0.0
 11
266.85
 21
317.962915
 31
0.0
  0
LINE
  5
4CE
100
AcDbEntity
  8
8
  6
CONTINUOUS
 62
     6
100
AcDbLine
 10
241.85
 20
300.033983
 30
0.0
 11
266.85
 21
325.033983
 31
0.0
  0
LINE
  5
4CF
100
AcDbEntity
  8
8
  6
CONTINUOUS
 62
     6
100
AcDbLine
 10
241.85
 20
307.105051
 30
0.0
 11
266.85
 21
332.105051
 31
0.0
  0
LINE
  5
4D0
100
AcDbEntity
  8
8
  6
CONTINUOUS
 62
     6
100
AcDbLine
 10
241.85
 20
314.176118
 30
0.0
 11
266.85
 21
339.176118
 31
0.0
  0
LINE
  5
4D1
100
AcDbEntity
  8
8
  6
CONTINUOUS
 62
     6
100
AcDbLine
 10
241.85
 20
321.247186
 30
0.0
 11
266.85
 21
346.247186
 31
0.0
  0
LINE
  5
4D2
100
AcDbEntity
  8
8
  6
CONTINUOUS
 62
     6
100
AcDbLine
 10
241.85
 20
328.318254
 30
0.0
 11
266.85
 21
353.318254
 31
0.0
  0
LINE
  5
4D3
100
AcDbEntity
  8
8
  6
CONTINUOUS
 62
     6
100
AcDbLine
 10
241.85
 20
335.389322
 30
0.0
 11
266.85
 21
360.389322
 31
0.0
  0
LINE
  5
4D4
100
AcDbEntity
  8
8
  6
CONTINUOUS
 62
     6
100
AcDbLine
 10
241.85
 20
342.46039
 30
0.0
 11
266.85
 21
367.46039
 31
0.0
  0
LINE
  5
4D5
100
AcDbEntity
  8
8
  6
CONTINUOUS
 62
     6
100
AcDbLine
 10
241.85
 20
349.531458
 30
0.0
 11
266.85
 21
374.531458
 31
0.0
  0
LINE
  5
4D6
100
AcDbEntity
  8
8
  6
CONTINUOUS
 62
     6
100
AcDbLine
 10
241.85
 20
356.602525
 30
0.0
 11
266.85
 21
381.602525
 31
0.0
  0
LINE
  5
4D7
100
AcDbEntity
  8
8
  6
CONTINUOUS
 62
     6
100
AcDbLine
 10
241.85
 20
363.673593
 30
0.0
 11
266.85
 21
388.673593
 31
0.0
  0
LINE
  5
4D8
100
AcDbEntity
  8
8
  6
CONTINUOUS
 62
     6
100
AcDbLine
 10
241.85
 20
370.744661
 30
0.0
 11
266.85
 21
395.744661
 31
0.0
  0
LINE
  5
4D9
100
AcDbEntity
  8
8
  6
CONTINUOUS
 62
     6
100
AcDbLine
 10
241.85
 20
377.815729
 30
0.0
 11
266.85
 21
402.815729
 31
0.0
  0
LINE
  5
4DA
100
AcDbEntity
  8
8
  6
CONTINUOUS
 62
     6
100
AcDbLine
 10
241.85
 20
384.886797
 30
0.0
 11
266.85
 21
409.886797
 31
0.0
  0
LINE
  5
4DB
100
AcDbEntity
  8
8
  6
CONTINUOUS
 62
     6
100
AcDbLine
 10
241.85
 20
391.957864
 30
0.0
 11
266.85
 21
416.957864
 31
0.0
  0
LINE
  5
4DC
100
AcDbEntity
  8
8
  6
CONTINUOUS
 62
     6
100
AcDbLine
 10
241.85
 20
399.028932
 30
0.0
 11
266.85
 21
424.028932
 31
0.0
  0
LINE
  5
4DD
100
AcDbEntity
  8
8
  6
CONTINUOUS
 62
     6
100
AcDbLine
 10
241.85
 20
406.1
 30
0.0
 11
266.85
 21
431.1
 31
0.0
  0
LINE
  5
4DE
100
AcDbEntity
  8
8
  6
CONTINUOUS
 62
     6
100
AcDbLine
 10
241.85
 20
413.171068
 30
0.0
 11
266.85
 21
438.171068
 31
0.0
  0
LINE
  5
4DF
100
AcDbEntity
  8
8
  6
CONTINUOUS
 62
     6
100
AcDbLine
 10
241.85
 20
420.242136
 30
0.0
 11
266.85
 21
445.242136
 31
0.0
  0
LINE
  5
4E0
100
AcDbEntity
  8
8
  6
CONTINUOUS
 62
     6
100
AcDbLine
 10
241.85
 20
427.313203
 30
0.0
 11
266.85
 21
452.313203
 31
0.0
  0
LINE
  5
4E1
100
AcDbEntity
  8
8
  6
CONTINUOUS
 62
     6
100
AcDbLine
 10
241.85
 20
434.384271
 30
0.0
 11
266.85
 21
459.384271
 31
0.0
  0
LINE
  5
4E2
100
AcDbEntity
  8
8
  6
CONTINUOUS
 62
     6
100
AcDbLine
 10
241.85
 20
441.455339
 30
0.0
 11
266.85
 21
466.455339
 31
0.0
  0
LINE
  5
4E3
100
AcDbEntity
  8
8
  6
CONTINUOUS
 62
     6
100
AcDbLine
 10
241.85
 20
448.526407
 30
0.0
 11
266.85
 21
473.526407
 31
0.0
  0
LINE
  5
4E4
100
AcDbEntity
  8
8
  6
CONTINUOUS
 62
     6
100
AcDbLine
 10
241.85
 20
455.597475
 30
0.0
 11
266.85
 21
480.597475
 31
0.0
  0
LINE
  5
4E5
100
AcDbEntity
  8
8
  6
CONTINUOUS
 62
     6
100
AcDbLine
 10
241.85
 20
462.668542
 30
0.0
 11
266.85
 21
487.668542
 31
0.0
  0
LINE
  5
4E6
100
AcDbEntity
  8
8
  6
CONTINUOUS
 62
     6
100
AcDbLine
 10
334.181458
 20
555.0
 30
0.0
 11
339.65
 21
560.468542
 31
0.0
  0
LINE
  5
4E7
100
AcDbEntity
  8
8
  6
CONTINUOUS
 62
     6
100
AcDbLine
 10
241.85
 20
469.73961
 30
0.0
 11
266.85
 21
494.73961
 31
0.0
  0
LINE
  5
4E8
100
AcDbEntity
  8
8
  6
CONTINUOUS
 62
     6
100
AcDbLine
 10
327.11039
 20
555.0
 30
0.0
 11
339.65
 21
567.53961
 31
0.0
  0
LINE
  5
4E9
100
AcDbEntity
  8
8
  6
CONTINUOUS
 62
     6
100
AcDbLine
 10
241.85
 20
476.810678
 30
0.0
 11
266.85
 21
501.810678
 31
0.0
  0
LINE
  5
4EA
100
AcDbEntity
  8
8
  6
CONTINUOUS
 62
     6
100
AcDbLine
 10
320.039322
 20
555.0
 30
0.0
 11
339.65
 21
574.610678
 31
0.0
  0
LINE
  5
4EB
100
AcDbEntity
  8
8
  6
CONTINUOUS
 62
     6
100
AcDbLine
 10
241.85
 20
483.881746
 30
0.0
 11
266.85
 21
508.881746
 31
0.0
  0
LINE
  5
4EC
100
AcDbEntity
  8
8
  6
CONTINUOUS
 62
     6
100
AcDbLine
 10
312.968254
 20
555.0
 30
0.0
 11
339.65
 21
581.681746
 31
0.0
  0
LINE
  5
4ED
100
AcDbEntity
  8
8
  6
CONTINUOUS
 62
     6
100
AcDbLine
 10
241.85
 20
490.952814
 30
0.0
 11
266.85
 21
515.952814
 31
0.0
  0
LINE
  5
4EE
100
AcDbEntity
  8
8
  6
CONTINUOUS
 62
     6
100
AcDbLine
 10
305.897186
 20
555.0
 30
0.0
 11
335.897186
 21
585.0
 31
0.0
  0
LINE
  5
4EF
100
AcDbEntity
  8
8
  6
CONTINUOUS
 62
     6
100
AcDbLine
 10
241.85
 20
498.023882
 30
0.0
 11
266.85
 21
523.023882
 31
0.0
  0
LINE
  5
4F0
100
AcDbEntity
  8
8
  6
CONTINUOUS
 62
     6
100
AcDbLine
 10
298.826118
 20
555.0
 30
0.0
 11
332.679492
 21
588.853373
 31
0.0
  0
LINE
  5
4F1
100
AcDbEntity
  8
8
  6
CONTINUOUS
 62
     6
100
AcDbLine
 10
241.85
 20
505.094949
 30
0.0
 11
266.85
 21
530.094949
 31
0.0
  0
LINE
  5
4F2
100
AcDbEntity
  8
8
  6
CONTINUOUS
 62
     6
100
AcDbLine
 10
291.755051
 20
555.0
 30
0.0
 11
316.755051
 21
580.0
 31
0.0
  0
LINE
  5
4F3
100
AcDbEntity
  8
8
  6
CONTINUOUS
 62
     6
100
AcDbLine
 10
320.0
 20
583.244949
 30
0.0
 11
332.679492
 21
595.924441
 31
0.0
  0
LINE
  5
4F4
100
AcDbEntity
  8
8
  6
CONTINUOUS
 62
     6
100
AcDbLine
 10
336.755051
 20
600.0
 30
0.0
 11
339.65
 21
602.894949
 31
0.0
  0
LINE
  5
4F5
100
AcDbEntity
  8
8
  6
CONTINUOUS
 62
     6
100
AcDbLine
 10
241.85
 20
512.166017
 30
0.0
 11
266.85
 21
537.166017
 31
0.0
  0
LINE
  5
4F6
100
AcDbEntity
  8
8
  6
CONTINUOUS
 62
     6
100
AcDbLine
 10
284.683983
 20
555.0
 30
0.0
 11
309.683983
 21
580.0
 31
0.0
  0
LINE
  5
4F7
100
AcDbEntity
  8
8
  6
CONTINUOUS
 62
     6
100
AcDbLine
 10
320.0
 20
590.316017
 30
0.0
 11
339.65
 21
609.966017
 31
0.0
  0
LINE
  5
4F8
100
AcDbEntity
  8
8
  6
CONTINUOUS
 62
     6
100
AcDbLine
 10
241.85
 20
519.237085
 30
0.0
 11
266.85
 21
544.237085
 31
0.0
  0
LINE
  5
4F9
100
AcDbEntity
  8
8
  6
CONTINUOUS
 62
     6
100
AcDbLine
 10
277.612915
 20
555.0
 30
0.0
 11
302.612915
 21
580.0
 31
0.0
  0
LINE
  5
4FA
100
AcDbEntity
  8
8
  6
CONTINUOUS
 62
     6
100
AcDbLine
 10
320.0
 20
597.387085
 30
0.0
 11
339.65
 21
617.037085
 31
0.0
  0
LINE
  5
4FB
100
AcDbEntity
  8
8
  6
CONTINUOUS
 62
     6
100
AcDbLine
 10
241.85
 20
526.308153
 30
0.0
 11
266.85
 21
551.308153
 31
0.0
  0
LINE
  5
4FC
100
AcDbEntity
  8
8
  6
CONTINUOUS
 62
     6
100
AcDbLine
 10
270.541847
 20
555.0
 30
0.0
 11
295.541847
 21
580.0
 31
0.0
  0
LINE
  5
4FD
100
AcDbEntity
  8
8
  6
CONTINUOUS
 62
     6
100
AcDbLine
 10
320.0
 20
604.458153
 30
0.0
 11
330.541847
 21
615.0
 31
0.0
  0
LINE
  5
4FE
100
AcDbEntity
  8
8
  6
CONTINUOUS
 62
     6
100
AcDbLine
 10
332.679492
 20
617.137645
 30
0.0
 11
339.65
 21
624.108153
 31
0.0
  0
LINE
  5
4FF
100
AcDbEntity
  8
8
  6
CONTINUOUS
 62
     6
100
AcDbLine
 10
241.85
 20
533.379221
 30
0.0
 11
288.470779
 21
580.0
 31
0.0
  0
LINE
  5
500
100
AcDbEntity
  8
8
  6
CONTINUOUS
 62
     6
100
AcDbLine
 10
320.0
 20
611.529221
 30
0.0
 11
323.470779
 21
615.0
 31
0.0
  0
LINE
  5
501
100
AcDbEntity
  8
8
  6
CONTINUOUS
 62
     6
100
AcDbLine
 10
328.470779
 20
620.0
 30
0.0
 11
338.470779
 21
630.0
 31
0.0
  0
LINE
  5
502
100
AcDbEntity
  8
8
  6
CONTINUOUS
 62
     6
100
AcDbLine
 10
241.85
 20
540.450288
 30
0.0
 11
281.399712
 21
580.0
 31
0.0
  0
LINE
  5
503
100
AcDbEntity
  8
8
  6
CONTINUOUS
 62
     6
100
AcDbLine
 10
325.0
 20
623.600288
 30
0.0
 11
331.399712
 21
630.0
 31
0.0
  0
LINE
  5
504
100
AcDbEntity
  8
8
  6
CONTINUOUS
 62
     6
100
AcDbLine
 10
241.85
 20
547.521356
 30
0.0
 11
274.328644
 21
580.0
 31
0.0
  0
LINE
  5
505
100
AcDbEntity
  8
8
  6
CONTINUOUS
 62
     6
100
AcDbLine
 10
241.85
 20
554.592424
 30
0.0
 11
267.257576
 21
580.0
 31
0.0
  0
LINE
  5
506
100
AcDbEntity
  8
8
  6
CONTINUOUS
 62
     6
100
AcDbLine
 10
241.85
 20
561.663492
 30
0.0
 11
260.186508
 21
580.0
 31
0.0
  0
LINE
  5
507
100
AcDbEntity
  8
8
  6
CONTINUOUS
 62
     6
100
AcDbLine
 10
241.85
 20
568.73456
 30
0.0
 11
253.11544
 21
580.0
 31
0.0
  0
ENDBLK
  5
508
100
AcDbEntity
  8
0
100
AcDbBlockEnd
  0
BLOCK
  5
50B
100
AcDbEntity
  8
8
  6
CONTINUOUS
 62
     6
100
AcDbBlockBegin
  2
*G45
 70
     0
 10
0.0
 20
0.0
 30
0.0
  3
*G45
  1

  0
LINE
  5
50C
100
AcDbEntity
  8
8
  6
CONTINUOUS
 62
     6
100
AcDbLine
 10
310.459271
 20
370.0
 30
0.0
 11
317.5
 21
377.040729
 31
0.0
  0
LINE
  5
50D
100
AcDbEntity
  8
8
  6
CONTINUOUS
 62
     6
100
AcDbLine
 10
303.388203
 20
370.0
 30
0.0
 11
317.5
 21
384.111797
 31
0.0
  0
LINE
  5
50E
100
AcDbEntity
  8
8
  6
CONTINUOUS
 62
     6
100
AcDbLine
 10
296.317136
 20
370.0
 30
0.0
 11
316.317136
 21
390.0
 31
0.0
  0
LINE
  5
50F
100
AcDbEntity
  8
8
  6
CONTINUOUS
 62
     6
100
AcDbLine
 10
289.246068
 20
370.0
 30
0.0
 11
309.246068
 21
390.0
 31
0.0
  0
LINE
  5
510
100
AcDbEntity
  8
8
  6
CONTINUOUS
 62
     6
100
AcDbLine
 10
282.175
 20
370.0
 30
0.0
 11
302.175
 21
390.0
 31
0.0
  0
LINE
  5
511
100
AcDbEntity
  8
8
  6
CONTINUOUS
 62
     6
100
AcDbLine
 10
275.103932
 20
370.0
 30
0.0
 11
295.103932
 21
390.0
 31
0.0
  0
LINE
  5
512
100
AcDbEntity
  8
8
  6
CONTINUOUS
 62
     6
100
AcDbLine
 10
268.032864
 20
370.0
 30
0.0
 11
288.032864
 21
390.0
 31
0.0
  0
LINE
  5
513
100
AcDbEntity
  8
8
  6
CONTINUOUS
 62
     6
100
AcDbLine
 10
266.85
 20
375.888203
 30
0.0
 11
280.961797
 21
390.0
 31
0.0
  0
LINE
  5
514
100
AcDbEntity
  8
8
  6
CONTINUOUS
 62
     6
100
AcDbLine
 10
266.85
 20
382.959271
 30
0.0
 11
273.890729
 21
390.0
 31
0.0
  0
ENDBLK
  5
515
100
AcDbEntity
  8
0
100
AcDbBlockEnd
  0
BLOCK
  5
518
100
AcDbEntity
  8
7
  6
CONTINUOUS
 62
     4
100
AcDbBlockBegin
  2
*D46
 70
     0
 10
0.0
 20
0.0
 30
0.0
  3
*D46
  1

  0
LINE
  5
519
100
AcDbEntity
  8
7
  6
CONTINUOUS
 62
     4
100
AcDbLine
 10
548.15
 20
280.0
 30
0.0
 11
548.15
 21
630.0
 31
0.0
  0
LINE
  5
51A
100
AcDbEntity
  8
7
  6
CONTINUOUS
 62
     4
100
AcDbLine
 10
553.15
 20
280.0
 30
0.0
 11
523.15
 21
280.0
 31
0.0
  0
LINE
  5
51B
100
AcDbEntity
  8
7
  6
CONTINUOUS
 62
     4
100
AcDbLine
 10
553.15
 20
630.0
 30
0.0
 11
380.0
 21
630.0
 31
0.0
  0
LINE
  5
51C
100
AcDbEntity
  8
7
  6
CONTINUOUS
 62
     4
100
AcDbLine
 10
548.15
 20
280.0
 30
0.0
 11
545.56181
 21
289.659258
 31
0.0
  0
LINE
  5
51D
100
AcDbEntity
  8
7
  6
CONTINUOUS
 62
     4
100
AcDbLine
 10
548.15
 20
280.0
 30
0.0
 11
550.73819
 21
289.659258
 31
0.0
  0
LINE
  5
51E
100
AcDbEntity
  8
7
  6
CONTINUOUS
 62
     4
100
AcDbLine
 10
548.15
 20
630.0
 30
0.0
 11
550.73819
 21
620.340742
 31
0.0
  0
LINE
  5
51F
100
AcDbEntity
  8
7
  6
CONTINUOUS
 62
     4
100
AcDbLine
 10
548.15
 20
630.0
 30
0.0
 11
545.56181
 21
620.340742
 31
0.0
  0
TEXT
  5
520
100
AcDbEntity
  8
7
  6
CONTINUOUS
 62
     4
100
AcDbText
 10
548.15
 20
443.75
 30
0.0
 40
15.0
  1
350
 50
90.0
 41
0.5
 11
548.15
 21
443.75
 31
0.0
100
AcDbText
 73
     1
  0
ENDBLK
  5
521
100
AcDbEntity
  8
7
  6
CONTINUOUS
 62
     4
100
AcDbBlockEnd
  0
BLOCK
  5
526
100
AcDbEntity
  8
7
  6
CONTINUOUS
 62
     4
100
AcDbBlockBegin
  2
*D47
 70
     0
 10
0.0
 20
0.0
 30
0.0
  3
*D47
  1

  0
LINE
  5
527
100
AcDbEntity
  8
7
  6
CONTINUOUS
 62
     4
100
AcDbLine
 10
528.15
 20
280.0
 30
0.0
 11
528.15
 21
580.0
 31
0.0
  0
LINE
  5
528
100
AcDbEntity
  8
7
  6
CONTINUOUS
 62
     4
100
AcDbLine
 10
533.15
 20
280.0
 30
0.0
 11
523.15
 21
280.0
 31
0.0
  0
LINE
  5
529
100
AcDbEntity
  8
7
  6
CONTINUOUS
 62
     4
100
AcDbLine
 10
533.15
 20
580.0
 30
0.0
 11
458.15
 21
580.0
 31
0.0
  0
LINE
  5
52A
100
AcDbEntity
  8
7
  6
CONTINUOUS
 62
     4
100
AcDbLine
 10
528.15
 20
280.0
 30
0.0
 11
525.56181
 21
289.659258
 31
0.0
  0
LINE
  5
52B
100
AcDbEntity
  8
7
  6
CONTINUOUS
 62
     4
100
AcDbLine
 10
528.15
 20
280.0
 30
0.0
 11
530.73819
 21
289.659258
 31
0.0
  0
LINE
  5
52C
100
AcDbEntity
  8
7
  6
CONTINUOUS
 62
     4
100
AcDbLine
 10
528.15
 20
580.0
 30
0.0
 11
530.73819
 21
570.340742
 31
0.0
  0
LINE
  5
52D
100
AcDbEntity
  8
7
  6
CONTINUOUS
 62
     4
100
AcDbLine
 10
528.15
 20
580.0
 30
0.0
 11
525.56181
 21
570.340742
 31
0.0
  0
TEXT
  5
52E
100
AcDbEntity
  8
7
  6
CONTINUOUS
 62
     4
100
AcDbText
 10
528.15
 20
418.75
 30
0.0
 40
15.0
  1
300
 50
90.0
 41
0.5
 11
528.15
 21
418.75
 31
0.0
100
AcDbText
 73
     1
  0
ENDBLK
  5
52F
100
AcDbEntity
  8
7
  6
CONTINUOUS
 62
     4
100
AcDbBlockEnd
  0
BLOCK
  5
532
100
AcDbEntity
  8
7
  6
CONTINUOUS
 62
     4
100
AcDbBlockBegin
  2
*D48
 70
     0
 10
0.0
 20
0.0
 30
0.0
  3
*D48
  1

  0
LINE
  5
533
100
AcDbEntity
  8
7
  6
CONTINUOUS
 62
     4
100
AcDbLine
 10
241.85
 20
227.363841
 30
0.0
 11
458.15
 21
227.363841
 31
0.0
  0
LINE
  5
534
100
AcDbEntity
  8
7
  6
CONTINUOUS
 62
     4
100
AcDbLine
 10
241.85
 20
222.363841
 30
0.0
 11
241.85
 21
275.0
 31
0.0
  0
LINE
  5
535
100
AcDbEntity
  8
7
  6
CONTINUOUS
 62
     4
100
AcDbLine
 10
458.15
 20
222.363841
 30
0.0
 11
458.15
 21
275.0
 31
0.0
  0
LINE
  5
536
100
AcDbEntity
  8
7
  6
CONTINUOUS
 62
     4
100
AcDbLine
 10
241.85
 20
227.363841
 30
0.0
 11
251.509258
 21
229.952032
 31
0.0
  0
LINE
  5
537
100
AcDbEntity
  8
7
  6
CONTINUOUS
 62
     4
100
AcDbLine
 10
241.85
 20
227.363841
 30
0.0
 11
251.509258
 21
224.775651
 31
0.0
  0
LINE
  5
538
100
AcDbEntity
  8
7
  6
CONTINUOUS
 62
     4
100
AcDbLine
 10
458.15
 20
227.363841
 30
0.0
 11
448.490742
 21
224.775651
 31
0.0
  0
LINE
  5
539
100
AcDbEntity
  8
7
  6
CONTINUOUS
 62
     4
100
AcDbLine
 10
458.15
 20
227.363841
 30
0.0
 11
448.490742
 21
229.952032
 31
0.0
  0
TEXT
  5
53A
100
AcDbEntity
  8
7
  6
CONTINUOUS
 62
     4
100
AcDbText
 10
323.75
 20
227.363841
 30
0.0
 40
15.0
  1
%%c216.3
 41
0.625
 11
323.75
 21
227.363841
 31
0.0
100
AcDbText
 73
     1
  0
ENDBLK
  5
53B
100
AcDbEntity
  8
7
  6
CONTINUOUS
 62
     4
100
AcDbBlockEnd
  0
BLOCK
  5
53E
100
AcDbEntity
  8
7
  6
CONTINUOUS
 62
     4
100
AcDbBlockBegin
  2
*D49
 70
     0
 10
0.0
 20
0.0
 30
0.0
  3
*D49
  1

  0
LINE
  5
53F
100
AcDbEntity
  8
7
  6
CONTINUOUS
 62
     4
100
AcDbLine
 10
275.0
 20
250.0
 30
0.0
 11
425.0
 21
250.0
 31
0.0
  0
LINE
  5
540
100
AcDbEntity
  8
7
  6
CONTINUOUS
 62
     4
100
AcDbLine
 10
275.0
 20
245.0
 30
0.0
 11
275.0
 21
275.0
 31
0.0
  0
LINE
  5
541
100
AcDbEntity
  8
7
  6
CONTINUOUS
 62
     4
100
AcDbLine
 10
425.0
 20
245.0
 30
0.0
 11
425.0
 21
275.0
 31
0.0
  0
LINE
  5
542
100
AcDbEntity
  8
7
  6
CONTINUOUS
 62
     4
100
AcDbLine
 10
275.0
 20
250.0
 30
0.0
 11
284.659258
 21
252.58819
 31
0.0
  0
LINE
  5
543
100
AcDbEntity
  8
7
  6
CONTINUOUS
 62
     4
100
AcDbLine
 10
275.0
 20
250.0
 30
0.0
 11
284.659258
 21
247.41181
 31
0.0
  0
LINE
  5
544
100
AcDbEntity
  8
7
  6
CONTINUOUS
 62
     4
100
AcDbLine
 10
425.0
 20
250.0
 30
0.0
 11
415.340742
 21
247.41181
 31
0.0
  0
LINE
  5
545
100
AcDbEntity
  8
7
  6
CONTINUOUS
 62
     4
100
AcDbLine
 10
425.0
 20
250.0
 30
0.0
 11
415.340742
 21
252.58819
 31
0.0
  0
TEXT
  5
546
100
AcDbEntity
  8
7
  6
CONTINUOUS
 62
     4
100
AcDbText
 10
331.25
 20
250.0
 30
0.0
 40
15.0
  1
%%c150
 41
0.625
 11
331.25
 21
250.0
 31
0.0
100
AcDbText
 73
     1
  0
ENDBLK
  5
547
100
AcDbEntity
  8
7
  6
CONTINUOUS
 62
     4
100
AcDbBlockEnd
  0
BLOCK
  5
54A
100
AcDbEntity
  8
7
  6
CONTINUOUS
 62
     4
100
AcDbBlockBegin
  2
*D50
 70
     0
 10
0.0
 20
0.0
 30
0.0
  3
*D50
  1

  0
LINE
  5
54B
100
AcDbEntity
  8
7
  6
CONTINUOUS
 62
     4
100
AcDbLine
 10
221.85
 20
535.0
 30
0.0
 11
221.85
 21
600.0
 31
0.0
  0
LINE
  5
54C
100
AcDbEntity
  8
7
  6
CONTINUOUS
 62
     4
100
AcDbLine
 10
216.85
 20
555.0
 30
0.0
 11
236.85
 21
555.0
 31
0.0
  0
LINE
  5
54D
100
AcDbEntity
  8
7
  6
CONTINUOUS
 62
     4
100
AcDbLine
 10
216.85
 20
580.0
 30
0.0
 11
241.85
 21
580.0
 31
0.0
  0
LINE
  5
54E
100
AcDbEntity
  8
7
  6
CONTINUOUS
 62
     4
100
AcDbLine
 10
221.85
 20
555.0
 30
0.0
 11
224.43819
 21
545.340742
 31
0.0
  0
LINE
  5
54F
100
AcDbEntity
  8
7
  6
CONTINUOUS
 62
     4
100
AcDbLine
 10
221.85
 20
555.0
 30
0.0
 11
219.26181
 21
545.340742
 31
0.0
  0
LINE
  5
550
100
AcDbEntity
  8
7
  6
CONTINUOUS
 62
     4
100
AcDbLine
 10
221.85
 20
580.0
 30
0.0
 11
219.26181
 21
589.659258
 31
0.0
  0
LINE
  5
551
100
AcDbEntity
  8
7
  6
CONTINUOUS
 62
     4
100
AcDbLine
 10
221.85
 20
580.0
 30
0.0
 11
224.43819
 21
589.659258
 31
0.0
  0
TEXT
  5
552
100
AcDbEntity
  8
7
  6
CONTINUOUS
 62
     4
100
AcDbText
 10
221.85
 20
560.0
 30
0.0
 40
15.0
  1
25
 50
90.0
 41
0.5
 11
221.85
 21
560.0
 31
0.0
100
AcDbText
 73
     1
  0
ENDBLK
  5
553
100
AcDbEntity
  8
7
  6
CONTINUOUS
 62
     4
100
AcDbBlockEnd
  0
BLOCK
  5
556
100
AcDbEntity
  8
1
  6
CONTINUOUS
 62
     4
100
AcDbBlockBegin
  2
*D51
 70
     0
 10
0.0
 20
0.0
 30
0.0
  3
*D51
  1

  0
LINE
  5
557
100
AcDbEntity
  8
1
  6
CONTINUOUS
 62
     4
100
AcDbLine
 10
320.65
 20
645.0
 30
0.0
 11
406.91
 21
645.0
 31
0.0
  0
LINE
  5
558
100
AcDbEntity
  8
1
  6
CONTINUOUS
 62
     4
100
AcDbLine
 10
340.65
 20
645.0
 30
0.0
 11
330.990742
 21
642.41181
 31
0.0
  0
LINE
  5
559
100
AcDbEntity
  8
1
  6
CONTINUOUS
 62
     4
100
AcDbLine
 10
340.65
 20
645.0
 30
0.0
 11
330.990742
 21
647.58819
 31
0.0
  0
LINE
  5
55A
100
AcDbEntity
  8
1
  6
CONTINUOUS
 62
     4
100
AcDbLine
 10
359.35
 20
645.0
 30
0.0
 11
369.009258
 21
647.58819
 31
0.0
  0
LINE
  5
55B
100
AcDbEntity
  8
1
  6
CONTINUOUS
 62
     4
100
AcDbLine
 10
359.35
 20
645.0
 30
0.0
 11
369.009258
 21
642.41181
 31
0.0
  0
TEXT
  5
55C
100
AcDbEntity
  8
1
  6
CONTINUOUS
 62
     4
100
AcDbText
 10
366.284093
 20
645.0
 30
0.0
 40
15.0
  1
%%c18.7
 41
0.652174
 11
366.284093
 21
645.0
 31
0.0
100
AcDbText
 73
     1
  0
ENDBLK
  5
55D
100
AcDbEntity
  8
1
  6
CONTINUOUS
 62
     4
100
AcDbBlockEnd
  0
ENDSEC
  0
SECTION
  2
ENTITIES
  0
TEXT
  5
38
100
AcDbEntity
  8
4
  6
CONTINUOUS
 62
    21
100
AcDbText
 10
1093.4
 20
33.725
 30
0.0
 40
15.975
  1
FURUNO ELECTRIC CO., LTD.
 41
0.921829
 11
1093.4
 21
33.725
 31
0.0
100
AcDbText
 73
     1
  0
LINE
  5
39
100
AcDbEntity
  8
1
  6
CONTINUOUS
 62
     4
100
AcDbLine
 10
914.191118
 20
554.454579
 30
0.0
 11
1011.691118
 21
554.454579
 31
0.0
  0
TEXT
  5
3A
100
AcDbEntity
  8
1
  6
CONTINUOUS
 62
     4
100
AcDbText
 10
914.191118
 20
554.454579
 30
0.0
 40
15.0
  1
表２　TABLE 2
 41
0.637255
 11
914.191118
 21
554.454579
 31
0.0
100
AcDbText
 73
     1
  0
TEXT
  5
3B
100
AcDbEntity
  8
1
  6
CONTINUOUS
 62
     4
100
AcDbText
 10
825.704419
 20
498.914985
 30
0.0
 40
12.5
  1
含有量（％）
 41
0.833333
 11
825.704419
 21
498.914985
 31
0.0
100
AcDbText
 73
     1
  0
TEXT
  5
3C
100
AcDbEntity
  8
1
  6
CONTINUOUS
 62
     4
100
AcDbText
 10
1305.704419
 20
488.914985
 30
0.0
 40
10.0
  1
NIL
 41
0.5
 11
1305.704419
 21
488.914985
 31
0.0
100
AcDbText
 73
     1
  0
TEXT
  5
3D
100
AcDbEntity
  8
1
  6
CONTINUOUS
 62
     4
100
AcDbText
 10
1250.704419
 20
488.914985
 30
0.0
 40
10.0
  1
NIL
 41
0.5
 11
1250.704419
 21
488.914985
 31
0.0
100
AcDbText
 73
     1
  0
TEXT
  5
3E
100
AcDbEntity
  8
1
  6
CONTINUOUS
 62
     4
100
AcDbText
 10
1185.704419
 20
488.914985
 30
0.0
 40
10.0
  1
OR LESS
 41
0.530303
 11
1185.704419
 21
488.914985
 31
0.0
100
AcDbText
 73
     1
  0
TEXT
  5
3F
100
AcDbEntity
  8
1
  6
CONTINUOUS
 62
     4
100
AcDbText
 10
1120.704419
 20
488.914985
 30
0.0
 40
10.0
  1
OR LESS
 41
0.530303
 11
1120.704419
 21
488.914985
 31
0.0
100
AcDbText
 73
     1
  0
TEXT
  5
40
100
AcDbEntity
  8
1
  6
CONTINUOUS
 62
     4
100
AcDbText
 10
990.704419
 20
488.914985
 30
0.0
 40
10.0
  1
OR LESS
 41
0.530303
 11
990.704419
 21
488.914985
 31
0.0
100
AcDbText
 73
     1
  0
TEXT
  5
41
100
AcDbEntity
  8
1
  6
CONTINUOUS
 62
     4
100
AcDbText
 10
925.704419
 20
488.914985
 30
0.0
 40
10.0
  1
OR LESS
 41
0.530303
 11
925.704419
 21
488.914985
 31
0.0
100
AcDbText
 73
     1
  0
TEXT
  5
42
100
AcDbEntity
  8
1
  6
CONTINUOUS
 62
     4
100
AcDbText
 10
825.704419
 20
488.914985
 30
0.0
 40
10.0
  1
CONTENT
 41
0.375
 11
825.704419
 21
488.914985
 31
0.0
100
AcDbText
 73
     1
  0
TEXT
  5
43
100
AcDbEntity
  8
1
  6
CONTINUOUS
 62
     4
100
AcDbText
 10
1299.191118
 20
497.914985
 30
0.0
 40
12.5
  1
なし
 41
0.833333
 11
1299.191118
 21
497.914985
 31
0.0
100
AcDbText
 73
     1
  0
TEXT
  5
44
100
AcDbEntity
  8
1
  6
CONTINUOUS
 62
     4
100
AcDbText
 10
1244.191118
 20
497.914985
 30
0.0
 40
12.5
  1
なし
 41
0.833333
 11
1244.191118
 21
497.914985
 31
0.0
100
AcDbText
 73
     1
  0
TEXT
  5
45
100
AcDbEntity
  8
1
  6
CONTINUOUS
 62
     4
100
AcDbText
 10
1179.191118
 20
497.914985
 30
0.0
 40
12.5
  1
0.040以下
 41
0.642857
 11
1179.191118
 21
497.914985
 31
0.0
100
AcDbText
 73
     1
  0
TEXT
  5
46
100
AcDbEntity
  8
1
  6
CONTINUOUS
 62
     4
100
AcDbText
 10
1114.191118
 20
497.914985
 30
0.0
 40
12.5
  1
0.040以下
 41
0.642857
 11
1114.191118
 21
497.914985
 31
0.0
100
AcDbText
 73
     1
  0
TEXT
  5
47
100
AcDbEntity
  8
1
  6
CONTINUOUS
 62
     4
100
AcDbText
 10
1049.191118
 20
497.914985
 30
0.0
 40
12.5
  1
0.30-0.90
 41
0.54878
 11
1049.191118
 21
497.914985
 31
0.0
100
AcDbText
 73
     1
  0
TEXT
  5
48
100
AcDbEntity
  8
1
  6
CONTINUOUS
 62
     4
100
AcDbText
 10
989.191118
 20
497.914985
 30
0.0
 40
12.5
  1
0.35以下
 41
0.666667
 11
989.191118
 21
497.914985
 31
0.0
100
AcDbText
 73
     1
  0
TEXT
  5
49
100
AcDbEntity
  8
1
  6
CONTINUOUS
 62
     4
100
AcDbText
 10
924.191118
 20
497.914985
 30
0.0
 40
12.5
  1
0.25以下
 41
0.666667
 11
924.191118
 21
497.914985
 31
0.0
100
AcDbText
 73
     1
  0
TEXT
  5
4A
100
AcDbEntity
  8
1
  6
CONTINUOUS
 62
     4
100
AcDbText
 10
825.704419
 20
525.914985
 30
0.0
 40
12.5
  1
化学成分
 41
0.833333
 11
825.704419
 21
525.914985
 31
0.0
100
AcDbText
 73
     1
  0
LINE
  5
4B
100
AcDbEntity
  8
1
  6
CONTINUOUS
 62
     4
100
AcDbLine
 10
1294.191118
 20
540.414985
 30
0.0
 11
1294.191118
 21
487.414985
 31
0.0
  0
LINE
  5
4C
100
AcDbEntity
  8
1
  6
CONTINUOUS
 62
     4
100
AcDbLine
 10
1239.191118
 20
540.414985
 30
0.0
 11
1239.191118
 21
487.414985
 31
0.0
  0
LINE
  5
4D
100
AcDbEntity
  8
1
  6
CONTINUOUS
 62
     4
100
AcDbLine
 10
1174.191118
 20
540.414985
 30
0.0
 11
1174.191118
 21
487.414985
 31
0.0
  0
LINE
  5
4E
100
AcDbEntity
  8
1
  6
CONTINUOUS
 62
     4
100
AcDbLine
 10
1109.191118
 20
540.414985
 30
0.0
 11
1109.191118
 21
487.414985
 31
0.0
  0
LINE
  5
4F
100
AcDbEntity
  8
1
  6
CONTINUOUS
 62
     4
100
AcDbLine
 10
1044.191118
 20
540.414985
 30
0.0
 11
1044.191118
 21
487.414985
 31
0.0
  0
LINE
  5
50
100
AcDbEntity
  8
1
  6
CONTINUOUS
 62
     4
100
AcDbLine
 10
979.191118
 20
540.414985
 30
0.0
 11
979.191118
 21
487.414985
 31
0.0
  0
LINE
  5
51
100
AcDbEntity
  8
1
  6
CONTINUOUS
 62
     4
100
AcDbLine
 10
914.191118
 20
540.414985
 30
0.0
 11
914.191118
 21
487.414985
 31
0.0
  0
LINE
  5
52
100
AcDbEntity
  8
1
  6
CONTINUOUS
 62
     4
100
AcDbLine
 10
1343.191118
 20
540.414985
 30
0.0
 11
1343.191118
 21
487.414985
 31
0.0
  0
LINE
  5
53
100
AcDbEntity
  8
1
  6
CONTINUOUS
 62
     4
100
AcDbLine
 10
814.191118
 20
540.414985
 30
0.0
 11
814.191118
 21
487.414985
 31
0.0
  0
LINE
  5
54
100
AcDbEntity
  8
1
  6
CONTINUOUS
 62
     4
100
AcDbLine
 10
814.191118
 20
487.414985
 30
0.0
 11
1343.191118
 21
487.414985
 31
0.0
  0
TEXT
  5
55
100
AcDbEntity
  8
1
  6
CONTINUOUS
 62
     4
100
AcDbText
 10
825.704419
 20
515.914985
 30
0.0
 40
10.0
  1
CHEMICAL COMPOSITION
 41
0.382653
 11
825.704419
 21
515.914985
 31
0.0
100
AcDbText
 73
     1
  0
TEXT
  5
56
100
AcDbEntity
  8
1
  6
CONTINUOUS
 62
     4
100
AcDbText
 10
1304.191118
 20
522.414985
 30
0.0
 40
12.5
  1
Mo
 41
0.5
 11
1304.191118
 21
522.414985
 31
0.0
100
AcDbText
 73
     1
  0
TEXT
  5
57
100
AcDbEntity
  8
1
  6
CONTINUOUS
 62
     4
100
AcDbText
 10
1249.191118
 20
522.414985
 30
0.0
 40
12.5
  1
Cr
 41
0.5
 11
1249.191118
 21
522.414985
 31
0.0
100
AcDbText
 73
     1
  0
TEXT
  5
58
100
AcDbEntity
  8
1
  6
CONTINUOUS
 62
     4
100
AcDbText
 10
1184.191118
 20
522.414985
 30
0.0
 40
12.5
  1
S
 41
0.5
 11
1184.191118
 21
522.414985
 31
0.0
100
AcDbText
 73
     1
  0
TEXT
  5
59
100
AcDbEntity
  8
1
  6
CONTINUOUS
 62
     4
100
AcDbText
 10
1119.191118
 20
522.414985
 30
0.0
 40
12.5
  1
P
 41
0.5
 11
1119.191118
 21
522.414985
 31
0.0
100
AcDbText
 73
     1
  0
TEXT
  5
5A
100
AcDbEntity
  8
1
  6
CONTINUOUS
 62
     4
100
AcDbText
 10
1054.191118
 20
522.414985
 30
0.0
 40
12.5
  1
Mn
 41
0.5
 11
1054.191118
 21
522.414985
 31
0.0
100
AcDbText
 73
     1
  0
TEXT
  5
5B
100
AcDbEntity
  8
1
  6
CONTINUOUS
 62
     4
100
AcDbText
 10
989.191118
 20
522.414985
 30
0.0
 40
12.5
  1
Si
 41
0.5
 11
989.191118
 21
522.414985
 31
0.0
100
AcDbText
 73
     1
  0
TEXT
  5
5C
100
AcDbEntity
  8
1
  6
CONTINUOUS
 62
     4
100
AcDbText
 10
924.191118
 20
522.414985
 30
0.0
 40
12.5
  1
C
 41
0.5
 11
924.191118
 21
522.414985
 31
0.0
100
AcDbText
 73
     1
  0
LINE
  5
5D
100
AcDbEntity
  8
1
  6
CONTINUOUS
 62
     4
100
AcDbLine
 10
814.191118
 20
540.414985
 30
0.0
 11
1343.191118
 21
540.414985
 31
0.0
  0
LINE
  5
5E
100
AcDbEntity
  8
1
  6
CONTINUOUS
 62
     4
100
AcDbLine
 10
814.191118
 20
516.414985
 30
0.0
 11
1343.191118
 21
516.414985
 31
0.0
  0
LINE
  5
5F
100
AcDbEntity
  8
1
  6
CONTINUOUS
 62
     4
100
AcDbLine
 10
320.0
 20
580.0
 30
0.0
 11
322.5
 21
580.0
 31
0.0
  0
LINE
  5
60
100
AcDbEntity
  8
1
  6
CONTINUOUS
 62
     4
100
AcDbLine
 10
322.5
 20
580.0
 30
0.0
 11
322.5
 21
555.0
 31
0.0
  0
LINE
  5
61
100
AcDbEntity
  8
1
  6
CONTINUOUS
 62
     4
100
AcDbLine
 10
332.679492
 20
600.0
 30
0.0
 11
340.65
 21
600.0
 31
0.0
  0
LINE
  5
62
100
AcDbEntity
  8
1
  6
CONTINUOUS
 62
     4
100
AcDbLine
 10
332.679492
 20
595.0
 30
0.0
 11
340.65
 21
595.0
 31
0.0
  0
LINE
  5
63
100
AcDbEntity
  8
1
  6
CONTINUOUS
 62
     4
100
AcDbLine
 10
339.65
 20
585.0
 30
0.0
 11
332.679492
 21
585.0
 31
0.0
  0
LINE
  5
64
100
AcDbEntity
  8
1
  6
CONTINUOUS
 62
     4
100
AcDbLine
 10
322.5
 20
555.0
 30
0.0
 11
338.65
 21
555.0
 31
0.0
  0
LINE
  5
65
100
AcDbEntity
  8
1
  6
CONTINUOUS
 62
     4
100
AcDbLine
 10
339.65
 20
585.0
 30
0.0
 11
339.65
 21
556.0
 31
0.0
  0
LINE
  5
66
100
AcDbEntity
  8
1
  6
CONTINUOUS
 62
     4
100
AcDbLine
 10
338.65
 20
555.0
 30
0.0
 11
339.65
 21
556.0
 31
0.0
  0
LINE
  5
67
100
AcDbEntity
  8
1
  6
CONTINUOUS
 62
     4
100
AcDbLine
 10
332.679492
 20
585.0
 30
0.0
 11
340.65
 21
585.0
 31
0.0
  0
INSERT
  5
70
100
AcDbEntity
  8
1
  6
CONTINUOUS
 62
     4
100
AcDbBlockReference
  2
*G0
 10
0.0
 20
0.0
 30
0.0
  0
INSERT
  5
78
100
AcDbEntity
  8
1
  6
CONTINUOUS
 62
     4
100
AcDbBlockReference
  2
*G1
 10
0.0
 20
0.0
 30
0.0
  0
LINE
  5
79
100
AcDbEntity
  8
1
  6
PHANTOM
 62
     4
100
AcDbLine
 10
181.85
 20
280.0
 30
0.0
 11
241.85
 21
280.0
 31
0.0
  0
LINE
  5
7A
100
AcDbEntity
  8
1
  6
PHANTOM
 62
     4
100
AcDbLine
 10
181.85
 20
303.989985
 30
0.0
 11
241.85
 21
303.989985
 31
0.0
  0
INSERT
  5
82
100
AcDbEntity
  8
1
  6
CONTINUOUS
 62
     4
100
AcDbBlockReference
  2
*G2
 10
0.0
 20
0.0
 30
0.0
  0
LINE
  5
83
100
AcDbEntity
  8
1
  6
CONTINUOUS
 62
     4
100
AcDbLine
 10
231.85
 20
303.989985
 30
0.0
 11
241.85
 21
313.989985
 31
0.0
  0
LINE
  5
84
100
AcDbEntity
  8
1
  6
CONTINUOUS
 62
     4
100
AcDbLine
 10
231.85
 20
280.0
 30
0.0
 11
241.85
 21
290.0
 31
0.0
  0
INSERT
  5
8F
100
AcDbEntity
  8
8
  6
CONTINUOUS
 62
     6
100
AcDbBlockReference
  2
*G3
 10
0.0
 20
0.0
 30
0.0
  0
INSERT
  5
9A
100
AcDbEntity
  8
8
  6
CONTINUOUS
 62
     6
100
AcDbBlockReference
  2
*G4
 10
0.0
 20
0.0
 30
0.0
  0
LINE
  5
9B
100
AcDbEntity
  8
1
  6
CONTINUOUS
 62
     4
100
AcDbLine
 10
380.0
 20
580.0
 30
0.0
 11
377.5
 21
580.0
 31
0.0
  0
LINE
  5
9C
100
AcDbEntity
  8
1
  6
CONTINUOUS
 62
     4
100
AcDbLine
 10
377.5
 20
580.0
 30
0.0
 11
377.5
 21
555.0
 31
0.0
  0
LINE
  5
9D
100
AcDbEntity
  8
1
  6
CONTINUOUS
 62
     4
100
AcDbLine
 10
367.320508
 20
600.0
 30
0.0
 11
359.35
 21
600.0
 31
0.0
  0
LINE
  5
9E
100
AcDbEntity
  8
1
  6
CONTINUOUS
 62
     4
100
AcDbLine
 10
367.320508
 20
595.0
 30
0.0
 11
359.35
 21
595.0
 31
0.0
  0
LINE
  5
9F
100
AcDbEntity
  8
1
  6
CONTINUOUS
 62
     4
100
AcDbLine
 10
360.35
 20
585.0
 30
0.0
 11
367.320508
 21
585.0
 31
0.0
  0
LINE
  5
A0
100
AcDbEntity
  8
1
  6
CONTINUOUS
 62
     4
100
AcDbLine
 10
377.5
 20
555.0
 30
0.0
 11
361.35
 21
555.0
 31
0.0
  0
LINE
  5
A1
100
AcDbEntity
  8
1
  6
CONTINUOUS
 62
     4
100
AcDbLine
 10
360.35
 20
585.0
 30
0.0
 11
360.35
 21
556.0
 31
0.0
  0
LINE
  5
A2
100
AcDbEntity
  8
1
  6
CONTINUOUS
 62
     4
100
AcDbLine
 10
361.35
 20
555.0
 30
0.0
 11
360.35
 21
556.0
 31
0.0
  0
LINE
  5
A3
100
AcDbEntity
  8
1
  6
CONTINUOUS
 62
     4
100
AcDbLine
 10
367.320508
 20
585.0
 30
0.0
 11
359.35
 21
585.0
 31
0.0
  0
INSERT
  5
AC
100
AcDbEntity
  8
1
  6
CONTINUOUS
 62
     4
100
AcDbBlockReference
  2
*G5
 10
0.0
 20
0.0
 30
0.0
  0
LINE
  5
AD
100
AcDbEntity
  8
1
  6
PHANTOM
 62
     4
100
AcDbLine
 10
518.15
 20
280.0
 30
0.0
 11
458.15
 21
280.0
 31
0.0
  0
LINE
  5
AE
100
AcDbEntity
  8
1
  6
PHANTOM
 62
     4
100
AcDbLine
 10
518.15
 20
303.989985
 30
0.0
 11
458.15
 21
303.989985
 31
0.0
  0
INSERT
  5
B6
100
AcDbEntity
  8
1
  6
CONTINUOUS
 62
     4
100
AcDbBlockReference
  2
*G6
 10
0.0
 20
0.0
 30
0.0
  0
LINE
  5
B7
100
AcDbEntity
  8
1
  6
CONTINUOUS
 62
     4
100
AcDbLine
 10
468.15
 20
303.989985
 30
0.0
 11
458.15
 21
313.989985
 31
0.0
  0
LINE
  5
B8
100
AcDbEntity
  8
1
  6
CONTINUOUS
 62
     4
100
AcDbLine
 10
468.15
 20
280.0
 30
0.0
 11
458.15
 21
290.0
 31
0.0
  0
INSERT
  5
C3
100
AcDbEntity
  8
8
  6
CONTINUOUS
 62
     6
100
AcDbBlockReference
  2
*G7
 10
0.0
 20
0.0
 30
0.0
  0
INSERT
  5
CE
100
AcDbEntity
  8
8
  6
CONTINUOUS
 62
     6
100
AcDbBlockReference
  2
*G8
 10
0.0
 20
0.0
 30
0.0
  0
LINE
  5
CF
100
AcDbEntity
  8
1
  6
CONTINUOUS
 62
     4
100
AcDbLine
 10
320.0
 20
370.0
 30
0.0
 11
330.347525
 21
376.528669
 31
0.0
  0
ARC
  5
D0
100
AcDbEntity
  8
1
  6
CONTINUOUS
 62
     4
100
AcDbCircle
 10
327.679492
 20
380.757333
 30
0.0
 40
5.0
100
AcDbArc
 50
-57.750529
 51
0.0
  0
LINE
  5
D1
100
AcDbEntity
  8
1
  6
CONTINUOUS
 62
     4
100
AcDbLine
 10
380.0
 20
370.0
 30
0.0
 11
369.652475
 21
376.528669
 31
0.0
  0
ARC
  5
D2
100
AcDbEntity
  8
1
  6
CONTINUOUS
 62
     4
100
AcDbCircle
 10
372.320508
 20
380.757333
 30
0.0
 40
5.0
100
AcDbArc
 50
180.0
 51
-122.249471
  0
LINE
  5
D3
100
AcDbEntity
  8
1
  6
CONTINUOUS
 62
     4
100
AcDbLine
 10
332.679492
 20
380.757333
 30
0.0
 11
332.679492
 21
425.0
 31
0.0
  0
ARC
  5
D4
100
AcDbEntity
  8
1
  6
CONTINUOUS
 62
     4
100
AcDbCircle
 10
337.679492
 20
425.0
 30
0.0
 40
5.0
100
AcDbArc
 50
90.0
 51
-180.0
  0
LINE
  5
D5
100
AcDbEntity
  8
1
  6
CONTINUOUS
 62
     4
100
AcDbLine
 10
337.679492
 20
430.0
 30
0.0
 11
362.320508
 21
430.0
 31
0.0
  0
LINE
  5
D6
100
AcDbEntity
  8
1
  6
CONTINUOUS
 62
     4
100
AcDbLine
 10
367.320508
 20
380.757333
 30
0.0
 11
367.320508
 21
425.0
 31
0.0
  0
ARC
  5
D7
100
AcDbEntity
  8
1
  6
CONTINUOUS
 62
     4
100
AcDbCircle
 10
362.320508
 20
425.0
 30
0.0
 40
5.0
100
AcDbArc
 50
0.0
 51
90.0
  0
LINE
  5
D8
100
AcDbEntity
  8
1
  6
CONTINUOUS
 62
     4
100
AcDbLine
 10
332.679492
 20
410.0
 30
0.0
 11
367.320508
 21
410.0
 31
0.0
  0
LINE
  5
D9
100
AcDbEntity
  8
1
  6
CONTINUOUS
 62
     4
100
AcDbLine
 10
332.621804
 20
394.0
 30
0.0
 11
367.378196
 21
394.0
 31
0.0
  0
CIRCLE
  5
DA
100
AcDbEntity
  8
1
  6
CONTINUOUS
 62
     4
100
AcDbCircle
 10
372.320508
 20
402.0
 30
0.0
 40
5.0
  0
INSERT
  5
E4
100
AcDbEntity
  8
1
  6
CONTINUOUS
 62
     4
100
AcDbBlockReference
  2
*G9
 10
0.0
 20
0.0
 30
0.0
  0
LINE
  5
E5
100
AcDbEntity
  8
1
  6
CONTINUOUS
 62
     4
100
AcDbLine
 10
371.820508
 20
406.330127
 30
0.0
 11
371.820508
 21
397.669873
 31
0.0
  0
LINE
  5
E6
100
AcDbEntity
  8
1
  6
CONTINUOUS
 62
     4
100
AcDbLine
 10
372.820508
 20
406.330127
 30
0.0
 11
372.820508
 21
397.669873
 31
0.0
  0
LINE
  5
E7
100
AcDbEntity
  8
1
  6
CONTINUOUS
 62
     4
100
AcDbLine
 10
372.320508
 20
407.0
 30
0.0
 11
367.320508
 21
407.0
 31
0.0
  0
LINE
  5
E8
100
AcDbEntity
  8
1
  6
CONTINUOUS
 62
     4
100
AcDbLine
 10
372.320508
 20
397.0
 30
0.0
 11
367.320508
 21
397.0
 31
0.0
  0
LINE
  5
E9
100
AcDbEntity
  8
1
  6
CONTINUOUS
 62
     4
100
AcDbLine
 10
274.871014
 20
498.986832
 30
0.0
 11
377.268979
 21
476.811251
 31
0.0
  0
LINE
  5
EA
100
AcDbEntity
  8
1
  6
CONTINUOUS
 62
     4
100
AcDbLine
 10
321.315888
 20
508.062089
 30
0.0
 11
423.128986
 21
486.013168
 31
0.0
  0
ARC
  5
EB
100
AcDbEntity
  8
1
  6
CONTINUOUS
 62
     4
100
AcDbCircle
 10
421.15
 20
476.875
 30
0.0
 40
9.35
100
AcDbArc
 50
-77.61409
 51
102.385915
  0
ARC
  5
EC
100
AcDbEntity
  8
1
  6
CONTINUOUS
 62
     4
100
AcDbCircle
 10
276.85
 20
508.125
 30
0.0
 40
9.35
100
AcDbArc
 50
102.057308
 51
-77.942683
  0
LINE
  5
ED
100
AcDbEntity
  8
1
  6
CONTINUOUS
 62
     4
100
AcDbLine
 10
359.35
 20
451.036367
 30
0.0
 11
359.35
 21
430.0
 31
0.0
  0
LINE
  5
EE
100
AcDbEntity
  8
1
  6
CONTINUOUS
 62
     4
100
AcDbLine
 10
423.15553
 20
467.742621
 30
0.0
 11
361.981441
 21
454.308395
 31
0.0
  0
ARC
  5
EF
100
AcDbEntity
  8
1
  6
CONTINUOUS
 62
     4
100
AcDbCircle
 10
362.7
 20
451.036367
 30
0.0
 40
3.35
100
AcDbArc
 50
102.38591
 51
180.0
  0
LINE
  5
F0
100
AcDbEntity
  8
1
  6
CONTINUOUS
 62
     4
100
AcDbLine
 10
337.999781
 20
530.747649
 30
0.0
 11
274.896879
 21
517.268731
 31
0.0
  0
ARC
  5
F1
100
AcDbEntity
  8
1
  6
CONTINUOUS
 62
     4
100
AcDbCircle
 10
337.3
 20
534.023745
 30
0.0
 40
3.35
100
AcDbArc
 50
-77.942692
 51
0.0
  0
LINE
  5
F2
100
AcDbEntity
  8
1
  6
CONTINUOUS
 62
     4
100
AcDbLine
 10
340.65
 20
458.837331
 30
0.0
 11
340.65
 21
430.0
 31
0.0
  0
LINE
  5
F3
100
AcDbEntity
  8
1
  6
CONTINUOUS
 62
     4
100
AcDbLine
 10
419.14447
 20
486.007379
 30
0.0
 11
350.350985
 21
470.899885
 31
0.0
  0
ARC
  5
F4
100
AcDbEntity
  8
1
  6
CONTINUOUS
 62
     4
100
AcDbCircle
 10
353.0
 20
458.837331
 30
0.0
 40
12.35
100
AcDbArc
 50
102.38591
 51
180.0
  0
LINE
  5
F5
100
AcDbEntity
  8
1
  6
CONTINUOUS
 62
     4
100
AcDbLine
 10
349.579791
 20
514.09932
 30
0.0
 11
278.803122
 21
498.981269
 31
0.0
  0
ARC
  5
F6
100
AcDbEntity
  8
1
  6
CONTINUOUS
 62
     4
100
AcDbCircle
 10
347.0
 20
526.176869
 30
0.0
 40
12.35
100
AcDbArc
 50
-77.942692
 51
0.0
  0
CIRCLE
  5
F7
100
AcDbEntity
  8
1
  6
CONTINUOUS
 62
     4
100
AcDbCircle
 10
350.0
 20
830.0
 30
0.0
 40
108.15
  0
CIRCLE
  5
F8
100
AcDbEntity
  8
1
  6
CONTINUOUS
 62
     4
100
AcDbCircle
 10
350.0
 20
830.0
 30
0.0
 40
103.15
  0
CIRCLE
  5
F9
100
AcDbEntity
  8
1
  6
CONTINUOUS
 62
     4
100
AcDbCircle
 10
350.0
 20
830.0
 30
0.0
 40
15.0
  0
CIRCLE
  5
FA
100
AcDbEntity
  8
1
  6
CONTINUOUS
 62
     4
100
AcDbCircle
 10
350.0
 20
830.0
 30
0.0
 40
9.35
  0
CIRCLE
  5
FB
100
AcDbEntity
  8
1
  6
CONTINUOUS
 62
     4
100
AcDbCircle
 10
350.0
 20
830.0
 30
0.0
 40
30.0
  0
INSERT
  5
105
100
AcDbEntity
  8
1
  6
CONTINUOUS
 62
     4
100
AcDbBlockReference
  2
*G10
 10
0.0
 20
0.0
 30
0.0
  0
INSERT
  5
10D
100
AcDbEntity
  8
1
  6
CONTINUOUS
 62
     4
100
AcDbBlockReference
  2
*G11
 10
0.0
 20
0.0
 30
0.0
  0
LINE
  5
10E
100
AcDbEntity
  8
1
  6
CONTINUOUS
 62
     4
100
AcDbLine
 10
446.15
 20
835.0
 30
0.0
 11
446.15
 21
825.0
 31
0.0
  0
LINE
  5
10F
100
AcDbEntity
  8
1
  6
CONTINUOUS
 62
     4
100
AcDbLine
 10
416.15
 20
835.0
 30
0.0
 11
416.15
 21
825.0
 31
0.0
  0
TEXT
  5
110
100
AcDbEntity
  8
1
  6
CONTINUOUS
 62
     4
100
AcDbText
 10
382.555908
 20
842.148795
 30
0.0
 40
12.5
  1
FORE
 50
-90.0
 41
0.5
 11
382.555908
 21
842.148795
 31
0.0
100
AcDbText
 73
     1
  0
INSERT
  5
118
100
AcDbEntity
  8
1
  6
CONTINUOUS
 62
     4
100
AcDbBlockReference
  2
*G12
 10
0.0
 20
0.0
 30
0.0
  0
LINE
  5
119
100
AcDbEntity
  8
1
  6
CONTINUOUS
 62
     4
100
AcDbLine
 10
253.85
 20
835.0
 30
0.0
 11
253.85
 21
825.0
 31
0.0
  0
LINE
  5
11A
100
AcDbEntity
  8
1
  6
CONTINUOUS
 62
     4
100
AcDbLine
 10
283.85
 20
835.0
 30
0.0
 11
283.85
 21
825.0
 31
0.0
  0
LINE
  5
11B
100
AcDbEntity
  8
1
  6
CENTER
 62
     4
100
AcDbLine
 10
350.0
 20
959.78
 30
0.0
 11
350.0
 21
700.22
 31
0.0
  0
LINE
  5
11C
100
AcDbEntity
  8
1
  6
CENTER
 62
     4
100
AcDbLine
 10
220.22
 20
830.0
 30
0.0
 11
479.78
 21
830.0
 31
0.0
  0
DIMENSION
  5
126
100
AcDbEntity
  8
7
  6
CONTINUOUS
 62
     4
100
AcDbDimension
  2
*D13
 10
266.85
 20
450.0
 30
0.0
 11
220.6
 21
457.5
 31
0.0
  1
25
100
AcDbAlignedDimension
 13
266.85
 23
450.0
 33
0.0
 14
241.85
 24
450.0
 34
0.0
100
AcDbRotatedDimension
  0
INSERT
  5
12E
100
AcDbEntity
  8
1
  6
CONTINUOUS
 62
     4
100
AcDbBlockReference
  2
*G14
 10
0.0
 20
0.0
 30
0.0
  0
INSERT
  5
136
100
AcDbEntity
  8
1
  6
CONTINUOUS
 62
     4
100
AcDbBlockReference
  2
*G15
 10
0.0
 20
0.0
 30
0.0
  0
LINE
  5
137
100
AcDbEntity
  8
7
  6
CENTER
 62
     4
100
AcDbLine
 10
405.15
 20
274.61257
 30
0.0
 11
405.15
 21
404.375742
 31
0.0
  0
ARC
  5
138
100
AcDbEntity
  8
7
  6
CONTINUOUS
 62
     4
100
AcDbCircle
 10
405.15
 20
289.875
 30
0.0
 40
9.875
100
AcDbArc
 50
-116.007824
 51
-63.992176
  0
ARC
  5
139
100
AcDbEntity
  8
7
  6
CONTINUOUS
 62
     4
100
AcDbCircle
 10
398.654809
 20
282.84375
 30
0.0
 40
2.84375
100
AcDbArc
 50
-139.582562
 51
-40.417438
  0
ARC
  5
13A
100
AcDbEntity
  8
7
  6
CONTINUOUS
 62
     4
100
AcDbCircle
 10
411.645191
 20
282.84375
 30
0.0
 40
2.84375
100
AcDbArc
 50
-139.582562
 51
-40.417438
  0
INSERT
  5
142
100
AcDbEntity
  8
7
  6
CONTINUOUS
 62
     4
100
AcDbBlockReference
  2
*G16
 10
0.0
 20
0.0
 30
0.0
  0
INSERT
  5
14A
100
AcDbEntity
  8
7
  6
CONTINUOUS
 62
     4
100
AcDbBlockReference
  2
*G17
 10
0.0
 20
0.0
 30
0.0
  0
LINE
  5
14B
100
AcDbEntity
  8
7
  6
CONTINUOUS
 62
     4
100
AcDbLine
 10
396.489746
 20
281.0
 30
0.0
 11
396.489746
 21
289.0
 31
0.0
  0
LINE
  5
14C
100
AcDbEntity
  8
7
  6
CONTINUOUS
 62
     4
100
AcDbLine
 10
400.819873
 20
281.0
 30
0.0
 11
400.819873
 21
289.0
 31
0.0
  0
LINE
  5
14D
100
AcDbEntity
  8
7
  6
CONTINUOUS
 62
     4
100
AcDbLine
 10
409.480127
 20
281.0
 30
0.0
 11
409.480127
 21
289.0
 31
0.0
  0
LINE
  5
14E
100
AcDbEntity
  8
7
  6
CONTINUOUS
 62
     4
100
AcDbLine
 10
413.810254
 20
281.0
 30
0.0
 11
413.810254
 21
289.0
 31
0.0
  0
LINE
  5
14F
100
AcDbEntity
  8
7
  6
CONTINUOUS
 62
     4
100
AcDbLine
 10
394.15
 20
280.0
 30
0.0
 11
394.15
 21
291.0
 31
0.0
  0
LINE
  5
150
100
AcDbEntity
  8
7
  6
CONTINUOUS
 62
     4
100
AcDbLine
 10
394.15
 20
291.0
 30
0.0
 11
416.15
 21
291.0
 31
0.0
  0
LINE
  5
151
100
AcDbEntity
  8
7
  6
CONTINUOUS
 62
     4
100
AcDbLine
 10
416.15
 20
291.0
 30
0.0
 11
416.15
 21
280.0
 31
0.0
  0
LINE
  5
152
100
AcDbEntity
  8
7
  6
CONTINUOUS
 62
     4
100
AcDbLine
 10
396.489746
 20
398.0
 30
0.0
 11
396.489746
 21
390.0
 31
0.0
  0
LINE
  5
153
100
AcDbEntity
  8
7
  6
CONTINUOUS
 62
     4
100
AcDbLine
 10
413.810254
 20
398.0
 30
0.0
 11
413.810254
 21
390.0
 31
0.0
  0
LINE
  5
154
100
AcDbEntity
  8
7
  6
CONTINUOUS
 62
     4
100
AcDbLine
 10
398.654809
 20
399.0
 30
0.0
 11
411.645191
 21
399.0
 31
0.0
  0
ARC
  5
155
100
AcDbEntity
  8
7
  6
CONTINUOUS
 62
     4
100
AcDbCircle
 10
411.645191
 20
396.15625
 30
0.0
 40
2.84375
100
AcDbArc
 50
40.417438
 51
90.0
  0
ARC
  5
156
100
AcDbEntity
  8
7
  6
CONTINUOUS
 62
     4
100
AcDbCircle
 10
398.654809
 20
396.15625
 30
0.0
 40
2.84375
100
AcDbArc
 50
90.0
 51
139.582562
  0
LINE
  5
157
100
AcDbEntity
  8
7
  6
CONTINUOUS
 62
     4
100
AcDbLine
 10
400.15
 20
291.0
 30
0.0
 11
400.15
 21
399.0
 31
0.0
  0
LINE
  5
158
100
AcDbEntity
  8
7
  6
CONTINUOUS
 62
     4
100
AcDbLine
 10
410.15
 20
291.0
 30
0.0
 11
410.15
 21
399.0
 31
0.0
  0
LINE
  5
159
100
AcDbEntity
  8
7
  6
CONTINUOUS
 62
     4
100
AcDbLine
 10
400.65
 20
291.0
 30
0.0
 11
400.65
 21
399.0
 31
0.0
  0
LINE
  5
15A
100
AcDbEntity
  8
7
  6
CONTINUOUS
 62
     4
100
AcDbLine
 10
409.65
 20
291.0
 30
0.0
 11
409.65
 21
399.0
 31
0.0
  0
INSERT
  5
165
100
AcDbEntity
  8
1
  6
CONTINUOUS
 62
     4
100
AcDbBlockReference
  2
*G18
 10
0.0
 20
0.0
 30
0.0
  0
INSERT
  5
16F
100
AcDbEntity
  8
1
  6
CONTINUOUS
 62
     4
100
AcDbBlockReference
  2
*G19
 10
0.0
 20
0.0
 30
0.0
  0
POLYLINE
  5
170
100
AcDbEntity
  8
7
  6
CONTINUOUS
 62
     4
100
AcDb2dPolyline
 66
     1
 10
0.0
 20
0.0
 30
0.0
 70
     2
  0
VERTEX
  5
171
100
AcDbEntity
  8
7
  6
CONTINUOUS
 62
     4
100
AcDbVertex
100
AcDb2dVertex
 10
398.654809
 20
370.0
 30
0.0
  0
VERTEX
  5
172
100
AcDbEntity
  8
7
  6
CONTINUOUS
 62
     4
100
AcDbVertex
100
AcDb2dVertex
 10
398.63409
 20
369.637208
 30
0.0
  0
VERTEX
  5
173
100
AcDbEntity
  8
7
  6
CONTINUOUS
 62
     4
100
AcDbVertex
100
AcDb2dVertex
 10
398.572488
 20
368.558803
 30
0.0
  0
VERTEX
  5
174
100
AcDbEntity
  8
7
  6
CONTINUOUS
 62
     4
100
AcDbVertex
100
AcDb2dVertex
 10
398.471609
 20
366.794834
 30
0.0
  0
VERTEX
  5
175
100
AcDbEntity
  8
7
  6
CONTINUOUS
 62
     4
100
AcDbVertex
100
AcDb2dVertex
 10
398.333934
 20
364.395711
 30
0.0
  0
VERTEX
  5
176
100
AcDbEntity
  8
7
  6
CONTINUOUS
 62
     4
100
AcDbVertex
100
AcDb2dVertex
 10
398.162589
 20
361.4322
 30
0.0
  0
VERTEX
  5
177
100
AcDbEntity
  8
7
  6
CONTINUOUS
 62
     4
100
AcDbVertex
100
AcDb2dVertex
 10
397.961129
 20
357.994617
 30
0.0
  0
VERTEX
  5
178
100
AcDbEntity
  8
7
  6
CONTINUOUS
 62
     4
100
AcDbVertex
100
AcDb2dVertex
 10
397.733401
 20
354.190693
 30
0.0
  0
VERTEX
  5
179
100
AcDbEntity
  8
7
  6
CONTINUOUS
 62
     4
100
AcDbVertex
100
AcDb2dVertex
 10
397.483535
 20
350.141809
 30
0.0
  0
VERTEX
  5
17A
100
AcDbEntity
  8
7
  6
CONTINUOUS
 62
     4
100
AcDbVertex
100
AcDb2dVertex
 10
397.216076
 20
345.977638
 30
0.0
  0
VERTEX
  5
17B
100
AcDbEntity
  8
7
  6
CONTINUOUS
 62
     4
100
AcDbVertex
100
AcDb2dVertex
 10
396.936216
 20
341.829583
 30
0.0
  0
VERTEX
  5
17C
100
AcDbEntity
  8
7
  6
CONTINUOUS
 62
     4
100
AcDbVertex
100
AcDb2dVertex
 10
396.650059
 20
337.823747
 30
0.0
  0
VERTEX
  5
17D
100
AcDbEntity
  8
7
  6
CONTINUOUS
 62
     4
100
AcDbVertex
100
AcDb2dVertex
 10
396.364823
 20
334.074375
 30
0.0
  0
VERTEX
  5
17E
100
AcDbEntity
  8
7
  6
CONTINUOUS
 62
     4
100
AcDbVertex
100
AcDb2dVertex
 10
396.088885
 20
330.678684
 30
0.0
  0
VERTEX
  5
17F
100
AcDbEntity
  8
7
  6
CONTINUOUS
 62
     4
100
AcDbVertex
100
AcDb2dVertex
 10
395.831601
 20
327.713816
 30
0.0
  0
VERTEX
  5
180
100
AcDbEntity
  8
7
  6
CONTINUOUS
 62
     4
100
AcDbVertex
100
AcDb2dVertex
 10
395.602866
 20
325.236275
 30
0.0
  0
VERTEX
  5
181
100
AcDbEntity
  8
7
  6
CONTINUOUS
 62
     4
100
AcDbVertex
100
AcDb2dVertex
 10
395.412455
 20
323.283716
 30
0.0
  0
VERTEX
  5
182
100
AcDbEntity
  8
7
  6
CONTINUOUS
 62
     4
100
AcDbVertex
100
AcDb2dVertex
 10
395.269208
 20
321.878513
 30
0.0
  0
VERTEX
  5
183
100
AcDbEntity
  8
7
  6
CONTINUOUS
 62
     4
100
AcDbVertex
100
AcDb2dVertex
 10
395.180198
 20
321.032197
 30
0.0
  0
VERTEX
  5
184
100
AcDbEntity
  8
7
  6
CONTINUOUS
 62
     4
100
AcDbVertex
100
AcDb2dVertex
 10
395.15
 20
320.749667
 30
0.0
  0
VERTEX
  5
185
100
AcDbEntity
  8
7
  6
CONTINUOUS
 62
     4
100
AcDbVertex
100
AcDb2dVertex
 10
395.119673
 20
320.468239
 30
0.0
  0
VERTEX
  5
186
100
AcDbEntity
  8
7
  6
CONTINUOUS
 62
     4
100
AcDbVertex
100
AcDb2dVertex
 10
395.028779
 20
319.638133
 30
0.0
  0
VERTEX
  5
187
100
AcDbEntity
  8
7
  6
CONTINUOUS
 62
     4
100
AcDbVertex
100
AcDb2dVertex
 10
394.87784
 20
318.300773
 30
0.0
  0
VERTEX
  5
188
100
AcDbEntity
  8
7
  6
CONTINUOUS
 62
     4
100
AcDbVertex
100
AcDb2dVertex
 10
394.668484
 20
316.521585
 30
0.0
  0
VERTEX
  5
189
100
AcDbEntity
  8
7
  6
CONTINUOUS
 62
     4
100
AcDbVertex
100
AcDb2dVertex
 10
394.404348
 20
314.384974
 30
0.0
  0
VERTEX
  5
18A
100
AcDbEntity
  8
7
  6
CONTINUOUS
 62
     4
100
AcDbVertex
100
AcDb2dVertex
 10
394.091905
 20
311.988027
 30
0.0
  0
VERTEX
  5
18B
100
AcDbEntity
  8
7
  6
CONTINUOUS
 62
     4
100
AcDbVertex
100
AcDb2dVertex
 10
393.740926
 20
309.433573
 30
0.0
  0
VERTEX
  5
18C
100
AcDbEntity
  8
7
  6
CONTINUOUS
 62
     4
100
AcDbVertex
100
AcDb2dVertex
 10
393.364363
 20
306.823277
 30
0.0
  0
VERTEX
  5
18D
100
AcDbEntity
  8
7
  6
CONTINUOUS
 62
     4
100
AcDbVertex
100
AcDb2dVertex
 10
392.977576
 20
304.251409
 30
0.0
  0
VERTEX
  5
18E
100
AcDbEntity
  8
7
  6
CONTINUOUS
 62
     4
100
AcDbVertex
100
AcDb2dVertex
 10
392.596966
 20
301.799834
 30
0.0
  0
VERTEX
  5
18F
100
AcDbEntity
  8
7
  6
CONTINUOUS
 62
     4
100
AcDbVertex
100
AcDb2dVertex
 10
392.238274
 20
299.534603
 30
0.0
  0
VERTEX
  5
190
100
AcDbEntity
  8
7
  6
CONTINUOUS
 62
     4
100
AcDbVertex
100
AcDb2dVertex
 10
391.91486
 20
297.504351
 30
0.0
  0
VERTEX
  5
191
100
AcDbEntity
  8
7
  6
CONTINUOUS
 62
     4
100
AcDbVertex
100
AcDb2dVertex
 10
391.636322
 20
295.740491
 30
0.0
  0
VERTEX
  5
192
100
AcDbEntity
  8
7
  6
CONTINUOUS
 62
     4
100
AcDbVertex
100
AcDb2dVertex
 10
391.407762
 20
294.259016
 30
0.0
  0
VERTEX
  5
193
100
AcDbEntity
  8
7
  6
CONTINUOUS
 62
     4
100
AcDbVertex
100
AcDb2dVertex
 10
391.229862
 20
293.063549
 30
0.0
  0
VERTEX
  5
194
100
AcDbEntity
  8
7
  6
CONTINUOUS
 62
     4
100
AcDbVertex
100
AcDb2dVertex
 10
391.099748
 20
292.14919
 30
0.0
  0
VERTEX
  5
195
100
AcDbEntity
  8
7
  6
CONTINUOUS
 62
     4
100
AcDbVertex
100
AcDb2dVertex
 10
391.012472
 20
291.506626
 30
0.0
  0
VERTEX
  5
196
100
AcDbEntity
  8
7
  6
CONTINUOUS
 62
     4
100
AcDbVertex
100
AcDb2dVertex
 10
390.962763
 20
291.12599
 30
0.0
  0
VERTEX
  5
197
100
AcDbEntity
  8
7
  6
CONTINUOUS
 62
     4
100
AcDbVertex
100
AcDb2dVertex
 10
390.946678
 20
291.0
 30
0.0
  0
VERTEX
  5
198
100
AcDbEntity
  8
7
  6
CONTINUOUS
 62
     4
100
AcDbVertex
100
AcDb2dVertex
 10
390.930918
 20
290.875041
 30
0.0
  0
VERTEX
  5
199
100
AcDbEntity
  8
7
  6
CONTINUOUS
 62
     4
100
AcDbVertex
100
AcDb2dVertex
 10
390.885969
 20
290.509599
 30
0.0
  0
VERTEX
  5
19A
100
AcDbEntity
  8
7
  6
CONTINUOUS
 62
     4
100
AcDbVertex
100
AcDb2dVertex
 10
390.818433
 20
289.930675
 30
0.0
  0
VERTEX
  5
19B
100
AcDbEntity
  8
7
  6
CONTINUOUS
 62
     4
100
AcDbVertex
100
AcDb2dVertex
 10
390.738071
 20
289.179162
 30
0.0
  0
VERTEX
  5
19C
100
AcDbEntity
  8
7
  6
CONTINUOUS
 62
     4
100
AcDbVertex
100
AcDb2dVertex
 10
390.656204
 20
288.304487
 30
0.0
  0
VERTEX
  5
19D
100
AcDbEntity
  8
7
  6
CONTINUOUS
 62
     4
100
AcDbVertex
100
AcDb2dVertex
 10
390.58391
 20
287.358541
 30
0.0
  0
VERTEX
  5
19E
100
AcDbEntity
  8
7
  6
CONTINUOUS
 62
     4
100
AcDbVertex
100
AcDb2dVertex
 10
390.530364
 20
286.389952
 30
0.0
  0
VERTEX
  5
19F
100
AcDbEntity
  8
7
  6
CONTINUOUS
 62
     4
100
AcDbVertex
100
AcDb2dVertex
 10
390.5016
 20
285.439641
 30
0.0
  0
VERTEX
  5
1A0
100
AcDbEntity
  8
7
  6
CONTINUOUS
 62
     4
100
AcDbVertex
100
AcDb2dVertex
 10
390.499899
 20
284.538267
 30
0.0
  0
VERTEX
  5
1A1
100
AcDbEntity
  8
7
  6
CONTINUOUS
 62
     4
100
AcDbVertex
100
AcDb2dVertex
 10
390.523837
 20
283.705756
 30
0.0
  0
VERTEX
  5
1A2
100
AcDbEntity
  8
7
  6
CONTINUOUS
 62
     4
100
AcDbVertex
100
AcDb2dVertex
 10
390.568931
 20
282.952683
 30
0.0
  0
VERTEX
  5
1A3
100
AcDbEntity
  8
7
  6
CONTINUOUS
 62
     4
100
AcDbVertex
100
AcDb2dVertex
 10
390.628686
 20
282.282903
 30
0.0
  0
VERTEX
  5
1A4
100
AcDbEntity
  8
7
  6
CONTINUOUS
 62
     4
100
AcDbVertex
100
AcDb2dVertex
 10
390.69579
 20
281.696676
 30
0.0
  0
VERTEX
  5
1A5
100
AcDbEntity
  8
7
  6
CONTINUOUS
 62
     4
100
AcDbVertex
100
AcDb2dVertex
 10
390.763203
 20
281.193488
 30
0.0
  0
VERTEX
  5
1A6
100
AcDbEntity
  8
7
  6
CONTINUOUS
 62
     4
100
AcDbVertex
100
AcDb2dVertex
 10
390.824961
 20
280.773987
 30
0.0
  0
VERTEX
  5
1A7
100
AcDbEntity
  8
7
  6
CONTINUOUS
 62
     4
100
AcDbVertex
100
AcDb2dVertex
 10
390.876579
 20
280.440739
 30
0.0
  0
VERTEX
  5
1A8
100
AcDbEntity
  8
7
  6
CONTINUOUS
 62
     4
100
AcDbVertex
100
AcDb2dVertex
 10
390.915073
 20
280.197844
 30
0.0
  0
VERTEX
  5
1A9
100
AcDbEntity
  8
7
  6
CONTINUOUS
 62
     4
100
AcDbVertex
100
AcDb2dVertex
 10
390.938717
 20
280.049783
 30
0.0
  0
VERTEX
  5
1AA
100
AcDbEntity
  8
7
  6
CONTINUOUS
 62
     4
100
AcDbVertex
100
AcDb2dVertex
 10
390.946678
 20
280.0
 30
0.0
  0
SEQEND
  5
1AB
100
AcDbEntity
  8
7
  6
CONTINUOUS
 62
     4
  0
POLYLINE
  5
1AC
100
AcDbEntity
  8
7
  6
CONTINUOUS
 62
     4
100
AcDb2dPolyline
 66
     1
 10
0.0
 20
0.0
 30
0.0
 70
     2
  0
VERTEX
  5
1AD
100
AcDbEntity
  8
7
  6
CONTINUOUS
 62
     4
100
AcDbVertex
100
AcDb2dVertex
 10
411.645191
 20
370.0
 30
0.0
  0
VERTEX
  5
1AE
100
AcDbEntity
  8
7
  6
CONTINUOUS
 62
     4
100
AcDbVertex
100
AcDb2dVertex
 10
411.66591
 20
369.637208
 30
0.0
  0
VERTEX
  5
1AF
100
AcDbEntity
  8
7
  6
CONTINUOUS
 62
     4
100
AcDbVertex
100
AcDb2dVertex
 10
411.727512
 20
368.558803
 30
0.0
  0
VERTEX
  5
1B0
100
AcDbEntity
  8
7
  6
CONTINUOUS
 62
     4
100
AcDbVertex
100
AcDb2dVertex
 10
411.828391
 20
366.794834
 30
0.0
  0
VERTEX
  5
1B1
100
AcDbEntity
  8
7
  6
CONTINUOUS
 62
     4
100
AcDbVertex
100
AcDb2dVertex
 10
411.966066
 20
364.395711
 30
0.0
  0
VERTEX
  5
1B2
100
AcDbEntity
  8
7
  6
CONTINUOUS
 62
     4
100
AcDbVertex
100
AcDb2dVertex
 10
412.137411
 20
361.4322
 30
0.0
  0
VERTEX
  5
1B3
100
AcDbEntity
  8
7
  6
CONTINUOUS
 62
     4
100
AcDbVertex
100
AcDb2dVertex
 10
412.338871
 20
357.994617
 30
0.0
  0
VERTEX
  5
1B4
100
AcDbEntity
  8
7
  6
CONTINUOUS
 62
     4
100
AcDbVertex
100
AcDb2dVertex
 10
412.566599
 20
354.190693
 30
0.0
  0
VERTEX
  5
1B5
100
AcDbEntity
  8
7
  6
CONTINUOUS
 62
     4
100
AcDbVertex
100
AcDb2dVertex
 10
412.816465
 20
350.141809
 30
0.0
  0
VERTEX
  5
1B6
100
AcDbEntity
  8
7
  6
CONTINUOUS
 62
     4
100
AcDbVertex
100
AcDb2dVertex
 10
413.083924
 20
345.977638
 30
0.0
  0
VERTEX
  5
1B7
100
AcDbEntity
  8
7
  6
CONTINUOUS
 62
     4
100
AcDbVertex
100
AcDb2dVertex
 10
413.363784
 20
341.829583
 30
0.0
  0
VERTEX
  5
1B8
100
AcDbEntity
  8
7
  6
CONTINUOUS
 62
     4
100
AcDbVertex
100
AcDb2dVertex
 10
413.649941
 20
337.823747
 30
0.0
  0
VERTEX
  5
1B9
100
AcDbEntity
  8
7
  6
CONTINUOUS
 62
     4
100
AcDbVertex
100
AcDb2dVertex
 10
413.935177
 20
334.074375
 30
0.0
  0
VERTEX
  5
1BA
100
AcDbEntity
  8
7
  6
CONTINUOUS
 62
     4
100
AcDbVertex
100
AcDb2dVertex
 10
414.211115
 20
330.678684
 30
0.0
  0
VERTEX
  5
1BB
100
AcDbEntity
  8
7
  6
CONTINUOUS
 62
     4
100
AcDbVertex
100
AcDb2dVertex
 10
414.468399
 20
327.713816
 30
0.0
  0
VERTEX
  5
1BC
100
AcDbEntity
  8
7
  6
CONTINUOUS
 62
     4
100
AcDbVertex
100
AcDb2dVertex
 10
414.697134
 20
325.236275
 30
0.0
  0
VERTEX
  5
1BD
100
AcDbEntity
  8
7
  6
CONTINUOUS
 62
     4
100
AcDbVertex
100
AcDb2dVertex
 10
414.887545
 20
323.283716
 30
0.0
  0
VERTEX
  5
1BE
100
AcDbEntity
  8
7
  6
CONTINUOUS
 62
     4
100
AcDbVertex
100
AcDb2dVertex
 10
415.030792
 20
321.878513
 30
0.0
  0
VERTEX
  5
1BF
100
AcDbEntity
  8
7
  6
CONTINUOUS
 62
     4
100
AcDbVertex
100
AcDb2dVertex
 10
415.119802
 20
321.032197
 30
0.0
  0
VERTEX
  5
1C0
100
AcDbEntity
  8
7
  6
CONTINUOUS
 62
     4
100
AcDbVertex
100
AcDb2dVertex
 10
415.15
 20
320.749667
 30
0.0
  0
VERTEX
  5
1C1
100
AcDbEntity
  8
7
  6
CONTINUOUS
 62
     4
100
AcDbVertex
100
AcDb2dVertex
 10
415.180327
 20
320.468239
 30
0.0
  0
VERTEX
  5
1C2
100
AcDbEntity
  8
7
  6
CONTINUOUS
 62
     4
100
AcDbVertex
100
AcDb2dVertex
 10
415.271221
 20
319.638133
 30
0.0
  0
VERTEX
  5
1C3
100
AcDbEntity
  8
7
  6
CONTINUOUS
 62
     4
100
AcDbVertex
100
AcDb2dVertex
 10
415.42216
 20
318.300773
 30
0.0
  0
VERTEX
  5
1C4
100
AcDbEntity
  8
7
  6
CONTINUOUS
 62
     4
100
AcDbVertex
100
AcDb2dVertex
 10
415.631516
 20
316.521585
 30
0.0
  0
VERTEX
  5
1C5
100
AcDbEntity
  8
7
  6
CONTINUOUS
 62
     4
100
AcDbVertex
100
AcDb2dVertex
 10
415.895652
 20
314.384974
 30
0.0
  0
VERTEX
  5
1C6
100
AcDbEntity
  8
7
  6
CONTINUOUS
 62
     4
100
AcDbVertex
100
AcDb2dVertex
 10
416.208095
 20
311.988027
 30
0.0
  0
VERTEX
  5
1C7
100
AcDbEntity
  8
7
  6
CONTINUOUS
 62
     4
100
AcDbVertex
100
AcDb2dVertex
 10
416.559074
 20
309.433573
 30
0.0
  0
VERTEX
  5
1C8
100
AcDbEntity
  8
7
  6
CONTINUOUS
 62
     4
100
AcDbVertex
100
AcDb2dVertex
 10
416.935637
 20
306.823277
 30
0.0
  0
VERTEX
  5
1C9
100
AcDbEntity
  8
7
  6
CONTINUOUS
 62
     4
100
AcDbVertex
100
AcDb2dVertex
 10
417.322424
 20
304.251409
 30
0.0
  0
VERTEX
  5
1CA
100
AcDbEntity
  8
7
  6
CONTINUOUS
 62
     4
100
AcDbVertex
100
AcDb2dVertex
 10
417.703034
 20
301.799834
 30
0.0
  0
VERTEX
  5
1CB
100
AcDbEntity
  8
7
  6
CONTINUOUS
 62
     4
100
AcDbVertex
100
AcDb2dVertex
 10
418.061726
 20
299.534603
 30
0.0
  0
VERTEX
  5
1CC
100
AcDbEntity
  8
7
  6
CONTINUOUS
 62
     4
100
AcDbVertex
100
AcDb2dVertex
 10
418.38514
 20
297.504351
 30
0.0
  0
VERTEX
  5
1CD
100
AcDbEntity
  8
7
  6
CONTINUOUS
 62
     4
100
AcDbVertex
100
AcDb2dVertex
 10
418.663678
 20
295.740491
 30
0.0
  0
VERTEX
  5
1CE
100
AcDbEntity
  8
7
  6
CONTINUOUS
 62
     4
100
AcDbVertex
100
AcDb2dVertex
 10
418.892238
 20
294.259016
 30
0.0
  0
VERTEX
  5
1CF
100
AcDbEntity
  8
7
  6
CONTINUOUS
 62
     4
100
AcDbVertex
100
AcDb2dVertex
 10
419.070138
 20
293.063549
 30
0.0
  0
VERTEX
  5
1D0
100
AcDbEntity
  8
7
  6
CONTINUOUS
 62
     4
100
AcDbVertex
100
AcDb2dVertex
 10
419.200252
 20
292.14919
 30
0.0
  0
VERTEX
  5
1D1
100
AcDbEntity
  8
7
  6
CONTINUOUS
 62
     4
100
AcDbVertex
100
AcDb2dVertex
 10
419.287528
 20
291.506626
 30
0.0
  0
VERTEX
  5
1D2
100
AcDbEntity
  8
7
  6
CONTINUOUS
 62
     4
100
AcDbVertex
100
AcDb2dVertex
 10
419.337237
 20
291.12599
 30
0.0
  0
VERTEX
  5
1D3
100
AcDbEntity
  8
7
  6
CONTINUOUS
 62
     4
100
AcDbVertex
100
AcDb2dVertex
 10
419.353322
 20
291.0
 30
0.0
  0
VERTEX
  5
1D4
100
AcDbEntity
  8
7
  6
CONTINUOUS
 62
     4
100
AcDbVertex
100
AcDb2dVertex
 10
419.369082
 20
290.875041
 30
0.0
  0
VERTEX
  5
1D5
100
AcDbEntity
  8
7
  6
CONTINUOUS
 62
     4
100
AcDbVertex
100
AcDb2dVertex
 10
419.414031
 20
290.509599
 30
0.0
  0
VERTEX
  5
1D6
100
AcDbEntity
  8
7
  6
CONTINUOUS
 62
     4
100
AcDbVertex
100
AcDb2dVertex
 10
419.481567
 20
289.930675
 30
0.0
  0
VERTEX
  5
1D7
100
AcDbEntity
  8
7
  6
CONTINUOUS
 62
     4
100
AcDbVertex
100
AcDb2dVertex
 10
419.561929
 20
289.179162
 30
0.0
  0
VERTEX
  5
1D8
100
AcDbEntity
  8
7
  6
CONTINUOUS
 62
     4
100
AcDbVertex
100
AcDb2dVertex
 10
419.643796
 20
288.304487
 30
0.0
  0
VERTEX
  5
1D9
100
AcDbEntity
  8
7
  6
CONTINUOUS
 62
     4
100
AcDbVertex
100
AcDb2dVertex
 10
419.71609
 20
287.358541
 30
0.0
  0
VERTEX
  5
1DA
100
AcDbEntity
  8
7
  6
CONTINUOUS
 62
     4
100
AcDbVertex
100
AcDb2dVertex
 10
419.769636
 20
286.389952
 30
0.0
  0
VERTEX
  5
1DB
100
AcDbEntity
  8
7
  6
CONTINUOUS
 62
     4
100
AcDbVertex
100
AcDb2dVertex
 10
419.7984
 20
285.439641
 30
0.0
  0
VERTEX
  5
1DC
100
AcDbEntity
  8
7
  6
CONTINUOUS
 62
     4
100
AcDbVertex
100
AcDb2dVertex
 10
419.800101
 20
284.538267
 30
0.0
  0
VERTEX
  5
1DD
100
AcDbEntity
  8
7
  6
CONTINUOUS
 62
     4
100
AcDbVertex
100
AcDb2dVertex
 10
419.776163
 20
283.705756
 30
0.0
  0
VERTEX
  5
1DE
100
AcDbEntity
  8
7
  6
CONTINUOUS
 62
     4
100
AcDbVertex
100
AcDb2dVertex
 10
419.731069
 20
282.952683
 30
0.0
  0
VERTEX
  5
1DF
100
AcDbEntity
  8
7
  6
CONTINUOUS
 62
     4
100
AcDbVertex
100
AcDb2dVertex
 10
419.671314
 20
282.282903
 30
0.0
  0
VERTEX
  5
1E0
100
AcDbEntity
  8
7
  6
CONTINUOUS
 62
     4
100
AcDbVertex
100
AcDb2dVertex
 10
419.60421
 20
281.696676
 30
0.0
  0
VERTEX
  5
1E1
100
AcDbEntity
  8
7
  6
CONTINUOUS
 62
     4
100
AcDbVertex
100
AcDb2dVertex
 10
419.536797
 20
281.193488
 30
0.0
  0
VERTEX
  5
1E2
100
AcDbEntity
  8
7
  6
CONTINUOUS
 62
     4
100
AcDbVertex
100
AcDb2dVertex
 10
419.475039
 20
280.773987
 30
0.0
  0
VERTEX
  5
1E3
100
AcDbEntity
  8
7
  6
CONTINUOUS
 62
     4
100
AcDbVertex
100
AcDb2dVertex
 10
419.423421
 20
280.440739
 30
0.0
  0
VERTEX
  5
1E4
100
AcDbEntity
  8
7
  6
CONTINUOUS
 62
     4
100
AcDbVertex
100
AcDb2dVertex
 10
419.384927
 20
280.197844
 30
0.0
  0
VERTEX
  5
1E5
100
AcDbEntity
  8
7
  6
CONTINUOUS
 62
     4
100
AcDbVertex
100
AcDb2dVertex
 10
419.361283
 20
280.049783
 30
0.0
  0
VERTEX
  5
1E6
100
AcDbEntity
  8
7
  6
CONTINUOUS
 62
     4
100
AcDbVertex
100
AcDb2dVertex
 10
419.353322
 20
280.0
 30
0.0
  0
SEQEND
  5
1E7
100
AcDbEntity
  8
7
  6
CONTINUOUS
 62
     4
  0
INSERT
  5
204
100
AcDbEntity
  8
8
  6
CONTINUOUS
 62
     6
100
AcDbBlockReference
  2
*G20
 10
0.0
 20
0.0
 30
0.0
  0
INSERT
  5
224
100
AcDbEntity
  8
8
  6
CONTINUOUS
 62
     6
100
AcDbBlockReference
  2
*G21
 10
0.0
 20
0.0
 30
0.0
  0
ARC
  5
225
100
AcDbEntity
  8
1
  6
CONTINUOUS
 62
     4
100
AcDbCircle
 10
182.946996
 20
297.992489
 30
0.0
 40
6.096996
100
AcDbArc
 50
100.365335
 51
-100.365335
  0
ARC
  5
226
100
AcDbEntity
  8
1
  6
CONTINUOUS
 62
     4
100
AcDbCircle
 10
180.753004
 20
285.997496
 30
0.0
 40
6.096996
100
AcDbArc
 50
-79.634665
 51
79.634665
  0
ARC
  5
227
100
AcDbEntity
  8
1
  6
CONTINUOUS
 62
     4
100
AcDbCircle
 10
519.246996
 20
297.992489
 30
0.0
 40
6.096996
100
AcDbArc
 50
100.365335
 51
-100.365335
  0
ARC
  5
228
100
AcDbEntity
  8
1
  6
CONTINUOUS
 62
     4
100
AcDbCircle
 10
517.053004
 20
285.997496
 30
0.0
 40
6.096996
100
AcDbArc
 50
-79.634665
 51
79.634665
  0
CIRCLE
  5
229
100
AcDbEntity
  8
1
  6
CONTINUOUS
 62
     4
100
AcDbCircle
 10
201.85
 20
672.783225
 30
0.0
 40
15.0
  0
LINE
  5
22A
100
AcDbEntity
  8
1
  6
CONTINUOUS
 62
     4
100
AcDbLine
 10
332.679492
 20
600.0
 30
0.0
 11
322.980267
 21
602.434139
 31
0.0
  0
LINE
  5
22B
100
AcDbEntity
  8
1
  6
CONTINUOUS
 62
     4
100
AcDbLine
 10
332.679492
 20
600.0
 30
0.0
 11
325.496786
 21
606.957638
 31
0.0
  0
POLYLINE
  5
22C
100
AcDbEntity
  8
1
  6
CONTINUOUS
 62
     4
100
AcDb2dPolyline
 66
     1
 10
0.0
 20
0.0
 30
0.0
  0
VERTEX
  5
22D
100
AcDbEntity
  8
1
  6
CONTINUOUS
 62
     4
100
AcDbVertex
100
AcDb2dVertex
 10
332.679492
 20
600.0
 30
0.0
  0
VERTEX
  5
22E
100
AcDbEntity
  8
1
  6
CONTINUOUS
 62
     4
100
AcDbVertex
100
AcDb2dVertex
 10
214.958096
 20
665.490913
 30
0.0
  0
SEQEND
  5
22F
100
AcDbEntity
  8
1
  6
CONTINUOUS
 62
     4
  0
TEXT
  5
230
100
AcDbEntity
  8
1
  6
CONTINUOUS
 62
     4
100
AcDbText
 10
198.1
 20
665.283225
 30
0.0
 40
15.0
  1
4
 41
0.5
 11
198.1
 21
665.283225
 31
0.0
100
AcDbText
 73
     1
  0
CIRCLE
  5
231
100
AcDbEntity
  8
1
  6
CONTINUOUS
 62
     4
100
AcDbCircle
 10
201.85
 20
635.0
 30
0.0
 40
15.0
  0
LINE
  5
232
100
AcDbEntity
  8
1
  6
CONTINUOUS
 62
     4
100
AcDbLine
 10
332.679492
 20
588.853373
 30
0.0
 11
322.709353
 21
589.6256
 31
0.0
  0
LINE
  5
233
100
AcDbEntity
  8
1
  6
CONTINUOUS
 62
     4
100
AcDbLine
 10
332.679492
 20
588.853373
 30
0.0
 11
324.431212
 21
594.50721
 31
0.0
  0
POLYLINE
  5
234
100
AcDbEntity
  8
1
  6
CONTINUOUS
 62
     4
100
AcDb2dPolyline
 66
     1
 10
0.0
 20
0.0
 30
0.0
  0
VERTEX
  5
235
100
AcDbEntity
  8
1
  6
CONTINUOUS
 62
     4
100
AcDbVertex
100
AcDb2dVertex
 10
332.679492
 20
588.853373
 30
0.0
  0
VERTEX
  5
236
100
AcDbEntity
  8
1
  6
CONTINUOUS
 62
     4
100
AcDbVertex
100
AcDb2dVertex
 10
215.995821
 20
630.010437
 30
0.0
  0
SEQEND
  5
237
100
AcDbEntity
  8
1
  6
CONTINUOUS
 62
     4
  0
TEXT
  5
238
100
AcDbEntity
  8
1
  6
CONTINUOUS
 62
     4
100
AcDbText
 10
198.1
 20
627.5
 30
0.0
 40
15.0
  1
3
 41
0.5
 11
198.1
 21
627.5
 31
0.0
100
AcDbText
 73
     1
  0
CIRCLE
  5
239
100
AcDbEntity
  8
1
  6
CONTINUOUS
 62
     4
100
AcDbCircle
 10
486.778094
 20
450.0
 30
0.0
 40
15.0
  0
LINE
  5
23A
100
AcDbEntity
  8
1
  6
CONTINUOUS
 62
     4
100
AcDbLine
 10
446.15
 20
410.0
 30
0.0
 11
451.21731
 21
418.621042
 31
0.0
  0
LINE
  5
23B
100
AcDbEntity
  8
1
  6
CONTINUOUS
 62
     4
100
AcDbLine
 10
446.15
 20
410.0
 30
0.0
 11
454.84894
 21
414.932387
 31
0.0
  0
POLYLINE
  5
23C
100
AcDbEntity
  8
1
  6
CONTINUOUS
 62
     4
100
AcDb2dPolyline
 66
     1
 10
0.0
 20
0.0
 30
0.0
  0
VERTEX
  5
23D
100
AcDbEntity
  8
1
  6
CONTINUOUS
 62
     4
100
AcDbVertex
100
AcDb2dVertex
 10
446.15
 20
410.0
 30
0.0
  0
VERTEX
  5
23E
100
AcDbEntity
  8
1
  6
CONTINUOUS
 62
     4
100
AcDbVertex
100
AcDb2dVertex
 10
476.089191
 20
439.476343
 30
0.0
  0
SEQEND
  5
23F
100
AcDbEntity
  8
1
  6
CONTINUOUS
 62
     4
  0
TEXT
  5
240
100
AcDbEntity
  8
1
  6
CONTINUOUS
 62
     4
100
AcDbText
 10
483.028094
 20
442.5
 30
0.0
 40
15.0
  1
2
 41
0.5
 11
483.028094
 21
442.5
 31
0.0
100
AcDbText
 73
     1
  0
CIRCLE
  5
241
100
AcDbEntity
  8
1
  6
CONTINUOUS
 62
     4
100
AcDbCircle
 10
433.15
 20
195.319295
 30
0.0
 40
15.0
  0
LINE
  5
242
100
AcDbEntity
  8
1
  6
CONTINUOUS
 62
     4
100
AcDbLine
 10
406.489746
 20
280.0
 30
0.0
 11
411.859165
 21
271.563808
 31
0.0
  0
LINE
  5
243
100
AcDbEntity
  8
1
  6
CONTINUOUS
 62
     4
100
AcDbLine
 10
406.489746
 20
280.0
 30
0.0
 11
406.921704
 21
270.009334
 31
0.0
  0
POLYLINE
  5
244
100
AcDbEntity
  8
1
  6
CONTINUOUS
 62
     4
100
AcDb2dPolyline
 66
     1
 10
0.0
 20
0.0
 30
0.0
  0
VERTEX
  5
245
100
AcDbEntity
  8
1
  6
CONTINUOUS
 62
     4
100
AcDbVertex
100
AcDb2dVertex
 10
406.489746
 20
280.0
 30
0.0
  0
VERTEX
  5
246
100
AcDbEntity
  8
1
  6
CONTINUOUS
 62
     4
100
AcDbVertex
100
AcDb2dVertex
 10
428.645479
 20
209.62696
 30
0.0
  0
SEQEND
  5
247
100
AcDbEntity
  8
1
  6
CONTINUOUS
 62
     4
  0
TEXT
  5
248
100
AcDbEntity
  8
1
  6
CONTINUOUS
 62
     4
100
AcDbText
 10
429.4
 20
187.819295
 30
0.0
 40
15.0
  1
6
 41
0.5
 11
429.4
 21
187.819295
 31
0.0
100
AcDbText
 73
     1
  0
LINE
  5
249
100
AcDbEntity
  8
6
  6
CONTINUOUS
 62
    51
100
AcDbLine
 10
107.810067
 20
96.475
 30
0.0
 11
337.810067
 21
96.475
 31
0.0
  0
LINE
  5
24A
100
AcDbEntity
  8
6
  6
CONTINUOUS
 62
    51
100
AcDbLine
 10
107.810067
 20
116.475
 30
0.0
 11
337.810067
 21
116.475
 31
0.0
  0
LINE
  5
24B
100
AcDbEntity
  8
6
  6
CONTINUOUS
 62
    51
100
AcDbLine
 10
107.810067
 20
136.475
 30
0.0
 11
337.810067
 21
136.475
 31
0.0
  0
TEXT
  5
24C
100
AcDbEntity
  8
6
  6
CONTINUOUS
 62
    51
100
AcDbText
 10
304.067004
 20
77.16026
 30
0.0
 40
15.0
  1
%%p3
 41
0.75
 11
304.067004
 21
77.16026
 31
0.0
100
AcDbText
 73
     1
  0
TEXT
  5
24D
100
AcDbEntity
  8
6
  6
CONTINUOUS
 62
    51
100
AcDbText
 10
289.067004
 20
97.16026
 30
0.0
 40
15.0
  1
%%p2.5
 41
0.694444
 11
289.067004
 21
97.16026
 31
0.0
100
AcDbText
 73
     1
  0
TEXT
  5
24E
100
AcDbEntity
  8
6
  6
CONTINUOUS
 62
    51
100
AcDbText
 10
289.067004
 20
117.16026
 30
0.0
 40
15.0
  1
%%p1.5
 41
0.694444
 11
289.067004
 21
117.16026
 31
0.0
100
AcDbText
 73
     1
  0
TEXT
  5
24F
100
AcDbEntity
  8
6
  6
CONTINUOUS
 62
    51
100
AcDbText
 10
265.052289
 20
136.475
 30
0.0
 40
15.0
  1
TOLERANCE
 41
0.5
 11
265.052289
 21
136.475
 31
0.0
100
AcDbText
 73
     1
  0
TEXT
  5
250
100
AcDbEntity
  8
6
  6
CONTINUOUS
 62
    51
100
AcDbText
 10
265.052289
 20
151.475
 30
0.0
 40
15.0
  1
公差 (mm)
 41
0.642857
 11
265.052289
 21
151.475
 31
0.0
100
AcDbText
 73
     1
  0
TEXT
  5
251
100
AcDbEntity
  8
6
  6
CONTINUOUS
 62
    51
100
AcDbText
 10
143.17767
 20
118.048699
 30
0.0
 40
15.0
  1
0 ＜ L ≦   50
 41
0.7
 11
143.17767
 21
118.048699
 31
0.0
100
AcDbText
 73
     1
  0
TEXT
  5
252
100
AcDbEntity
  8
6
  6
CONTINUOUS
 62
    51
100
AcDbText
 10
130.462407
 20
136.475
 30
0.0
 40
15.0
  1
DIMENSION
 41
0.5
 11
130.462407
 21
136.475
 31
0.0
100
AcDbText
 73
     1
  0
TEXT
  5
253
100
AcDbEntity
  8
6
  6
CONTINUOUS
 62
    51
100
AcDbText
 10
130.462407
 20
151.475
 30
0.0
 40
15.0
  1
寸法範囲 (mm)
 41
0.691489
 11
130.462407
 21
151.475
 31
0.0
100
AcDbText
 73
     1
  0
TEXT
  5
254
100
AcDbEntity
  8
6
  6
CONTINUOUS
 62
    51
100
AcDbText
 10
135.67767
 20
98.048699
 30
0.0
 40
15.0
  1
50 ＜ L ≦  100
 41
0.657895
 11
135.67767
 21
98.048699
 31
0.0
100
AcDbText
 73
     1
  0
TEXT
  5
255
100
AcDbEntity
  8
6
  6
CONTINUOUS
 62
    51
100
AcDbText
 10
128.17767
 20
78.048699
 30
0.0
 40
15.0
  1
100 ＜ L ≦  500
 41
0.645161
 11
128.17767
 21
78.048699
 31
0.0
100
AcDbText
 73
     1
  0
LINE
  5
256
100
AcDbEntity
  8
6
  6
CONTINUOUS
 62
    51
100
AcDbLine
 10
169.310067
 20
179.975
 30
0.0
 11
283.060067
 21
179.975
 31
0.0
  0
TEXT
  5
257
100
AcDbEntity
  8
6
  6
CONTINUOUS
 62
    51
100
AcDbText
 10
169.310067
 20
179.975
 30
0.0
 40
17.5
  1
表１  TABLE 1
 41
0.637255
 11
169.310067
 21
179.975
 31
0.0
100
AcDbText
 73
     1
  0
INSERT
  5
25F
100
AcDbEntity
  8
6
  6
CONTINUOUS
 62
    51
100
AcDbBlockReference
  2
*G22
 10
0.0
 20
0.0
 30
0.0
  0
LINE
  5
260
100
AcDbEntity
  8
6
  6
CONTINUOUS
 62
    51
100
AcDbLine
 10
257.810067
 20
171.475
 30
0.0
 11
257.810067
 21
76.475
 31
0.0
  0
CIRCLE
  5
261
100
AcDbEntity
  8
1
  6
CONTINUOUS
 62
     4
100
AcDbCircle
 10
463.15
 20
195.319295
 30
0.0
 40
15.0
  0
CIRCLE
  5
262
100
AcDbEntity
  8
1
  6
CONTINUOUS
 62
     4
100
AcDbCircle
 10
493.15
 20
195.319295
 30
0.0
 40
15.0
  0
TEXT
  5
263
100
AcDbEntity
  8
1
  6
CONTINUOUS
 62
     4
100
AcDbText
 10
459.4
 20
187.819295
 30
0.0
 40
15.0
  1
7
 41
0.5
 11
459.4
 21
187.819295
 31
0.0
100
AcDbText
 73
     1
  0
TEXT
  5
264
100
AcDbEntity
  8
1
  6
CONTINUOUS
 62
     4
100
AcDbText
 10
489.4
 20
187.819295
 30
0.0
 40
15.0
  1
8
 41
0.5
 11
489.4
 21
187.819295
 31
0.0
100
AcDbText
 73
     1
  0
LINE
  5
265
100
AcDbEntity
  8
1
  6
CONTINUOUS
 62
     4
100
AcDbLine
 10
204.546405
 20
280.0
 30
0.0
 11
198.071743
 21
272.379058
 31
0.0
  0
LINE
  5
266
100
AcDbEntity
  8
1
  6
CONTINUOUS
 62
     4
100
AcDbLine
 10
204.546405
 20
280.0
 30
0.0
 11
195.128712
 21
276.637401
 31
0.0
  0
POLYLINE
  5
267
100
AcDbEntity
  8
1
  6
CONTINUOUS
 62
     4
100
AcDb2dPolyline
 66
     1
 10
0.0
 20
0.0
 30
0.0
  0
VERTEX
  5
268
100
AcDbEntity
  8
1
  6
CONTINUOUS
 62
     4
100
AcDbVertex
100
AcDb2dVertex
 10
204.546405
 20
280.0
 30
0.0
  0
VERTEX
  5
269
100
AcDbEntity
  8
1
  6
CONTINUOUS
 62
     4
100
AcDbVertex
100
AcDb2dVertex
 10
161.13867
 20
250.0
 30
0.0
  0
VERTEX
  5
26A
100
AcDbEntity
  8
1
  6
CONTINUOUS
 62
     4
100
AcDbVertex
100
AcDb2dVertex
 10
86.13867
 20
250.0
 30
0.0
  0
SEQEND
  5
26B
100
AcDbEntity
  8
1
  6
CONTINUOUS
 62
     4
  0
TEXT
  5
26C
100
AcDbEntity
  8
1
  6
CONTINUOUS
 62
     4
100
AcDbText
 10
86.13867
 20
250.0
 30
0.0
 40
15.0
  1
HULL PLATE
 41
0.520833
 11
86.13867
 21
250.0
 31
0.0
100
AcDbText
 73
     1
  0
CIRCLE
  5
26D
100
AcDbEntity
  8
1
  6
CONTINUOUS
 62
     4
100
AcDbCircle
 10
201.85
 20
234.884424
 30
0.0
 40
15.0
  0
LINE
  5
26E
100
AcDbEntity
  8
1
  6
CONTINUOUS
 62
     4
100
AcDbLine
 10
293.646617
 20
280.0
 30
0.0
 11
286.11935
 21
273.416668
 31
0.0
  0
LINE
  5
26F
100
AcDbEntity
  8
1
  6
CONTINUOUS
 62
     4
100
AcDbLine
 10
293.646617
 20
280.0
 30
0.0
 11
283.836147
 21
278.0623
 31
0.0
  0
POLYLINE
  5
270
100
AcDbEntity
  8
1
  6
CONTINUOUS
 62
     4
100
AcDb2dPolyline
 66
     1
 10
0.0
 20
0.0
 30
0.0
  0
VERTEX
  5
271
100
AcDbEntity
  8
1
  6
CONTINUOUS
 62
     4
100
AcDbVertex
100
AcDb2dVertex
 10
293.646617
 20
280.0
 30
0.0
  0
VERTEX
  5
272
100
AcDbEntity
  8
1
  6
CONTINUOUS
 62
     4
100
AcDbVertex
100
AcDb2dVertex
 10
215.312009
 20
241.50064
 30
0.0
  0
SEQEND
  5
273
100
AcDbEntity
  8
1
  6
CONTINUOUS
 62
     4
  0
TEXT
  5
274
100
AcDbEntity
  8
1
  6
CONTINUOUS
 62
     4
100
AcDbText
 10
198.1
 20
227.384424
 30
0.0
 40
15.0
  1
1
 41
0.5
 11
198.1
 21
227.384424
 31
0.0
100
AcDbText
 73
     1
  0
LINE
  5
275
100
AcDbEntity
  8
1
  6
CONTINUOUS
 62
     4
100
AcDbLine
 10
463.184159
 20
280.0
 30
0.0
 11
470.734513
 21
273.443159
 31
0.0
  0
LINE
  5
276
100
AcDbEntity
  8
1
  6
CONTINUOUS
 62
     4
100
AcDbLine
 10
463.184159
 20
280.0
 30
0.0
 11
466.444537
 21
270.546432
 31
0.0
  0
POLYLINE
  5
277
100
AcDbEntity
  8
1
  6
CONTINUOUS
 62
     4
100
AcDb2dPolyline
 66
     1
 10
0.0
 20
0.0
 30
0.0
  0
VERTEX
  5
278
100
AcDbEntity
  8
1
  6
CONTINUOUS
 62
     4
100
AcDbVertex
100
AcDb2dVertex
 10
463.184159
 20
280.0
 30
0.0
  0
VERTEX
  5
279
100
AcDbEntity
  8
1
  6
CONTINUOUS
 62
     4
100
AcDbVertex
100
AcDb2dVertex
 10
483.441102
 20
250.0
 30
0.0
  0
VERTEX
  5
27A
100
AcDbEntity
  8
1
  6
CONTINUOUS
 62
     4
100
AcDbVertex
100
AcDb2dVertex
 10
633.441102
 20
250.0
 30
0.0
  0
SEQEND
  5
27B
100
AcDbEntity
  8
1
  6
CONTINUOUS
 62
     4
  0
TEXT
  5
27C
100
AcDbEntity
  8
1
  6
CONTINUOUS
 62
     4
100
AcDbText
 10
483.441102
 20
250.0
 30
0.0
 40
15.0
  1
開先寸法は造船所一任
 41
0.833333
 11
483.441102
 21
250.0
 31
0.0
100
AcDbText
 73
     1
  0
TEXT
  5
27D
100
AcDbEntity
  8
1
  6
CONTINUOUS
 62
     4
100
AcDbText
 10
86.13867
 20
265.0
 30
0.0
 40
15.0
  1
船底板
 41
0.833333
 11
86.13867
 21
265.0
 31
0.0
100
AcDbText
 73
     1
  0
LINE
  5
27E
100
AcDbEntity
  8
1
  6
CONTINUOUS
 62
     4
100
AcDbLine
 10
517.73528
 20
830.0
 30
0.0
 11
584.011062
 21
830.0
 31
0.0
  0
LINE
  5
27F
100
AcDbEntity
  8
1
  6
CONTINUOUS
 62
     4
100
AcDbLine
 10
517.73528
 20
830.0
 30
0.0
 11
507.73528
 21
840.0
 31
0.0
  0
LINE
  5
280
100
AcDbEntity
  8
1
  6
CONTINUOUS
 62
     4
100
AcDbLine
 10
522.73528
 20
830.0
 30
0.0
 11
512.73528
 21
840.0
 31
0.0
  0
LINE
  5
281
100
AcDbEntity
  8
1
  6
CONTINUOUS
 62
     4
100
AcDbLine
 10
527.73528
 20
830.0
 30
0.0
 11
517.73528
 21
840.0
 31
0.0
  0
LINE
  5
282
100
AcDbEntity
  8
1
  6
CONTINUOUS
 62
     4
100
AcDbLine
 10
532.73528
 20
830.0
 30
0.0
 11
522.73528
 21
840.0
 31
0.0
  0
LINE
  5
283
100
AcDbEntity
  8
1
  6
CONTINUOUS
 62
     4
100
AcDbLine
 10
537.73528
 20
830.0
 30
0.0
 11
527.73528
 21
840.0
 31
0.0
  0
LINE
  5
284
100
AcDbEntity
  8
1
  6
CONTINUOUS
 62
     4
100
AcDbLine
 10
507.73528
 20
840.0
 30
0.0
 11
527.73528
 21
840.0
 31
0.0
  0
TEXT
  5
285
100
AcDbEntity
  8
1
  6
CONTINUOUS
 62
     4
100
AcDbText
 10
517.73528
 20
795.0
 30
0.0
 40
15.0
  1
FORWARD
 41
0.5
 11
517.73528
 21
795.0
 31
0.0
100
AcDbText
 73
     1
  0
TEXT
  5
286
100
AcDbEntity
  8
1
  6
CONTINUOUS
 62
     4
100
AcDbText
 10
517.73528
 20
780.0
 30
0.0
 40
15.0
  1
DIRECTION
 41
0.5
 11
517.73528
 21
780.0
 31
0.0
100
AcDbText
 73
     1
  0
TEXT
  5
287
100
AcDbEntity
  8
1
  6
CONTINUOUS
 62
     4
100
AcDbText
 10
517.73528
 20
810.0
 30
0.0
 40
15.0
  1
船首方向
 41
0.833333
 11
517.73528
 21
810.0
 31
0.0
100
AcDbText
 73
     1
  0
LINE
  5
288
100
AcDbEntity
  8
1
  6
CONTINUOUS
 62
     4
100
AcDbLine
 10
584.011062
 20
830.0
 30
0.0
 11
564.163406
 21
834.961914
 31
0.0
  0
LINE
  5
289
100
AcDbEntity
  8
4
  6
CONTINUOUS
 62
    21
100
AcDbLine
 10
1306.4
 20
961.475
 30
0.0
 11
1306.4
 21
996.975
 31
0.0
  0
INSERT
  5
293
100
AcDbEntity
  8
4
  6
CONTINUOUS
 62
    21
100
AcDbBlockReference
  2
*G23
 10
0.0
 20
0.0
 30
0.0
  0
LINE
  5
294
100
AcDbEntity
  8
4
  6
CONTINUOUS
 62
    21
100
AcDbLine
 10
67.45
 20
989.52
 30
0.0
 11
103.21625
 21
989.52
 31
0.0
  0
LINE
  5
295
100
AcDbEntity
  8
4
  6
CONTINUOUS
 62
    21
100
AcDbLine
 10
67.45
 20
990.94
 30
0.0
 11
103.21625
 21
990.94
 31
0.0
  0
LINE
  5
296
100
AcDbEntity
  8
4
  6
CONTINUOUS
 62
    21
100
AcDbLine
 10
67.45
 20
992.36
 30
0.0
 11
103.21625
 21
992.36
 31
0.0
  0
LINE
  5
297
100
AcDbEntity
  8
4
  6
CONTINUOUS
 62
    21
100
AcDbLine
 10
67.45
 20
993.78
 30
0.0
 11
87.640625
 21
993.78
 31
0.0
  0
LINE
  5
298
100
AcDbEntity
  8
4
  6
CONTINUOUS
 62
    21
100
AcDbLine
 10
67.45
 20
995.2
 30
0.0
 11
87.640625
 21
995.2
 31
0.0
  0
LINE
  5
299
100
AcDbEntity
  8
4
  6
CONTINUOUS
 62
    21
100
AcDbLine
 10
67.45
 20
996.62
 30
0.0
 11
87.640625
 21
996.62
 31
0.0
  0
LINE
  5
29A
100
AcDbEntity
  8
4
  6
CONTINUOUS
 62
    21
100
AcDbLine
 10
67.45
 20
998.04
 30
0.0
 11
108.408125
 21
998.04
 31
0.0
  0
LINE
  5
29B
100
AcDbEntity
  8
4
  6
CONTINUOUS
 62
    21
100
AcDbLine
 10
67.45
 20
999.46
 30
0.0
 11
108.408125
 21
999.46
 31
0.0
  0
LINE
  5
29C
100
AcDbEntity
  8
4
  6
CONTINUOUS
 62
    21
100
AcDbLine
 10
67.45
 20
1000.88
 30
0.0
 11
108.408125
 21
1000.88
 31
0.0
  0
LINE
  5
29D
100
AcDbEntity
  8
4
  6
CONTINUOUS
 62
    21
100
AcDbLine
 10
67.45
 20
988.1
 30
0.0
 11
103.21625
 21
988.1
 31
0.0
  0
LINE
  5
29E
100
AcDbEntity
  8
4
  6
CONTINUOUS
 62
    21
100
AcDbLine
 10
67.45
 20
986.68
 30
0.0
 11
87.640625
 21
986.68
 31
0.0
  0
LINE
  5
29F
100
AcDbEntity
  8
4
  6
CONTINUOUS
 62
    21
100
AcDbLine
 10
67.45
 20
985.26
 30
0.0
 11
87.640625
 21
985.26
 31
0.0
  0
LINE
  5
2A0
100
AcDbEntity
  8
4
  6
CONTINUOUS
 62
    21
100
AcDbLine
 10
67.45
 20
983.84
 30
0.0
 11
87.640625
 21
983.84
 31
0.0
  0
LINE
  5
2A1
100
AcDbEntity
  8
4
  6
CONTINUOUS
 62
    21
100
AcDbLine
 10
67.45
 20
982.42
 30
0.0
 11
87.640625
 21
982.42
 31
0.0
  0
LINE
  5
2A2
100
AcDbEntity
  8
4
  6
CONTINUOUS
 62
    21
100
AcDbLine
 10
67.45
 20
981.0
 30
0.0
 11
87.640625
 21
981.0
 31
0.0
  0
LINE
  5
2A3
100
AcDbEntity
  8
4
  6
CONTINUOUS
 62
    21
100
AcDbLine
 10
67.45
 20
979.58
 30
0.0
 11
87.640625
 21
979.58
 31
0.0
  0
INSERT
  5
2B1
100
AcDbEntity
  8
4
  6
CONTINUOUS
 62
    21
100
AcDbBlockReference
  2
*G24
 10
0.0
 20
0.0
 30
0.0
  0
LINE
  5
2B2
100
AcDbEntity
  8
4
  6
CONTINUOUS
 62
    21
100
AcDbLine
 10
164.146927
 20
989.52
 30
0.0
 11
180.299427
 21
989.52
 31
0.0
  0
LINE
  5
2B3
100
AcDbEntity
  8
4
  6
CONTINUOUS
 62
    21
100
AcDbLine
 10
189.723367
 20
989.52
 30
0.0
 11
203.556574
 21
989.52
 31
0.0
  0
LINE
  5
2B4
100
AcDbEntity
  8
4
  6
CONTINUOUS
 62
    21
100
AcDbLine
 10
164.146927
 20
990.94
 30
0.0
 11
180.299427
 21
990.94
 31
0.0
  0
LINE
  5
2B5
100
AcDbEntity
  8
4
  6
CONTINUOUS
 62
    21
100
AcDbLine
 10
191.229479
 20
990.94
 30
0.0
 11
204.262097
 21
990.94
 31
0.0
  0
LINE
  5
2B6
100
AcDbEntity
  8
4
  6
CONTINUOUS
 62
    21
100
AcDbLine
 10
164.146927
 20
992.36
 30
0.0
 11
180.299427
 21
992.36
 31
0.0
  0
LINE
  5
2B7
100
AcDbEntity
  8
4
  6
CONTINUOUS
 62
    21
100
AcDbLine
 10
191.774021
 20
992.36
 30
0.0
 11
204.667078
 21
992.36
 31
0.0
  0
LINE
  5
2B8
100
AcDbEntity
  8
4
  6
CONTINUOUS
 62
    21
100
AcDbLine
 10
164.146927
 20
993.78
 30
0.0
 11
180.299427
 21
993.78
 31
0.0
  0
LINE
  5
2B9
100
AcDbEntity
  8
4
  6
CONTINUOUS
 62
    21
100
AcDbLine
 10
191.774021
 20
993.78
 30
0.0
 11
204.81529
 21
993.78
 31
0.0
  0
LINE
  5
2BA
100
AcDbEntity
  8
4
  6
CONTINUOUS
 62
    21
100
AcDbLine
 10
164.146927
 20
995.2
 30
0.0
 11
180.299427
 21
995.2
 31
0.0
  0
LINE
  5
2BB
100
AcDbEntity
  8
4
  6
CONTINUOUS
 62
    21
100
AcDbLine
 10
191.229479
 20
995.2
 30
0.0
 11
204.720555
 21
995.2
 31
0.0
  0
LINE
  5
2BC
100
AcDbEntity
  8
4
  6
CONTINUOUS
 62
    21
100
AcDbLine
 10
164.146927
 20
996.62
 30
0.0
 11
180.299427
 21
996.62
 31
0.0
  0
LINE
  5
2BD
100
AcDbEntity
  8
4
  6
CONTINUOUS
 62
    21
100
AcDbLine
 10
189.723367
 20
996.62
 30
0.0
 11
204.37416
 21
996.62
 31
0.0
  0
LINE
  5
2BE
100
AcDbEntity
  8
4
  6
CONTINUOUS
 62
    21
100
AcDbLine
 10
164.146927
 20
998.04
 30
0.0
 11
203.740311
 21
998.04
 31
0.0
  0
LINE
  5
2BF
100
AcDbEntity
  8
4
  6
CONTINUOUS
 62
    21
100
AcDbLine
 10
164.146927
 20
999.46
 30
0.0
 11
202.732573
 21
999.46
 31
0.0
  0
LINE
  5
2C0
100
AcDbEntity
  8
4
  6
CONTINUOUS
 62
    21
100
AcDbLine
 10
164.146927
 20
1000.88
 30
0.0
 11
201.114508
 21
1000.88
 31
0.0
  0
LINE
  5
2C1
100
AcDbEntity
  8
4
  6
CONTINUOUS
 62
    21
100
AcDbLine
 10
164.146927
 20
988.1
 30
0.0
 11
202.445293
 21
988.1
 31
0.0
  0
LINE
  5
2C2
100
AcDbEntity
  8
4
  6
CONTINUOUS
 62
    21
100
AcDbLine
 10
164.146927
 20
986.68
 30
0.0
 11
200.615111
 21
986.68
 31
0.0
  0
LINE
  5
2C3
100
AcDbEntity
  8
4
  6
CONTINUOUS
 62
    21
100
AcDbLine
 10
164.146927
 20
985.26
 30
0.0
 11
180.299427
 21
985.26
 31
0.0
  0
LINE
  5
2C4
100
AcDbEntity
  8
4
  6
CONTINUOUS
 62
    21
100
AcDbLine
 10
180.638292
 20
985.26
 30
0.0
 11
198.492964
 21
985.26
 31
0.0
  0
LINE
  5
2C5
100
AcDbEntity
  8
4
  6
CONTINUOUS
 62
    21
100
AcDbLine
 10
164.146927
 20
983.84
 30
0.0
 11
180.299427
 21
983.84
 31
0.0
  0
LINE
  5
2C6
100
AcDbEntity
  8
4
  6
CONTINUOUS
 62
    21
100
AcDbLine
 10
182.187381
 20
983.84
 30
0.0
 11
199.913014
 21
983.84
 31
0.0
  0
LINE
  5
2C7
100
AcDbEntity
  8
4
  6
CONTINUOUS
 62
    21
100
AcDbLine
 10
164.146927
 20
982.42
 30
0.0
 11
180.299427
 21
982.42
 31
0.0
  0
LINE
  5
2C8
100
AcDbEntity
  8
4
  6
CONTINUOUS
 62
    21
100
AcDbLine
 10
183.736473
 20
982.42
 30
0.0
 11
201.333063
 21
982.42
 31
0.0
  0
LINE
  5
2C9
100
AcDbEntity
  8
4
  6
CONTINUOUS
 62
    21
100
AcDbLine
 10
164.146927
 20
981.0
 30
0.0
 11
180.299427
 21
981.0
 31
0.0
  0
LINE
  5
2CA
100
AcDbEntity
  8
4
  6
CONTINUOUS
 62
    21
100
AcDbLine
 10
185.285562
 20
981.0
 30
0.0
 11
202.753113
 21
981.0
 31
0.0
  0
LINE
  5
2CB
100
AcDbEntity
  8
4
  6
CONTINUOUS
 62
    21
100
AcDbLine
 10
164.146927
 20
979.58
 30
0.0
 11
180.299427
 21
979.58
 31
0.0
  0
LINE
  5
2CC
100
AcDbEntity
  8
4
  6
CONTINUOUS
 62
    21
100
AcDbLine
 10
186.834654
 20
979.58
 30
0.0
 11
204.173163
 21
979.58
 31
0.0
  0
INSERT
  5
2D7
100
AcDbEntity
  8
4
  6
CONTINUOUS
 62
    21
100
AcDbBlockReference
  2
*G25
 10
0.0
 20
0.0
 30
0.0
  0
ARC
  5
2D8
100
AcDbEntity
  8
4
  6
CONTINUOUS
 62
    21
100
AcDbCircle
 10
196.451923
 20
993.935195
 30
0.0
 40
8.364805
100
AcDbArc
 50
-79.111847
 51
90.0
  0
INSERT
  5
2DF
100
AcDbEntity
  8
4
  6
CONTINUOUS
 62
    21
100
AcDbBlockReference
  2
*G26
 10
0.0
 20
0.0
 30
0.0
  0
ARC
  5
2E0
100
AcDbEntity
  8
4
  6
CONTINUOUS
 62
    21
100
AcDbCircle
 10
187.798802
 20
993.07
 30
0.0
 40
4.038125
100
AcDbArc
 50
-90.0
 51
90.0
  0
LINE
  5
2E1
100
AcDbEntity
  8
4
  6
CONTINUOUS
 62
    21
100
AcDbLine
 10
115.288689
 20
989.52
 30
0.0
 11
131.38862
 21
989.52
 31
0.0
  0
LINE
  5
2E2
100
AcDbEntity
  8
4
  6
CONTINUOUS
 62
    21
100
AcDbLine
 10
141.166435
 20
989.52
 30
0.0
 11
157.266367
 21
989.52
 31
0.0
  0
LINE
  5
2E3
100
AcDbEntity
  8
4
  6
CONTINUOUS
 62
    21
100
AcDbLine
 10
115.22159
 20
990.94
 30
0.0
 11
131.37409
 21
990.94
 31
0.0
  0
LINE
  5
2E4
100
AcDbEntity
  8
4
  6
CONTINUOUS
 62
    21
100
AcDbLine
 10
141.180965
 20
990.94
 30
0.0
 11
157.333465
 21
990.94
 31
0.0
  0
LINE
  5
2E5
100
AcDbEntity
  8
4
  6
CONTINUOUS
 62
    21
100
AcDbLine
 10
115.22159
 20
992.36
 30
0.0
 11
131.37409
 21
992.36
 31
0.0
  0
LINE
  5
2E6
100
AcDbEntity
  8
4
  6
CONTINUOUS
 62
    21
100
AcDbLine
 10
141.180965
 20
992.36
 30
0.0
 11
157.333465
 21
992.36
 31
0.0
  0
LINE
  5
2E7
100
AcDbEntity
  8
4
  6
CONTINUOUS
 62
    21
100
AcDbLine
 10
115.22159
 20
993.78
 30
0.0
 11
131.37409
 21
993.78
 31
0.0
  0
LINE
  5
2E8
100
AcDbEntity
  8
4
  6
CONTINUOUS
 62
    21
100
AcDbLine
 10
141.180965
 20
993.78
 30
0.0
 11
157.333465
 21
993.78
 31
0.0
  0
LINE
  5
2E9
100
AcDbEntity
  8
4
  6
CONTINUOUS
 62
    21
100
AcDbLine
 10
115.22159
 20
995.2
 30
0.0
 11
131.37409
 21
995.2
 31
0.0
  0
LINE
  5
2EA
100
AcDbEntity
  8
4
  6
CONTINUOUS
 62
    21
100
AcDbLine
 10
141.180965
 20
995.2
 30
0.0
 11
157.333465
 21
995.2
 31
0.0
  0
LINE
  5
2EB
100
AcDbEntity
  8
4
  6
CONTINUOUS
 62
    21
100
AcDbLine
 10
115.22159
 20
996.62
 30
0.0
 11
131.37409
 21
996.62
 31
0.0
  0
LINE
  5
2EC
100
AcDbEntity
  8
4
  6
CONTINUOUS
 62
    21
100
AcDbLine
 10
141.180965
 20
996.62
 30
0.0
 11
157.333465
 21
996.62
 31
0.0
  0
LINE
  5
2ED
100
AcDbEntity
  8
4
  6
CONTINUOUS
 62
    21
100
AcDbLine
 10
115.22159
 20
998.04
 30
0.0
 11
131.37409
 21
998.04
 31
0.0
  0
LINE
  5
2EE
100
AcDbEntity
  8
4
  6
CONTINUOUS
 62
    21
100
AcDbLine
 10
141.180965
 20
998.04
 30
0.0
 11
157.333465
 21
998.04
 31
0.0
  0
LINE
  5
2EF
100
AcDbEntity
  8
4
  6
CONTINUOUS
 62
    21
100
AcDbLine
 10
115.22159
 20
999.46
 30
0.0
 11
131.37409
 21
999.46
 31
0.0
  0
LINE
  5
2F0
100
AcDbEntity
  8
4
  6
CONTINUOUS
 62
    21
100
AcDbLine
 10
141.180965
 20
999.46
 30
0.0
 11
157.333465
 21
999.46
 31
0.0
  0
LINE
  5
2F1
100
AcDbEntity
  8
4
  6
CONTINUOUS
 62
    21
100
AcDbLine
 10
115.22159
 20
1000.88
 30
0.0
 11
131.37409
 21
1000.88
 31
0.0
  0
LINE
  5
2F2
100
AcDbEntity
  8
4
  6
CONTINUOUS
 62
    21
100
AcDbLine
 10
141.180965
 20
1000.88
 30
0.0
 11
157.333465
 21
1000.88
 31
0.0
  0
LINE
  5
2F3
100
AcDbEntity
  8
4
  6
CONTINUOUS
 62
    21
100
AcDbLine
 10
115.533003
 20
988.1
 30
0.0
 11
131.715313
 21
988.1
 31
0.0
  0
LINE
  5
2F4
100
AcDbEntity
  8
4
  6
CONTINUOUS
 62
    21
100
AcDbLine
 10
140.839743
 20
988.1
 30
0.0
 11
157.022052
 21
988.1
 31
0.0
  0
LINE
  5
2F5
100
AcDbEntity
  8
4
  6
CONTINUOUS
 62
    21
100
AcDbLine
 10
115.968024
 20
986.68
 30
0.0
 11
132.577068
 21
986.68
 31
0.0
  0
LINE
  5
2F6
100
AcDbEntity
  8
4
  6
CONTINUOUS
 62
    21
100
AcDbLine
 10
139.977987
 20
986.68
 30
0.0
 11
156.587032
 21
986.68
 31
0.0
  0
LINE
  5
2F7
100
AcDbEntity
  8
4
  6
CONTINUOUS
 62
    21
100
AcDbLine
 10
116.618263
 20
985.26
 30
0.0
 11
134.68373
 21
985.26
 31
0.0
  0
LINE
  5
2F8
100
AcDbEntity
  8
4
  6
CONTINUOUS
 62
    21
100
AcDbLine
 10
137.871325
 20
985.26
 30
0.0
 11
155.936792
 21
985.26
 31
0.0
  0
LINE
  5
2F9
100
AcDbEntity
  8
4
  6
CONTINUOUS
 62
    21
100
AcDbLine
 10
117.52909
 20
983.84
 30
0.0
 11
155.025965
 21
983.84
 31
0.0
  0
LINE
  5
2FA
100
AcDbEntity
  8
4
  6
CONTINUOUS
 62
    21
100
AcDbLine
 10
118.789362
 20
982.42
 30
0.0
 11
153.765694
 21
982.42
 31
0.0
  0
LINE
  5
2FB
100
AcDbEntity
  8
4
  6
CONTINUOUS
 62
    21
100
AcDbLine
 10
120.610309
 20
981.0
 30
0.0
 11
151.944746
 21
981.0
 31
0.0
  0
LINE
  5
2FC
100
AcDbEntity
  8
4
  6
CONTINUOUS
 62
    21
100
AcDbLine
 10
123.91909
 20
979.58
 30
0.0
 11
148.635965
 21
979.58
 31
0.0
  0
INSERT
  5
302
100
AcDbEntity
  8
4
  6
CONTINUOUS
 62
    21
100
AcDbBlockReference
  2
*G27
 10
0.0
 20
0.0
 30
0.0
  0
ARC
  5
303
100
AcDbEntity
  8
4
  6
CONTINUOUS
 62
    21
100
AcDbCircle
 10
136.277528
 20
989.897187
 30
0.0
 40
4.903438
100
AcDbArc
 50
180.0
 51
0.0
  0
INSERT
  5
30A
100
AcDbEntity
  8
4
  6
CONTINUOUS
 62
    21
100
AcDbBlockReference
  2
*G28
 10
0.0
 20
0.0
 30
0.0
  0
ARC
  5
30B
100
AcDbEntity
  8
4
  6
CONTINUOUS
 62
    21
100
AcDbCircle
 10
126.759082
 20
990.762491
 30
0.0
 40
11.537491
100
AcDbArc
 50
179.999957
 51
-90.0
  0
INSERT
  5
310
100
AcDbEntity
  8
4
  6
CONTINUOUS
 62
    21
100
AcDbBlockReference
  2
*G29
 10
0.0
 20
0.0
 30
0.0
  0
ARC
  5
311
100
AcDbEntity
  8
4
  6
CONTINUOUS
 62
    21
100
AcDbCircle
 10
145.795974
 20
990.762491
 30
0.0
 40
11.537491
100
AcDbArc
 50
-90.0
 51
0.000043
  0
INSERT
  5
316
100
AcDbEntity
  8
4
  6
CONTINUOUS
 62
    21
100
AcDbBlockReference
  2
*G30
 10
0.0
 20
0.0
 30
0.0
  0
LINE
  5
317
100
AcDbEntity
  8
4
  6
CONTINUOUS
 62
    21
100
AcDbLine
 10
237.286487
 20
989.52
 30
0.0
 11
253.386419
 21
989.52
 31
0.0
  0
LINE
  5
318
100
AcDbEntity
  8
4
  6
CONTINUOUS
 62
    21
100
AcDbLine
 10
211.408741
 20
989.52
 30
0.0
 11
227.508672
 21
989.52
 31
0.0
  0
LINE
  5
319
100
AcDbEntity
  8
4
  6
CONTINUOUS
 62
    21
100
AcDbLine
 10
237.301017
 20
990.94
 30
0.0
 11
253.453517
 21
990.94
 31
0.0
  0
LINE
  5
31A
100
AcDbEntity
  8
4
  6
CONTINUOUS
 62
    21
100
AcDbLine
 10
211.341642
 20
990.94
 30
0.0
 11
227.494142
 21
990.94
 31
0.0
  0
LINE
  5
31B
100
AcDbEntity
  8
4
  6
CONTINUOUS
 62
    21
100
AcDbLine
 10
237.301017
 20
992.36
 30
0.0
 11
253.453517
 21
992.36
 31
0.0
  0
LINE
  5
31C
100
AcDbEntity
  8
4
  6
CONTINUOUS
 62
    21
100
AcDbLine
 10
211.341642
 20
992.36
 30
0.0
 11
227.494142
 21
992.36
 31
0.0
  0
LINE
  5
31D
100
AcDbEntity
  8
4
  6
CONTINUOUS
 62
    21
100
AcDbLine
 10
237.301017
 20
993.78
 30
0.0
 11
253.453517
 21
993.78
 31
0.0
  0
LINE
  5
31E
100
AcDbEntity
  8
4
  6
CONTINUOUS
 62
    21
100
AcDbLine
 10
211.341642
 20
993.78
 30
0.0
 11
227.494142
 21
993.78
 31
0.0
  0
LINE
  5
31F
100
AcDbEntity
  8
4
  6
CONTINUOUS
 62
    21
100
AcDbLine
 10
237.301017
 20
995.2
 30
0.0
 11
253.453517
 21
995.2
 31
0.0
  0
LINE
  5
320
100
AcDbEntity
  8
4
  6
CONTINUOUS
 62
    21
100
AcDbLine
 10
211.341642
 20
995.2
 30
0.0
 11
227.494142
 21
995.2
 31
0.0
  0
LINE
  5
321
100
AcDbEntity
  8
4
  6
CONTINUOUS
 62
    21
100
AcDbLine
 10
237.301017
 20
996.62
 30
0.0
 11
253.453517
 21
996.62
 31
0.0
  0
LINE
  5
322
100
AcDbEntity
  8
4
  6
CONTINUOUS
 62
    21
100
AcDbLine
 10
211.341642
 20
996.62
 30
0.0
 11
227.494142
 21
996.62
 31
0.0
  0
LINE
  5
323
100
AcDbEntity
  8
4
  6
CONTINUOUS
 62
    21
100
AcDbLine
 10
211.341642
 20
998.04
 30
0.0
 11
227.494142
 21
998.04
 31
0.0
  0
LINE
  5
324
100
AcDbEntity
  8
4
  6
CONTINUOUS
 62
    21
100
AcDbLine
 10
237.301017
 20
998.04
 30
0.0
 11
253.453517
 21
998.04
 31
0.0
  0
LINE
  5
325
100
AcDbEntity
  8
4
  6
CONTINUOUS
 62
    21
100
AcDbLine
 10
237.301017
 20
999.46
 30
0.0
 11
253.453517
 21
999.46
 31
0.0
  0
LINE
  5
326
100
AcDbEntity
  8
4
  6
CONTINUOUS
 62
    21
100
AcDbLine
 10
211.341642
 20
999.46
 30
0.0
 11
227.494142
 21
999.46
 31
0.0
  0
LINE
  5
327
100
AcDbEntity
  8
4
  6
CONTINUOUS
 62
    21
100
AcDbLine
 10
237.301017
 20
1000.88
 30
0.0
 11
253.453517
 21
1000.88
 31
0.0
  0
LINE
  5
328
100
AcDbEntity
  8
4
  6
CONTINUOUS
 62
    21
100
AcDbLine
 10
211.341642
 20
1000.88
 30
0.0
 11
227.494142
 21
1000.88
 31
0.0
  0
LINE
  5
329
100
AcDbEntity
  8
4
  6
CONTINUOUS
 62
    21
100
AcDbLine
 10
236.959795
 20
988.1
 30
0.0
 11
253.142104
 21
988.1
 31
0.0
  0
LINE
  5
32A
100
AcDbEntity
  8
4
  6
CONTINUOUS
 62
    21
100
AcDbLine
 10
211.653055
 20
988.1
 30
0.0
 11
227.835365
 21
988.1
 31
0.0
  0
LINE
  5
32B
100
AcDbEntity
  8
4
  6
CONTINUOUS
 62
    21
100
AcDbLine
 10
212.088076
 20
986.68
 30
0.0
 11
228.69712
 21
986.68
 31
0.0
  0
LINE
  5
32C
100
AcDbEntity
  8
4
  6
CONTINUOUS
 62
    21
100
AcDbLine
 10
236.098039
 20
986.68
 30
0.0
 11
252.707084
 21
986.68
 31
0.0
  0
LINE
  5
32D
100
AcDbEntity
  8
4
  6
CONTINUOUS
 62
    21
100
AcDbLine
 10
233.991377
 20
985.26
 30
0.0
 11
252.056848
 21
985.26
 31
0.0
  0
LINE
  5
32E
100
AcDbEntity
  8
4
  6
CONTINUOUS
 62
    21
100
AcDbLine
 10
212.738315
 20
985.26
 30
0.0
 11
230.803783
 21
985.26
 31
0.0
  0
LINE
  5
32F
100
AcDbEntity
  8
4
  6
CONTINUOUS
 62
    21
100
AcDbLine
 10
213.649142
 20
983.84
 30
0.0
 11
251.146021
 21
983.84
 31
0.0
  0
LINE
  5
330
100
AcDbEntity
  8
4
  6
CONTINUOUS
 62
    21
100
AcDbLine
 10
214.909414
 20
982.42
 30
0.0
 11
249.88575
 21
982.42
 31
0.0
  0
LINE
  5
331
100
AcDbEntity
  8
4
  6
CONTINUOUS
 62
    21
100
AcDbLine
 10
216.730361
 20
981.0
 30
0.0
 11
248.064802
 21
981.0
 31
0.0
  0
LINE
  5
332
100
AcDbEntity
  8
4
  6
CONTINUOUS
 62
    21
100
AcDbLine
 10
220.039142
 20
979.58
 30
0.0
 11
244.756021
 21
979.58
 31
0.0
  0
INSERT
  5
338
100
AcDbEntity
  8
4
  6
CONTINUOUS
 62
    21
100
AcDbBlockReference
  2
*G31
 10
0.0
 20
0.0
 30
0.0
  0
ARC
  5
339
100
AcDbEntity
  8
4
  6
CONTINUOUS
 62
    21
100
AcDbCircle
 10
232.39758
 20
989.897188
 30
0.0
 40
4.903437
100
AcDbArc
 50
-180.0
 51
0.0
  0
INSERT
  5
340
100
AcDbEntity
  8
4
  6
CONTINUOUS
 62
    21
100
AcDbBlockReference
  2
*G32
 10
0.0
 20
0.0
 30
0.0
  0
ARC
  5
341
100
AcDbEntity
  8
4
  6
CONTINUOUS
 62
    21
100
AcDbCircle
 10
222.879134
 20
990.762491
 30
0.0
 40
11.537491
100
AcDbArc
 50
179.999957
 51
-90.0
  0
INSERT
  5
346
100
AcDbEntity
  8
4
  6
CONTINUOUS
 62
    21
100
AcDbBlockReference
  2
*G33
 10
0.0
 20
0.0
 30
0.0
  0
ARC
  5
347
100
AcDbEntity
  8
4
  6
CONTINUOUS
 62
    21
100
AcDbCircle
 10
241.91603
 20
990.762488
 30
0.0
 40
11.537488
100
AcDbArc
 50
-90.0
 51
0.000025
  0
INSERT
  5
34C
100
AcDbEntity
  8
4
  6
CONTINUOUS
 62
    21
100
AcDbBlockReference
  2
*G34
 10
0.0
 20
0.0
 30
0.0
  0
LINE
  5
34D
100
AcDbEntity
  8
4
  6
CONTINUOUS
 62
    21
100
AcDbLine
 10
260.266983
 20
989.52
 30
0.0
 11
300.071358
 21
989.52
 31
0.0
  0
LINE
  5
34E
100
AcDbEntity
  8
4
  6
CONTINUOUS
 62
    21
100
AcDbLine
 10
260.266983
 20
990.94
 30
0.0
 11
300.071358
 21
990.94
 31
0.0
  0
LINE
  5
34F
100
AcDbEntity
  8
4
  6
CONTINUOUS
 62
    21
100
AcDbLine
 10
260.266983
 20
992.36
 30
0.0
 11
300.071358
 21
992.36
 31
0.0
  0
LINE
  5
350
100
AcDbEntity
  8
4
  6
CONTINUOUS
 62
    21
100
AcDbLine
 10
260.266983
 20
993.78
 30
0.0
 11
300.071358
 21
993.78
 31
0.0
  0
LINE
  5
351
100
AcDbEntity
  8
4
  6
CONTINUOUS
 62
    21
100
AcDbLine
 10
282.765108
 20
995.2
 30
0.0
 11
300.071358
 21
995.2
 31
0.0
  0
LINE
  5
352
100
AcDbEntity
  8
4
  6
CONTINUOUS
 62
    21
100
AcDbLine
 10
260.266983
 20
995.2
 30
0.0
 11
282.13739
 21
995.2
 31
0.0
  0
LINE
  5
353
100
AcDbEntity
  8
4
  6
CONTINUOUS
 62
    21
100
AcDbLine
 10
282.765108
 20
996.62
 30
0.0
 11
300.071358
 21
996.62
 31
0.0
  0
LINE
  5
354
100
AcDbEntity
  8
4
  6
CONTINUOUS
 62
    21
100
AcDbLine
 10
260.266983
 20
996.62
 30
0.0
 11
281.224557
 21
996.62
 31
0.0
  0
LINE
  5
355
100
AcDbEntity
  8
4
  6
CONTINUOUS
 62
    21
100
AcDbLine
 10
282.765108
 20
998.04
 30
0.0
 11
300.071358
 21
998.04
 31
0.0
  0
LINE
  5
356
100
AcDbEntity
  8
4
  6
CONTINUOUS
 62
    21
100
AcDbLine
 10
260.266983
 20
998.04
 30
0.0
 11
280.311727
 21
998.04
 31
0.0
  0
LINE
  5
357
100
AcDbEntity
  8
4
  6
CONTINUOUS
 62
    21
100
AcDbLine
 10
282.765108
 20
999.46
 30
0.0
 11
300.071358
 21
999.46
 31
0.0
  0
LINE
  5
358
100
AcDbEntity
  8
4
  6
CONTINUOUS
 62
    21
100
AcDbLine
 10
260.266983
 20
999.46
 30
0.0
 11
279.398895
 21
999.46
 31
0.0
  0
LINE
  5
359
100
AcDbEntity
  8
4
  6
CONTINUOUS
 62
    21
100
AcDbLine
 10
282.765108
 20
1000.88
 30
0.0
 11
300.071358
 21
1000.88
 31
0.0
  0
LINE
  5
35A
100
AcDbEntity
  8
4
  6
CONTINUOUS
 62
    21
100
AcDbLine
 10
260.266983
 20
1000.88
 30
0.0
 11
278.486065
 21
1000.88
 31
0.0
  0
LINE
  5
35B
100
AcDbEntity
  8
4
  6
CONTINUOUS
 62
    21
100
AcDbLine
 10
260.266983
 20
988.1
 30
0.0
 11
300.071358
 21
988.1
 31
0.0
  0
LINE
  5
35C
100
AcDbEntity
  8
4
  6
CONTINUOUS
 62
    21
100
AcDbLine
 10
277.972608
 20
986.68
 30
0.0
 11
300.071358
 21
986.68
 31
0.0
  0
LINE
  5
35D
100
AcDbEntity
  8
4
  6
CONTINUOUS
 62
    21
100
AcDbLine
 10
260.266983
 20
986.68
 30
0.0
 11
277.573233
 21
986.68
 31
0.0
  0
LINE
  5
35E
100
AcDbEntity
  8
4
  6
CONTINUOUS
 62
    21
100
AcDbLine
 10
278.885465
 20
985.26
 30
0.0
 11
300.071358
 21
985.26
 31
0.0
  0
LINE
  5
35F
100
AcDbEntity
  8
4
  6
CONTINUOUS
 62
    21
100
AcDbLine
 10
260.266983
 20
985.26
 30
0.0
 11
277.573233
 21
985.26
 31
0.0
  0
LINE
  5
360
100
AcDbEntity
  8
4
  6
CONTINUOUS
 62
    21
100
AcDbLine
 10
279.798323
 20
983.84
 30
0.0
 11
300.071358
 21
983.84
 31
0.0
  0
LINE
  5
361
100
AcDbEntity
  8
4
  6
CONTINUOUS
 62
    21
100
AcDbLine
 10
260.266983
 20
983.84
 30
0.0
 11
277.573233
 21
983.84
 31
0.0
  0
LINE
  5
362
100
AcDbEntity
  8
4
  6
CONTINUOUS
 62
    21
100
AcDbLine
 10
280.711181
 20
982.42
 30
0.0
 11
300.071358
 21
982.42
 31
0.0
  0
LINE
  5
363
100
AcDbEntity
  8
4
  6
CONTINUOUS
 62
    21
100
AcDbLine
 10
260.266983
 20
982.42
 30
0.0
 11
277.573233
 21
982.42
 31
0.0
  0
LINE
  5
364
100
AcDbEntity
  8
4
  6
CONTINUOUS
 62
    21
100
AcDbLine
 10
281.624035
 20
981.0
 30
0.0
 11
300.071358
 21
981.0
 31
0.0
  0
LINE
  5
365
100
AcDbEntity
  8
4
  6
CONTINUOUS
 62
    21
100
AcDbLine
 10
260.266983
 20
981.0
 30
0.0
 11
277.573233
 21
981.0
 31
0.0
  0
LINE
  5
366
100
AcDbEntity
  8
4
  6
CONTINUOUS
 62
    21
100
AcDbLine
 10
282.536892
 20
979.58
 30
0.0
 11
300.071358
 21
979.58
 31
0.0
  0
LINE
  5
367
100
AcDbEntity
  8
4
  6
CONTINUOUS
 62
    21
100
AcDbLine
 10
260.266983
 20
979.58
 30
0.0
 11
277.573233
 21
979.58
 31
0.0
  0
INSERT
  5
375
100
AcDbEntity
  8
4
  6
CONTINUOUS
 62
    21
100
AcDbBlockReference
  2
*G35
 10
0.0
 20
0.0
 30
0.0
  0
LINE
  5
376
100
AcDbEntity
  8
4
  6
CONTINUOUS
 62
    21
100
AcDbLine
 10
329.959823
 20
989.52
 30
0.0
 11
347.198974
 21
989.52
 31
0.0
  0
LINE
  5
377
100
AcDbEntity
  8
4
  6
CONTINUOUS
 62
    21
100
AcDbLine
 10
306.951921
 20
989.52
 30
0.0
 11
324.191073
 21
989.52
 31
0.0
  0
LINE
  5
378
100
AcDbEntity
  8
4
  6
CONTINUOUS
 62
    21
100
AcDbLine
 10
329.959823
 20
990.94
 30
0.0
 11
347.264706
 21
990.94
 31
0.0
  0
LINE
  5
379
100
AcDbEntity
  8
4
  6
CONTINUOUS
 62
    21
100
AcDbLine
 10
306.88619
 20
990.94
 30
0.0
 11
324.191073
 21
990.94
 31
0.0
  0
LINE
  5
37A
100
AcDbEntity
  8
4
  6
CONTINUOUS
 62
    21
100
AcDbLine
 10
329.959823
 20
992.36
 30
0.0
 11
347.15494
 21
992.36
 31
0.0
  0
LINE
  5
37B
100
AcDbEntity
  8
4
  6
CONTINUOUS
 62
    21
100
AcDbLine
 10
306.995956
 20
992.36
 30
0.0
 11
324.191073
 21
992.36
 31
0.0
  0
LINE
  5
37C
100
AcDbEntity
  8
4
  6
CONTINUOUS
 62
    21
100
AcDbLine
 10
329.959823
 20
993.78
 30
0.0
 11
346.864486
 21
993.78
 31
0.0
  0
LINE
  5
37D
100
AcDbEntity
  8
4
  6
CONTINUOUS
 62
    21
100
AcDbLine
 10
307.28641
 20
993.78
 30
0.0
 11
324.191073
 21
993.78
 31
0.0
  0
LINE
  5
37E
100
AcDbEntity
  8
4
  6
CONTINUOUS
 62
    21
100
AcDbLine
 10
329.959823
 20
995.2
 30
0.0
 11
346.378573
 21
995.2
 31
0.0
  0
LINE
  5
37F
100
AcDbEntity
  8
4
  6
CONTINUOUS
 62
    21
100
AcDbLine
 10
307.772323
 20
995.2
 30
0.0
 11
324.191073
 21
995.2
 31
0.0
  0
LINE
  5
380
100
AcDbEntity
  8
4
  6
CONTINUOUS
 62
    21
100
AcDbLine
 10
329.678485
 20
996.62
 30
0.0
 11
345.668573
 21
996.62
 31
0.0
  0
LINE
  5
381
100
AcDbEntity
  8
4
  6
CONTINUOUS
 62
    21
100
AcDbLine
 10
308.482323
 20
996.62
 30
0.0
 11
324.47241
 21
996.62
 31
0.0
  0
LINE
  5
382
100
AcDbEntity
  8
4
  6
CONTINUOUS
 62
    21
100
AcDbLine
 10
328.184823
 20
998.04
 30
0.0
 11
344.681332
 21
998.04
 31
0.0
  0
LINE
  5
383
100
AcDbEntity
  8
4
  6
CONTINUOUS
 62
    21
100
AcDbLine
 10
309.469564
 20
998.04
 30
0.0
 11
325.966073
 21
998.04
 31
0.0
  0
LINE
  5
384
100
AcDbEntity
  8
4
  6
CONTINUOUS
 62
    21
100
AcDbLine
 10
310.841596
 20
999.46
 30
0.0
 11
343.3093
 21
999.46
 31
0.0
  0
LINE
  5
385
100
AcDbEntity
  8
4
  6
CONTINUOUS
 62
    21
100
AcDbLine
 10
312.877045
 20
1000.88
 30
0.0
 11
341.27385
 21
1000.88
 31
0.0
  0
LINE
  5
386
100
AcDbEntity
  8
4
  6
CONTINUOUS
 62
    21
100
AcDbLine
 10
329.959823
 20
988.1
 30
0.0
 11
346.95466
 21
988.1
 31
0.0
  0
LINE
  5
387
100
AcDbEntity
  8
4
  6
CONTINUOUS
 62
    21
100
AcDbLine
 10
307.196236
 20
988.1
 30
0.0
 11
324.191073
 21
988.1
 31
0.0
  0
LINE
  5
388
100
AcDbEntity
  8
4
  6
CONTINUOUS
 62
    21
100
AcDbLine
 10
329.959823
 20
986.68
 30
0.0
 11
346.519639
 21
986.68
 31
0.0
  0
LINE
  5
389
100
AcDbEntity
  8
4
  6
CONTINUOUS
 62
    21
100
AcDbLine
 10
307.631257
 20
986.68
 30
0.0
 11
324.191073
 21
986.68
 31
0.0
  0
LINE
  5
38A
100
AcDbEntity
  8
4
  6
CONTINUOUS
 62
    21
100
AcDbLine
 10
329.819889
 20
985.26
 30
0.0
 11
345.8694
 21
985.26
 31
0.0
  0
LINE
  5
38B
100
AcDbEntity
  8
4
  6
CONTINUOUS
 62
    21
100
AcDbLine
 10
308.281496
 20
985.26
 30
0.0
 11
324.331007
 21
985.26
 31
0.0
  0
LINE
  5
38C
100
AcDbEntity
  8
4
  6
CONTINUOUS
 62
    21
100
AcDbLine
 10
328.806073
 20
983.84
 30
0.0
 11
344.958573
 21
983.84
 31
0.0
  0
LINE
  5
38D
100
AcDbEntity
  8
4
  6
CONTINUOUS
 62
    21
100
AcDbLine
 10
309.192323
 20
983.84
 30
0.0
 11
325.344823
 21
983.84
 31
0.0
  0
LINE
  5
38E
100
AcDbEntity
  8
4
  6
CONTINUOUS
 62
    21
100
AcDbLine
 10
310.452594
 20
982.42
 30
0.0
 11
343.698302
 21
982.42
 31
0.0
  0
LINE
  5
38F
100
AcDbEntity
  8
4
  6
CONTINUOUS
 62
    21
100
AcDbLine
 10
312.273542
 20
981.0
 30
0.0
 11
341.877354
 21
981.0
 31
0.0
  0
LINE
  5
390
100
AcDbEntity
  8
4
  6
CONTINUOUS
 62
    21
100
AcDbLine
 10
315.582323
 20
979.58
 30
0.0
 11
338.568573
 21
979.58
 31
0.0
  0
INSERT
  5
395
100
AcDbEntity
  8
4
  6
CONTINUOUS
 62
    21
100
AcDbBlockReference
  2
*G36
 10
0.0
 20
0.0
 30
0.0
  0
ARC
  5
396
100
AcDbEntity
  8
4
  6
CONTINUOUS
 62
    21
100
AcDbCircle
 10
335.728573
 20
990.7625
 30
0.0
 40
11.5375
100
AcDbArc
 50
-90.0
 51
90.0
  0
INSERT
  5
39B
100
AcDbEntity
  8
4
  6
CONTINUOUS
 62
    21
100
AcDbBlockReference
  2
*G37
 10
0.0
 20
0.0
 30
0.0
  0
ARC
  5
39C
100
AcDbEntity
  8
4
  6
CONTINUOUS
 62
    21
100
AcDbCircle
 10
318.422323
 20
990.7625
 30
0.0
 40
11.5375
100
AcDbArc
 50
90.0
 51
-90.0
  0
ARC
  5
39D
100
AcDbEntity
  8
4
  6
CONTINUOUS
 62
    21
100
AcDbCircle
 10
327.075448
 20
995.3775
 30
0.0
 40
2.884375
100
AcDbArc
 50
0.0
 51
180.0
  0
INSERT
  5
3A2
100
AcDbEntity
  8
4
  6
CONTINUOUS
 62
    21
100
AcDbBlockReference
  2
*G38
 10
0.0
 20
0.0
 30
0.0
  0
ARC
  5
3A3
100
AcDbEntity
  8
4
  6
CONTINUOUS
 62
    21
100
AcDbCircle
 10
327.075448
 20
986.1475
 30
0.0
 40
2.884375
100
AcDbArc
 50
-180.0
 51
0.0
  0
INSERT
  5
3A8
100
AcDbEntity
  8
4
  6
CONTINUOUS
 62
    21
100
AcDbBlockReference
  2
*G39
 10
0.0
 20
0.0
 30
0.0
  0
LINE
  5
3A9
100
AcDbEntity
  8
4
  6
CONTINUOUS
 62
    21
100
AcDbLine
 10
367.45
 20
961.475
 30
0.0
 11
367.45
 21
971.475
 31
0.0
  0
LINE
  5
3AA
100
AcDbEntity
  8
4
  6
CONTINUOUS
 62
    21
100
AcDbLine
 10
667.45
 20
961.475
 30
0.0
 11
667.45
 21
971.475
 31
0.0
  0
LINE
  5
3AB
100
AcDbEntity
  8
4
  6
CONTINUOUS
 62
    21
100
AcDbLine
 10
967.45
 20
961.475
 30
0.0
 11
967.45
 21
971.475
 31
0.0
  0
TEXT
  5
3AC
100
AcDbEntity
  8
4
  6
CONTINUOUS
 62
    21
100
AcDbText
 10
212.440009
 20
961.475
 30
0.0
 40
20.0
  1
1
 41
0.5
 11
212.440009
 21
961.475
 31
0.0
100
AcDbText
 73
     1
  0
TEXT
  5
3AD
100
AcDbEntity
  8
4
  6
CONTINUOUS
 62
    21
100
AcDbText
 10
512.481247
 20
961.475
 30
0.0
 40
20.0
  1
2
 41
0.5
 11
512.481247
 21
961.475
 31
0.0
100
AcDbText
 73
     1
  0
TEXT
  5
3AE
100
AcDbEntity
  8
4
  6
CONTINUOUS
 62
    21
100
AcDbText
 10
812.647241
 20
961.475
 30
0.0
 40
20.0
  1
3
 41
0.5
 11
812.647241
 21
961.475
 31
0.0
100
AcDbText
 73
     1
  0
TEXT
  5
3AF
100
AcDbEntity
  8
4
  6
CONTINUOUS
 62
    21
100
AcDbText
 10
1112.647241
 20
961.475
 30
0.0
 40
20.0
  1
4
 41
0.5
 11
1112.647241
 21
961.475
 31
0.0
100
AcDbText
 73
     1
  0
LINE
  5
3B0
100
AcDbEntity
  8
4
  6
CONTINUOUS
 62
    21
100
AcDbLine
 10
67.45
 20
361.475
 30
0.0
 11
57.45
 21
361.475
 31
0.0
  0
LINE
  5
3B1
100
AcDbEntity
  8
4
  6
CONTINUOUS
 62
    21
100
AcDbLine
 10
67.45
 20
661.475
 30
0.0
 11
57.45
 21
661.475
 31
0.0
  0
TEXT
  5
3B2
100
AcDbEntity
  8
4
  6
CONTINUOUS
 62
    21
100
AcDbText
 10
47.45
 20
801.475
 30
0.0
 40
20.0
  1
A
 41
0.5
 11
47.45
 21
801.475
 31
0.0
100
AcDbText
 73
     1
  0
TEXT
  5
3B3
100
AcDbEntity
  8
4
  6
CONTINUOUS
 62
    21
100
AcDbText
 10
47.45
 20
501.475
 30
0.0
 40
20.0
  1
B
 41
0.5
 11
47.45
 21
501.475
 31
0.0
100
AcDbText
 73
     1
  0
TEXT
  5
3B4
100
AcDbEntity
  8
4
  6
CONTINUOUS
 62
    21
100
AcDbText
 10
47.45
 20
201.475
 30
0.0
 40
20.0
  1
C
 41
0.5
 11
47.45
 21
201.475
 31
0.0
100
AcDbText
 73
     1
  0
TEXT
  5
3B5
100
AcDbEntity
  8
6
  6
CONTINUOUS
 62
    51
100
AcDbText
 10
697.061841
 20
931.253861
 30
0.0
 40
15.0
  1
注記
 41
0.833333
 11
697.061841
 21
931.253861
 31
0.0
100
AcDbText
 73
     1
  0
TEXT
  5
3B6
100
AcDbEntity
  8
6
  6
CONTINUOUS
 62
    51
100
AcDbText
 10
699.133975
 20
905.383256
 30
0.0
 40
15.0
  1
1.
 41
0.625
 11
699.133975
 21
905.383256
 31
0.0
100
AcDbText
 73
     1
  0
TEXT
  5
3B7
100
AcDbEntity
  8
6
  6
CONTINUOUS
 62
    51
100
AcDbText
 10
699.133975
 20
884.883256
 30
0.0
 40
15.0
  1
2.
 41
0.625
 11
699.133975
 21
884.883256
 31
0.0
100
AcDbText
 73
     1
  0
TEXT
  5
3B8
100
AcDbEntity
  8
6
  6
CONTINUOUS
 62
    51
100
AcDbText
 10
720.633975
 20
905.414985
 30
0.0
 40
15.0
  1
指定なき寸法公差は表１による。
 41
0.833333
 11
720.633975
 21
905.414985
 31
0.0
100
AcDbText
 73
     1
  0
TEXT
  5
3B9
100
AcDbEntity
  8
6
  6
CONTINUOUS
 62
    51
100
AcDbText
 10
720.633975
 20
884.883256
 30
0.0
 40
15.0
  1
船底タンク板厚は標準25mmです。これ以上の厚さが必要な場合は別途打合せ願います。
 41
0.805785
 11
720.633975
 21
884.883256
 31
0.0
100
AcDbText
 73
     1
  0
TEXT
  5
3BA
100
AcDbEntity
  8
6
  6
CONTINUOUS
 62
    51
100
AcDbText
 10
699.133975
 20
864.351527
 30
0.0
 40
15.0
  1
3.
 41
0.625
 11
699.133975
 21
864.351527
 31
0.0
100
AcDbText
 73
     1
  0
TEXT
  5
3BB
100
AcDbEntity
  8
6
  6
CONTINUOUS
 62
    51
100
AcDbText
 10
699.133975
 20
843.819797
 30
0.0
 40
15.0
  1
4.
 41
0.625
 11
699.133975
 21
843.819797
 31
0.0
100
AcDbText
 73
     1
  0
TEXT
  5
3BC
100
AcDbEntity
  8
6
  6
CONTINUOUS
 62
    51
100
AcDbText
 10
720.633975
 20
864.351527
 30
0.0
 40
15.0
  1
船底タンク材質はKSTPG370です。その化学成分を表２に示します。
 41
0.765306
 11
720.633975
 21
864.351527
 31
0.0
100
AcDbText
 73
     1
  0
TEXT
  5
3BD
100
AcDbEntity
  8
6
  6
CONTINUOUS
 62
    51
100
AcDbText
 10
720.633975
 20
843.819797
 30
0.0
 40
15.0
  1
船底タンクを船底に溶接する際、船首船尾方向の据付誤差は%%p1°以内とする。また、水平方向の
 41
0.830153
 11
720.633975
 21
843.819797
 31
0.0
100
AcDbText
 73
     1
  0
TEXT
  5
3BE
100
AcDbEntity
  8
6
  6
CONTINUOUS
 62
    51
100
AcDbText
 10
720.633975
 20
802.756339
 30
0.0
 40
15.0
  1
送受波器面にはマリンスター20を塗布しています。その他の船底用塗料を塗布しないでください。
 41
0.820896
 11
720.633975
 21
802.756339
 31
0.0
100
AcDbText
 73
     1
  0
TEXT
  5
3BF
100
AcDbEntity
  8
6
  6
CONTINUOUS
 62
    51
100
AcDbText
 10
700.633975
 20
750.743557
 30
0.0
 40
15.0
  1
NOTES
 41
0.5
 11
700.633975
 21
750.743557
 31
0.0
100
AcDbText
 73
     1
  0
TEXT
  5
3C0
100
AcDbEntity
  8
6
  6
CONTINUOUS
 62
    51
100
AcDbText
 10
700.633975
 20
733.243557
 30
0.0
 40
15.0
  1
1. TABLE 1 INDICATES TOLERANCE OF DIMENSIONS.
 41
0.538278
 11
700.633975
 21
733.243557
 31
0.0
100
AcDbText
 73
     1
  0
TEXT
  5
3C1
100
AcDbEntity
  8
6
  6
CONTINUOUS
 62
    51
100
AcDbText
 10
700.633975
 20
712.743557
 30
0.0
 40
15.0
  1
2. NOMINAL THICKNESS OF THE CASING IS 25 mm. TO BE DISCUSSED FOR THICKER ONE.
 41
0.548433
 11
700.633975
 21
712.743557
 31
0.0
100
AcDbText
 73
     1
  0
TEXT
  5
3C2
100
AcDbEntity
  8
6
  6
CONTINUOUS
 62
    51
100
AcDbText
 10
700.633975
 20
632.743557
 30
0.0
 40
15.0
  1
5. THE TRANSDUCER BOTTOM FACE IS COATED WITH MARINE STAR 20. DO NOT APPLY OTHER TYPE OF PAINT.
 41
0.546512
 11
700.633975
 21
632.743557
 31
0.0
100
AcDbText
 73
     1
  0
TEXT
  5
3C3
100
AcDbEntity
  8
6
  6
CONTINUOUS
 62
    51
100
AcDbText
 10
699.133975
 20
802.756339
 30
0.0
 40
15.0
  1
5.
 41
0.625
 11
699.133975
 21
802.756339
 31
0.0
100
AcDbText
 73
     1
  0
TEXT
  5
3C4
100
AcDbEntity
  8
6
  6
CONTINUOUS
 62
    51
100
AcDbText
 10
700.633975
 20
693.243557
 30
0.0
 40
15.0
  1
3. CHEMICAL COMPOSITION OF THE CASING MATERIAL KSTPG370 IS AS TABLE 2.
 41
0.540123
 11
700.633975
 21
693.243557
 31
0.0
100
AcDbText
 73
     1
  0
TEXT
  5
3C5
100
AcDbEntity
  8
6
  6
CONTINUOUS
 62
    51
100
AcDbText
 10
723.133975
 20
653.743557
 30
0.0
 40
15.0
  1
OF THE CASING IN PARALLEL WITH WATER-LINE TO AN ACCURACY OF 1 DEGREE OR BETTER.
 41
0.541096
 11
723.133975
 21
653.743557
 31
0.0
100
AcDbText
 73
     1
  0
LINE
  5
3C6
100
AcDbEntity
  8
4
  6
CONTINUOUS
 62
    21
100
AcDbLine
 10
1412.9
 20
361.475
 30
0.0
 11
1422.9
 21
361.475
 31
0.0
  0
LINE
  5
3C7
100
AcDbEntity
  8
4
  6
CONTINUOUS
 62
    21
100
AcDbLine
 10
1412.9
 20
661.475
 30
0.0
 11
1422.9
 21
661.475
 31
0.0
  0
TEXT
  5
3C8
100
AcDbEntity
  8
2
  6
CONTINUOUS
 62
     3
100
AcDbText
 10
1054.197545
 20
157.302207
 30
0.0
 40
12.001199
  1
TITLE
 41
0.5
 11
1054.197545
 21
157.302207
 31
0.0
100
AcDbText
 73
     1
  0
TEXT
  5
3C9
100
AcDbEntity
  8
2
  6
CONTINUOUS
 62
     3
100
AcDbText
 10
1056.741499
 20
84.798945
 30
0.0
 40
12.001199
  1
NAME
 41
0.5
 11
1056.741499
 21
84.798945
 31
0.0
100
AcDbText
 73
     1
  0
TEXT
  5
3CA
100
AcDbEntity
  8
2
  6
CONTINUOUS
 62
     3
100
AcDbText
 10
1057.377427
 20
131.86247
 30
0.0
 40
12.001199
  1
名称
 41
0.972222
 11
1057.377427
 21
131.86247
 31
0.0
100
AcDbText
 73
     1
  0
TEXT
  5
3CB
100
AcDbEntity
  8
2
  6
CONTINUOUS
 62
     3
100
AcDbText
 10
694.225123
 20
157.302207
 30
0.0
 40
12.001199
  1
DRAWN
 41
0.5
 11
694.225123
 21
157.302207
 31
0.0
100
AcDbText
 73
     1
  0
TEXT
  5
3CC
100
AcDbEntity
  8
2
  6
CONTINUOUS
 62
     3
100
AcDbText
 10
694.225123
 20
133.134457
 30
0.0
 40
12.001199
  1
CHECKED
 41
0.5
 11
694.225123
 21
133.134457
 31
0.0
100
AcDbText
 73
     1
  0
TEXT
  5
3CD
100
AcDbEntity
  8
2
  6
CONTINUOUS
 62
     3
100
AcDbText
 10
694.225123
 20
108.330707
 30
0.0
 40
12.001199
  1
APPROVED
 41
0.5
 11
694.225123
 21
108.330707
 31
0.0
100
AcDbText
 73
     1
  0
TEXT
  5
3CE
100
AcDbEntity
  8
2
  6
CONTINUOUS
 62
     3
100
AcDbText
 10
694.225123
 20
85.434936
 30
0.0
 40
12.001199
  1
SCALE
 41
0.5
 11
694.225123
 21
85.434936
 31
0.0
100
AcDbText
 73
     1
  0
TEXT
  5
3CF
100
AcDbEntity
  8
2
  6
CONTINUOUS
 62
     3
100
AcDbText
 10
694.225123
 20
62.539169
 30
0.0
 40
12.001199
  1
DWG No.
 41
0.564516
 11
694.225123
 21
62.539169
 31
0.0
100
AcDbText
 73
     1
  0
TEXT
  5
3D0
100
AcDbEntity
  8
2
  6
CONTINUOUS
 62
     3
100
AcDbText
 10
790.260168
 20
86.070932
 30
0.0
 40
12.001199
  1
MASS
 41
0.5
 11
790.260168
 21
86.070932
 31
0.0
100
AcDbText
 73
     1
  0
TEXT
  5
3D1
100
AcDbEntity
  8
2
  6
CONTINUOUS
 62
     3
100
AcDbText
 10
853.540315
 20
75.477398
 30
0.0
 40
12.001199
  1
kg
 41
0.5
 11
853.540315
 21
75.477398
 31
0.0
100
AcDbText
 73
     1
  0
LINE
  5
3D2
100
AcDbEntity
  8
2
  6
HIDDEN
 62
     3
100
AcDbLine
 10
868.845654
 20
123.482193
 30
0.0
 11
1052.864036
 21
123.482193
 31
0.0
  0
LINE
  5
3D3
100
AcDbEntity
  8
2
  6
HIDDEN
 62
     3
100
AcDbLine
 10
980.856843
 20
171.486988
 30
0.0
 11
980.856843
 21
99.479795
 31
0.0
  0
LINE
  5
3D4
100
AcDbEntity
  8
2
  6
CONTINUOUS
 62
     3
100
AcDbLine
 10
1052.864036
 20
99.479795
 30
0.0
 11
1412.9
 21
99.479795
 31
0.0
  0
LINE
  5
3D5
100
AcDbEntity
  8
2
  6
CONTINUOUS
 62
     3
100
AcDbLine
 10
1052.864036
 20
147.48459
 30
0.0
 11
1412.9
 21
147.48459
 31
0.0
  0
LINE
  5
3D6
100
AcDbEntity
  8
2
  6
CONTINUOUS
 62
     3
100
AcDbLine
 10
1052.864036
 20
123.482193
 30
0.0
 11
1412.9
 21
123.482193
 31
0.0
  0
LINE
  5
3D7
100
AcDbEntity
  8
2
  6
CONTINUOUS
 62
     3
100
AcDbLine
 10
788.837662
 20
75.477398
 30
0.0
 11
788.837662
 21
99.479795
 31
0.0
  0
LINE
  5
3D8
100
AcDbEntity
  8
2
  6
CONTINUOUS
 62
     3
100
AcDbLine
 10
868.845654
 20
171.486988
 30
0.0
 11
868.845654
 21
51.475
 31
0.0
  0
LINE
  5
3D9
100
AcDbEntity
  8
2
  6
CONTINUOUS
 62
     3
100
AcDbLine
 10
1052.864036
 20
75.477398
 30
0.0
 11
1412.9
 21
75.477398
 31
0.0
  0
LINE
  5
3DA
100
AcDbEntity
  8
2
  6
CONTINUOUS
 62
     3
100
AcDbLine
 10
1052.864036
 20
171.486988
 30
0.0
 11
1052.864036
 21
51.475
 31
0.0
  0
TEXT
  5
3DB
100
AcDbEntity
  8
3
  6
CONTINUOUS
 62
     2
100
AcDbText
 10
1106.622946
 20
102.761039
 30
0.0
 40
16.001598
  1
外寸図
 41
0.833333
 11
1106.622946
 21
102.761039
 31
0.0
100
AcDbText
 73
     1
  0
LINE
  5
3DC
100
AcDbEntity
  8
2
  6
CONTINUOUS
 62
     3
100
AcDbLine
 10
1412.9
 20
171.486988
 30
0.0
 11
692.180948
 21
171.486988
 31
0.0
  0
LINE
  5
3DD
100
AcDbEntity
  8
2
  6
CONTINUOUS
 62
     3
100
AcDbLine
 10
692.180948
 20
51.475
 30
0.0
 11
692.180948
 21
171.486988
 31
0.0
  0
LINE
  5
3DE
100
AcDbEntity
  8
2
  6
CONTINUOUS
 62
     3
100
AcDbLine
 10
692.180948
 20
99.479795
 30
0.0
 11
1052.864036
 21
99.479795
 31
0.0
  0
LINE
  5
3DF
100
AcDbEntity
  8
2
  6
CONTINUOUS
 62
     3
100
AcDbLine
 10
692.180948
 20
75.477398
 30
0.0
 11
1052.864036
 21
75.477398
 31
0.0
  0
LINE
  5
3E0
100
AcDbEntity
  8
2
  6
CONTINUOUS
 62
     3
100
AcDbLine
 10
692.180948
 20
123.482193
 30
0.0
 11
868.845654
 21
123.482193
 31
0.0
  0
LINE
  5
3E1
100
AcDbEntity
  8
2
  6
HIDDEN
 62
     3
100
AcDbLine
 10
692.180948
 20
147.48459
 30
0.0
 11
1052.864036
 21
147.48459
 31
0.0
  0
TEXT
  5
3E2
100
AcDbEntity
  8
3
  6
CONTINUOUS
 62
     2
100
AcDbText
 10
742.754105
 20
75.477398
 30
0.0
 40
14.001399
  1
1/5
 41
0.5
 11
742.754105
 21
75.477398
 31
0.0
100
AcDbText
 73
     1
  0
TEXT
  5
3E3
100
AcDbEntity
  8
3
  6
CONTINUOUS
 62
     2
100
AcDbText
 10
765.035946
 20
55.01004
 30
0.0
 40
14.001399
  1
C7241-G05- E
 41
0.544335
 11
765.035946
 21
55.01004
 31
0.0
100
AcDbText
 73
     1
  0
TEXT
  5
3E4
100
AcDbEntity
  8
3
  6
CONTINUOUS
 62
     2
100
AcDbText
 10
908.989926
 20
53.757099
 30
0.0
 40
14.001399
  1
66-022-7000- 01
 41
0.541096
 11
908.989926
 21
53.757099
 31
0.0
100
AcDbText
 73
     1
  0
TEXT
  5
3E5
100
AcDbEntity
  8
3
  6
CONTINUOUS
 62
     2
100
AcDbText
 10
815.136602
 20
75.477398
 30
0.0
 40
14.001399
  1
45%%p5
 41
0.625
 11
815.136602
 21
75.477398
 31
0.0
100
AcDbText
 73
     1
  0
TEXT
  5
3E6
100
AcDbEntity
  8
3
  6
CONTINUOUS
 62
     2
100
AcDbText
 10
1106.034631
 20
78.640982
 30
0.0
 40
16.0
  1
HULL BOTTOM UNIT
 41
0.526316
 11
1106.034631
 21
78.640982
 31
0.0
100
AcDbText
 73
     1
  0
TEXT
  5
3E7
100
AcDbEntity
  8
3
  6
CONTINUOUS
 62
     2
100
AcDbText
 10
1104.857998
 20
54.520924
 30
0.0
 40
16.0
  1
OUTLINE DRAWING
 41
0.513699
 11
1104.857998
 21
54.520924
 31
0.0
100
AcDbText
 73
     1
  0
TEXT
  5
3E8
100
AcDbEntity
  8
3
  6
CONTINUOUS
 62
     2
100
AcDbText
 10
1107.211261
 20
127.469383
 30
0.0
 40
16.0
  1
送受波器タンク
 41
0.833333
 11
1107.211261
 21
127.469383
 31
0.0
100
AcDbText
 73
     1
  0
TEXT
  5
3E9
100
AcDbEntity
  8
3
  6
CONTINUOUS
 62
     2
100
AcDbText
 10
877.326841
 20
99.479795
 30
0.0
 40
12.0
  1
DS-50
 41
0.5
 11
877.326841
 21
99.479795
 31
0.0
100
AcDbText
 73
     1
  0
TEXT
  5
3EA
100
AcDbEntity
  8
6
  6
CONTINUOUS
 62
    51
100
AcDbText
 10
1166.818559
 20
223.486988
 30
0.0
 40
15.0
  1
66-022-7001
 41
0.5
 11
1166.818559
 21
223.486988
 31
0.0
100
AcDbText
 73
     1
  0
TEXT
  5
3EB
100
AcDbEntity
  8
6
  6
CONTINUOUS
 62
    51
100
AcDbText
 10
797.091118
 20
318.986988
 30
0.0
 40
10.0
  1
HEX. BOLT
 41
0.54878
 11
797.091118
 21
318.986988
 31
0.0
100
AcDbText
 73
     1
  0
TEXT
  5
3EC
100
AcDbEntity
  8
6
  6
CONTINUOUS
 62
    51
100
AcDbText
 10
1166.818559
 20
248.486988
 30
0.0
 40
15.0
  1
VA-25
 41
0.5
 11
1166.818559
 21
248.486988
 31
0.0
100
AcDbText
 73
     1
  0
TEXT
  5
3ED
100
AcDbEntity
  8
6
  6
CONTINUOUS
 62
    51
100
AcDbText
 10
1166.818559
 20
198.486988
 30
0.0
 40
15.0
  1
DS-530
 41
0.5
 11
1166.818559
 21
198.486988
 31
0.0
100
AcDbText
 73
     1
  0
TEXT
  5
3EE
100
AcDbEntity
  8
6
  6
CONTINUOUS
 62
    51
100
AcDbText
 10
1001.232532
 20
272.736988
 30
0.0
 40
12.5
  1
SUS304
 41
0.5
 11
1001.232532
 21
272.736988
 31
0.0
100
AcDbText
 73
     1
  0
TEXT
  5
3EF
100
AcDbEntity
  8
6
  6
CONTINUOUS
 62
    51
100
AcDbText
 10
1121.466118
 20
197.736988
 30
0.0
 40
12.5
  1
1
 41
0.5
 11
1121.466118
 21
197.736988
 31
0.0
100
AcDbText
 73
     1
  0
TEXT
  5
3F0
100
AcDbEntity
  8
6
  6
CONTINUOUS
 62
    51
100
AcDbText
 10
1001.232532
 20
247.736988
 30
0.0
 40
12.5
  1
CR
 41
0.5
 11
1001.232532
 21
247.736988
 31
0.0
100
AcDbText
 73
     1
  0
TEXT
  5
3F1
100
AcDbEntity
  8
6
  6
CONTINUOUS
 62
    51
100
AcDbText
 10
1001.232532
 20
297.736988
 30
0.0
 40
12.5
  1
SUS304
 41
0.5
 11
1001.232532
 21
297.736988
 31
0.0
100
AcDbText
 73
     1
  0
TEXT
  5
3F2
100
AcDbEntity
  8
6
  6
CONTINUOUS
 62
    51
100
AcDbText
 10
1001.232532
 20
322.736988
 30
0.0
 40
12.5
  1
SUS304
 41
0.5
 11
1001.232532
 21
322.736988
 31
0.0
100
AcDbText
 73
     1
  0
TEXT
  5
3F3
100
AcDbEntity
  8
6
  6
CONTINUOUS
 62
    51
100
AcDbText
 10
1001.232532
 20
347.736988
 30
0.0
 40
12.5
  1
SUS304
 41
0.5
 11
1001.232532
 21
347.736988
 31
0.0
100
AcDbText
 73
     1
  0
TEXT
  5
3F4
100
AcDbEntity
  8
6
  6
CONTINUOUS
 62
    51
100
AcDbText
 10
1001.232532
 20
372.736988
 30
0.0
 40
12.5
  1
SUS304
 41
0.5
 11
1001.232532
 21
372.736988
 31
0.0
100
AcDbText
 73
     1
  0
TEXT
  5
3F5
100
AcDbEntity
  8
6
  6
CONTINUOUS
 62
    51
100
AcDbText
 10
1001.232532
 20
222.736988
 30
0.0
 40
12.5
  1
KSTPG370
 41
0.5
 11
1001.232532
 21
222.736988
 31
0.0
100
AcDbText
 73
     1
  0
TEXT
  5
3F6
100
AcDbEntity
  8
6
  6
CONTINUOUS
 62
    51
100
AcDbText
 10
914.873972
 20
322.04582
 30
0.0
 40
12.5
  1
M10×110
 41
0.555556
 11
914.873972
 21
322.04582
 31
0.0
100
AcDbText
 73
     1
  0
TEXT
  5
3F7
100
AcDbEntity
  8
6
  6
CONTINUOUS
 62
    51
100
AcDbText
 10
914.873972
 20
347.04582
 30
0.0
 40
12.5
  1
M10
 41
0.5
 11
914.873972
 21
347.04582
 31
0.0
100
AcDbText
 73
     1
  0
TEXT
  5
3F8
100
AcDbEntity
  8
6
  6
CONTINUOUS
 62
    51
100
AcDbText
 10
914.873972
 20
372.04582
 30
0.0
 40
12.5
  1
M10
 41
0.5
 11
914.873972
 21
372.04582
 31
0.0
100
AcDbText
 73
     1
  0
TEXT
  5
3F9
100
AcDbEntity
  8
6
  6
CONTINUOUS
 62
    51
100
AcDbText
 10
1121.466118
 20
247.736988
 30
0.0
 40
12.5
  1
1
 41
0.5
 11
1121.466118
 21
247.736988
 31
0.0
100
AcDbText
 73
     1
  0
TEXT
  5
3FA
100
AcDbEntity
  8
6
  6
CONTINUOUS
 62
    51
100
AcDbText
 10
1121.466118
 20
272.736988
 30
0.0
 40
12.5
  1
1
 41
0.5
 11
1121.466118
 21
272.736988
 31
0.0
100
AcDbText
 73
     1
  0
TEXT
  5
3FB
100
AcDbEntity
  8
6
  6
CONTINUOUS
 62
    51
100
AcDbText
 10
1121.466118
 20
297.736988
 30
0.0
 40
12.5
  1
1
 41
0.5
 11
1121.466118
 21
297.736988
 31
0.0
100
AcDbText
 73
     1
  0
TEXT
  5
3FC
100
AcDbEntity
  8
6
  6
CONTINUOUS
 62
    51
100
AcDbText
 10
1121.466118
 20
322.736988
 30
0.0
 40
12.5
  1
3
 41
0.5
 11
1121.466118
 21
322.736988
 31
0.0
100
AcDbText
 73
     1
  0
TEXT
  5
3FD
100
AcDbEntity
  8
6
  6
CONTINUOUS
 62
    51
100
AcDbText
 10
1121.466118
 20
347.736988
 30
0.0
 40
12.5
  1
3
 41
0.5
 11
1121.466118
 21
347.736988
 31
0.0
100
AcDbText
 73
     1
  0
TEXT
  5
3FE
100
AcDbEntity
  8
6
  6
CONTINUOUS
 62
    51
100
AcDbText
 10
1121.466118
 20
372.736988
 30
0.0
 40
12.5
  1
3
 41
0.5
 11
1121.466118
 21
372.736988
 31
0.0
100
AcDbText
 73
     1
  0
TEXT
  5
3FF
100
AcDbEntity
  8
6
  6
CONTINUOUS
 62
    51
100
AcDbText
 10
1121.466118
 20
222.736988
 30
0.0
 40
12.5
  1
1
 41
0.5
 11
1121.466118
 21
222.736988
 31
0.0
100
AcDbText
 73
     1
  0
TEXT
  5
400
100
AcDbEntity
  8
6
  6
CONTINUOUS
 62
    51
100
AcDbText
 10
797.091118
 20
253.986988
 30
0.0
 40
12.5
  1
VAパッキン
 41
0.735294
 11
797.091118
 21
253.986988
 31
0.0
100
AcDbText
 73
     1
  0
TEXT
  5
401
100
AcDbEntity
  8
6
  6
CONTINUOUS
 62
    51
100
AcDbText
 10
797.091118
 20
278.986988
 30
0.0
 40
12.5
  1
座金
 41
0.833333
 11
797.091118
 21
278.986988
 31
0.0
100
AcDbText
 73
     1
  0
TEXT
  5
402
100
AcDbEntity
  8
6
  6
CONTINUOUS
 62
    51
100
AcDbText
 10
797.091118
 20
303.986988
 30
0.0
 40
12.5
  1
締付グランド
 41
0.833333
 11
797.091118
 21
303.986988
 31
0.0
100
AcDbText
 73
     1
  0
TEXT
  5
403
100
AcDbEntity
  8
6
  6
CONTINUOUS
 62
    51
100
AcDbText
 10
797.091118
 20
328.986988
 30
0.0
 40
12.5
  1
六角ボルト
 41
0.833333
 11
797.091118
 21
328.986988
 31
0.0
100
AcDbText
 73
     1
  0
TEXT
  5
404
100
AcDbEntity
  8
6
  6
CONTINUOUS
 62
    51
100
AcDbText
 10
797.091118
 20
353.986988
 30
0.0
 40
12.5
  1
バネ座金
 41
0.833333
 11
797.091118
 21
353.986988
 31
0.0
100
AcDbText
 73
     1
  0
TEXT
  5
405
100
AcDbEntity
  8
6
  6
CONTINUOUS
 62
    51
100
AcDbText
 10
797.091118
 20
378.986988
 30
0.0
 40
12.5
  1
平座金
 41
0.833333
 11
797.091118
 21
378.986988
 31
0.0
100
AcDbText
 73
     1
  0
TEXT
  5
406
100
AcDbEntity
  8
6
  6
CONTINUOUS
 62
    51
100
AcDbText
 10
797.091118
 20
243.986988
 30
0.0
 40
10.0
  1
RUBBER GASKET
 41
0.515873
 11
797.091118
 21
243.986988
 31
0.0
100
AcDbText
 73
     1
  0
TEXT
  5
407
100
AcDbEntity
  8
6
  6
CONTINUOUS
 62
    51
100
AcDbText
 10
797.091118
 20
268.986988
 30
0.0
 40
10.0
  1
WASHER
 41
0.5
 11
797.091118
 21
268.986988
 31
0.0
100
AcDbText
 73
     1
  0
TEXT
  5
408
100
AcDbEntity
  8
6
  6
CONTINUOUS
 62
    51
100
AcDbText
 10
797.091118
 20
293.986988
 30
0.0
 40
10.0
  1
CABLE GRAND
 41
0.518868
 11
797.091118
 21
293.986988
 31
0.0
100
AcDbText
 73
     1
  0
TEXT
  5
409
100
AcDbEntity
  8
6
  6
CONTINUOUS
 62
    51
100
AcDbText
 10
797.091118
 20
343.986988
 30
0.0
 40
10.0
  1
SPRING WASHER
 41
0.515873
 11
797.091118
 21
343.986988
 31
0.0
100
AcDbText
 73
     1
  0
TEXT
  5
40A
100
AcDbEntity
  8
6
  6
CONTINUOUS
 62
    51
100
AcDbText
 10
797.091118
 20
368.986988
 30
0.0
 40
10.0
  1
FLAT WASHER
 41
0.518868
 11
797.091118
 21
368.986988
 31
0.0
100
AcDbText
 73
     1
  0
TEXT
  5
40B
100
AcDbEntity
  8
6
  6
CONTINUOUS
 62
    51
100
AcDbText
 10
758.341118
 20
246.486988
 30
0.0
 40
15.0
  1
3
 41
0.5
 11
758.341118
 21
246.486988
 31
0.0
100
AcDbText
 73
     1
  0
TEXT
  5
40C
100
AcDbEntity
  8
6
  6
CONTINUOUS
 62
    51
100
AcDbText
 10
758.341118
 20
271.486988
 30
0.0
 40
15.0
  1
4
 41
0.5
 11
758.341118
 21
271.486988
 31
0.0
100
AcDbText
 73
     1
  0
TEXT
  5
40D
100
AcDbEntity
  8
6
  6
CONTINUOUS
 62
    51
100
AcDbText
 10
758.341118
 20
296.486988
 30
0.0
 40
15.0
  1
5
 41
0.5
 11
758.341118
 21
296.486988
 31
0.0
100
AcDbText
 73
     1
  0
TEXT
  5
40E
100
AcDbEntity
  8
6
  6
CONTINUOUS
 62
    51
100
AcDbText
 10
758.341118
 20
321.486988
 30
0.0
 40
15.0
  1
6
 41
0.5
 11
758.341118
 21
321.486988
 31
0.0
100
AcDbText
 73
     1
  0
TEXT
  5
40F
100
AcDbEntity
  8
6
  6
CONTINUOUS
 62
    51
100
AcDbText
 10
758.341118
 20
346.486988
 30
0.0
 40
15.0
  1
7
 41
0.5
 11
758.341118
 21
346.486988
 31
0.0
100
AcDbText
 73
     1
  0
TEXT
  5
410
100
AcDbEntity
  8
6
  6
CONTINUOUS
 62
    51
100
AcDbText
 10
758.341118
 20
371.486988
 30
0.0
 40
15.0
  1
8
 41
0.5
 11
758.341118
 21
371.486988
 31
0.0
100
AcDbText
 73
     1
  0
LINE
  5
411
100
AcDbEntity
  8
6
  6
CONTINUOUS
 62
    51
100
AcDbLine
 10
737.091118
 20
268.986988
 30
0.0
 11
1412.091118
 21
268.986988
 31
0.0
  0
LINE
  5
412
100
AcDbEntity
  8
6
  6
CONTINUOUS
 62
    51
100
AcDbLine
 10
737.091118
 20
293.986988
 30
0.0
 11
1412.091118
 21
293.986988
 31
0.0
  0
LINE
  5
413
100
AcDbEntity
  8
6
  6
CONTINUOUS
 62
    51
100
AcDbLine
 10
737.091118
 20
318.986988
 30
0.0
 11
1412.091118
 21
318.986988
 31
0.0
  0
LINE
  5
414
100
AcDbEntity
  8
6
  6
CONTINUOUS
 62
    51
100
AcDbLine
 10
737.091118
 20
343.986988
 30
0.0
 11
1412.091118
 21
343.986988
 31
0.0
  0
LINE
  5
415
100
AcDbEntity
  8
6
  6
CONTINUOUS
 62
    51
100
AcDbLine
 10
737.091118
 20
368.986988
 30
0.0
 11
1412.091118
 21
368.986988
 31
0.0
  0
LINE
  5
416
100
AcDbEntity
  8
6
  6
CONTINUOUS
 62
    51
100
AcDbLine
 10
1287.091118
 20
171.486988
 30
0.0
 11
1287.091118
 21
393.986988
 31
0.0
  0
LINE
  5
417
100
AcDbEntity
  8
6
  6
CONTINUOUS
 62
    51
100
AcDbLine
 10
1162.091118
 20
171.486988
 30
0.0
 11
1162.091118
 21
393.986988
 31
0.0
  0
LINE
  5
418
100
AcDbEntity
  8
6
  6
CONTINUOUS
 62
    51
100
AcDbLine
 10
1087.091118
 20
171.486988
 30
0.0
 11
1087.091118
 21
393.986988
 31
0.0
  0
LINE
  5
419
100
AcDbEntity
  8
6
  6
CONTINUOUS
 62
    51
100
AcDbLine
 10
987.091118
 20
171.486988
 30
0.0
 11
987.091118
 21
393.986988
 31
0.0
  0
LINE
  5
41A
100
AcDbEntity
  8
6
  6
CONTINUOUS
 62
    51
100
AcDbLine
 10
787.091118
 20
171.486988
 30
0.0
 11
787.091118
 21
393.986988
 31
0.0
  0
LINE
  5
41B
100
AcDbEntity
  8
6
  6
CONTINUOUS
 62
    51
100
AcDbLine
 10
737.091118
 20
171.486988
 30
0.0
 11
737.091118
 21
393.986988
 31
0.0
  0
LINE
  5
41C
100
AcDbEntity
  8
6
  6
CONTINUOUS
 62
    51
100
AcDbLine
 10
737.091118
 20
393.986988
 30
0.0
 11
1412.091118
 21
393.986988
 31
0.0
  0
TEXT
  5
41D
100
AcDbEntity
  8
6
  6
CONTINUOUS
 62
    51
100
AcDbText
 10
758.341118
 20
221.486988
 30
0.0
 40
15.0
  1
2
 41
0.5
 11
758.341118
 21
221.486988
 31
0.0
100
AcDbText
 73
     1
  0
TEXT
  5
41E
100
AcDbEntity
  8
6
  6
CONTINUOUS
 62
    51
100
AcDbText
 10
758.341118
 20
196.486988
 30
0.0
 40
15.0
  1
1
 41
0.5
 11
758.341118
 21
196.486988
 31
0.0
100
AcDbText
 73
     1
  0
TEXT
  5
41F
100
AcDbEntity
  8
6
  6
CONTINUOUS
 62
    51
100
AcDbText
 10
797.091118
 20
203.986988
 30
0.0
 40
12.5
  1
送受波器
 41
0.833333
 11
797.091118
 21
203.986988
 31
0.0
100
AcDbText
 73
     1
  0
TEXT
  5
420
100
AcDbEntity
  8
6
  6
CONTINUOUS
 62
    51
100
AcDbText
 10
797.091118
 20
218.986988
 30
0.0
 40
10.0
  1
CASING
 41
0.5
 11
797.091118
 21
218.986988
 31
0.0
100
AcDbText
 73
     1
  0
LINE
  5
421
100
AcDbEntity
  8
6
  6
CONTINUOUS
 62
    51
100
AcDbLine
 10
737.091118
 20
218.986988
 30
0.0
 11
1412.091118
 21
218.986988
 31
0.0
  0
TEXT
  5
422
100
AcDbEntity
  8
6
  6
CONTINUOUS
 62
    51
100
AcDbText
 10
797.091118
 20
193.986988
 30
0.0
 40
10.0
  1
TRANSDUCER
 41
0.5
 11
797.091118
 21
193.986988
 31
0.0
100
AcDbText
 73
     1
  0
LINE
  5
423
100
AcDbEntity
  8
6
  6
CONTINUOUS
 62
    51
100
AcDbLine
 10
737.091118
 20
193.986988
 30
0.0
 11
1412.9
 21
193.986988
 31
0.0
  0
LINE
  5
424
100
AcDbEntity
  8
6
  6
CONTINUOUS
 62
    51
100
AcDbLine
 10
737.091118
 20
243.986988
 30
0.0
 11
1412.091118
 21
243.986988
 31
0.0
  0
TEXT
  5
425
100
AcDbEntity
  8
6
  6
CONTINUOUS
 62
    51
100
AcDbText
 10
1000.511445
 20
182.556927
 30
0.0
 40
10.0
  1
材     質
 41
0.833333
 11
1000.511445
 21
182.556927
 31
0.0
100
AcDbText
 73
     1
  0
TEXT
  5
426
100
AcDbEntity
  8
6
  6
CONTINUOUS
 62
    51
100
AcDbText
 10
1312.056082
 20
182.533224
 30
0.0
 40
10.0
  1
摘     要
 41
0.833333
 11
1312.056082
 21
182.533224
 31
0.0
100
AcDbText
 73
     1
  0
TEXT
  5
427
100
AcDbEntity
  8
6
  6
CONTINUOUS
 62
    51
100
AcDbText
 10
1190.275811
 20
182.533224
 30
0.0
 40
10.0
  1
図      番
 41
0.833333
 11
1190.275811
 21
182.533224
 31
0.0
100
AcDbText
 73
     1
  0
TEXT
  5
428
100
AcDbEntity
  8
6
  6
CONTINUOUS
 62
    51
100
AcDbText
 10
1102.014811
 20
182.071592
 30
0.0
 40
10.0
  1
数     量
 41
0.833333
 11
1102.014811
 21
182.071592
 31
0.0
100
AcDbText
 73
     1
  0
TEXT
  5
429
100
AcDbEntity
  8
6
  6
CONTINUOUS
 62
    51
100
AcDbText
 10
751.492394
 20
181.383472
 30
0.0
 40
10.0
  1
品番
 41
0.833333
 11
751.492394
 21
181.383472
 31
0.0
100
AcDbText
 73
     1
  0
TEXT
  5
42A
100
AcDbEntity
  8
6
  6
CONTINUOUS
 62
    51
100
AcDbText
 10
840.418923
 20
181.383472
 30
0.0
 40
10.0
  1
品          名
 41
0.833333
 11
840.418923
 21
181.383472
 31
0.0
100
AcDbText
 73
     1
  0
TEXT
  5
42B
100
AcDbEntity
  8
6
  6
CONTINUOUS
 62
    51
100
AcDbText
 10
866.690374
 20
171.265189
 30
0.0
 40
10.0
  1
NAME
 41
0.5
 11
866.690374
 21
171.265189
 31
0.0
100
AcDbText
 73
     1
  0
TEXT
  5
42C
100
AcDbEntity
  8
6
  6
CONTINUOUS
 62
    51
100
AcDbText
 10
751.344725
 20
171.374612
 30
0.0
 40
10.0
  1
ITEM
 41
0.5
 11
751.344725
 21
171.374612
 31
0.0
100
AcDbText
 73
     1
  0
TEXT
  5
42D
100
AcDbEntity
  8
6
  6
CONTINUOUS
 62
    51
100
AcDbText
 10
1001.257838
 20
171.99331
 30
0.0
 40
10.0
  1
MATERIAL
 41
0.5
 11
1001.257838
 21
171.99331
 31
0.0
100
AcDbText
 73
     1
  0
TEXT
  5
42E
100
AcDbEntity
  8
6
  6
CONTINUOUS
 62
    51
100
AcDbText
 10
797.091118
 20
228.986988
 30
0.0
 40
12.5
  1
船底タンク
 41
0.833333
 11
797.091118
 21
228.986988
 31
0.0
100
AcDbText
 73
     1
  0
TEXT
  5
42F
100
AcDbEntity
  8
6
  6
CONTINUOUS
 62
    51
100
AcDbText
 10
1108.247169
 20
171.486988
 30
0.0
 40
10.0
  1
Q'TY
 41
0.555556
 11
1108.247169
 21
171.486988
 31
0.0
100
AcDbText
 73
     1
  0
TEXT
  5
430
100
AcDbEntity
  8
6
  6
CONTINUOUS
 62
    51
100
AcDbText
 10
1199.796262
 20
171.486988
 30
0.0
 40
10.0
  1
DWG. NO.
 41
0.588235
 11
1199.796262
 21
171.486988
 31
0.0
100
AcDbText
 73
     1
  0
TEXT
  5
431
100
AcDbEntity
  8
6
  6
CONTINUOUS
 62
    51
100
AcDbText
 10
1321.576533
 20
171.486988
 30
0.0
 40
10.0
  1
REMARKS
 41
0.5
 11
1321.576533
 21
171.486988
 31
0.0
100
AcDbText
 73
     1
  0
TEXT
  5
432
100
AcDbEntity
  8
3
  6
CONTINUOUS
 62
     2
100
AcDbText
 10
1108.38777
 20
150.412863
 30
0.0
 40
16.0
  1
DS-531-B
 41
0.5
 11
1108.38777
 21
150.412863
 31
0.0
100
AcDbText
 73
     1
  0
LINE
  5
433
100
AcDbEntity
  8
1
  6
CENTER
 62
     4
100
AcDbLine
 10
350.0
 20
670.22
 30
0.0
 11
350.0
 21
270.0
 31
0.0
  0
LINE
  5
434
100
AcDbEntity
  8
1
  6
CONTINUOUS
 62
     4
100
AcDbLine
 10
340.65
 20
657.0
 30
0.0
 11
340.65
 21
534.023745
 31
0.0
  0
LINE
  5
435
100
AcDbEntity
  8
1
  6
CONTINUOUS
 62
     4
100
AcDbLine
 10
359.35
 20
657.0
 30
0.0
 11
359.35
 21
526.176869
 31
0.0
  0
ARC
  5
436
100
AcDbEntity
  8
1
  6
CONTINUOUS
 62
     4
100
AcDbCircle
 10
345.325
 20
652.536094
 30
0.0
 40
6.463906
100
AcDbArc
 50
43.676797
 51
136.323203
  0
ARC
  5
437
100
AcDbEntity
  8
1
  6
CONTINUOUS
 62
     4
100
AcDbCircle
 10
354.675
 20
661.463906
 30
0.0
 40
6.463906
100
AcDbArc
 50
-136.323203
 51
-43.676797
  0
ARC
  5
438
100
AcDbEntity
  8
1
  6
CONTINUOUS
 62
     4
100
AcDbCircle
 10
354.675
 20
652.536094
 30
0.0
 40
6.463906
100
AcDbArc
 50
43.676797
 51
136.323203
  0
INSERT
  5
442
100
AcDbEntity
  8
1
  6
CONTINUOUS
 62
     4
100
AcDbBlockReference
  2
*G40
 10
0.0
 20
0.0
 30
0.0
  0
CIRCLE
  5
443
100
AcDbEntity
  8
1
  6
CONTINUOUS
 62
     4
100
AcDbCircle
 10
268.85
 20
602.5
 30
0.0
 40
7.5
  0
INSERT
  5
44D
100
AcDbEntity
  8
1
  6
CONTINUOUS
 62
     4
100
AcDbBlockReference
  2
*G41
 10
0.0
 20
0.0
 30
0.0
  0
CIRCLE
  5
44E
100
AcDbEntity
  8
1
  6
CONTINUOUS
 62
     4
100
AcDbCircle
 10
431.15
 20
602.5
 30
0.0
 40
7.5
  0
LINE
  5
44F
100
AcDbEntity
  8
1
  6
CONTINUOUS
 62
     4
100
AcDbLine
 10
435.977579
 20
608.239728
 30
0.0
 11
437.720841
 21
618.086608
 31
0.0
  0
LINE
  5
450
100
AcDbEntity
  8
1
  6
CONTINUOUS
 62
     4
100
AcDbLine
 10
435.977579
 20
608.239728
 30
0.0
 11
442.410728
 21
615.895745
 31
0.0
  0
POLYLINE
  5
451
100
AcDbEntity
  8
1
  6
CONTINUOUS
 62
     4
100
AcDb2dPolyline
 66
     1
 10
0.0
 20
0.0
 30
0.0
  0
VERTEX
  5
452
100
AcDbEntity
  8
1
  6
CONTINUOUS
 62
     4
100
AcDbVertex
100
AcDb2dVertex
 10
435.977579
 20
608.239728
 30
0.0
  0
VERTEX
  5
453
100
AcDbEntity
  8
1
  6
CONTINUOUS
 62
     4
100
AcDbVertex
100
AcDb2dVertex
 10
453.15
 20
645.0
 30
0.0
  0
VERTEX
  5
454
100
AcDbEntity
  8
1
  6
CONTINUOUS
 62
     4
100
AcDbVertex
100
AcDb2dVertex
 10
498.15
 20
645.0
 30
0.0
  0
SEQEND
  5
455
100
AcDbEntity
  8
1
  6
CONTINUOUS
 62
     4
  0
TEXT
  5
456
100
AcDbEntity
  8
1
  6
CONTINUOUS
 62
     4
100
AcDbText
 10
453.15
 20
645.0
 30
0.0
 40
15.0
  1
2-%%c15
 41
0.6
 11
453.15
 21
645.0
 31
0.0
100
AcDbText
 73
     1
  0
LINE
  5
457
100
AcDbEntity
  8
1
  6
CONTINUOUS
 62
     4
100
AcDbLine
 10
332.679492
 20
585.0
 30
0.0
 11
332.679492
 21
615.0
 31
0.0
  0
LINE
  5
458
100
AcDbEntity
  8
1
  6
CONTINUOUS
 62
     4
100
AcDbLine
 10
325.0
 20
630.0
 30
0.0
 11
325.0
 21
620.0
 31
0.0
  0
LINE
  5
459
100
AcDbEntity
  8
1
  6
CONTINUOUS
 62
     4
100
AcDbLine
 10
325.0
 20
620.0
 30
0.0
 11
332.679492
 21
620.0
 31
0.0
  0
LINE
  5
45A
100
AcDbEntity
  8
1
  6
CONTINUOUS
 62
     4
100
AcDbLine
 10
332.679492
 20
620.0
 30
0.0
 11
332.679492
 21
600.0
 31
0.0
  0
LINE
  5
45B
100
AcDbEntity
  8
1
  6
CONTINUOUS
 62
     4
100
AcDbLine
 10
340.65
 20
630.0
 30
0.0
 11
325.0
 21
630.0
 31
0.0
  0
LINE
  5
45C
100
AcDbEntity
  8
1
  6
CONTINUOUS
 62
     4
100
AcDbLine
 10
339.65
 20
600.0
 30
0.0
 11
339.65
 21
629.0
 31
0.0
  0
LINE
  5
45D
100
AcDbEntity
  8
1
  6
CONTINUOUS
 62
     4
100
AcDbLine
 10
338.65
 20
630.0
 30
0.0
 11
339.65
 21
629.0
 31
0.0
  0
LINE
  5
45E
100
AcDbEntity
  8
1
  6
CONTINUOUS
 62
     4
100
AcDbLine
 10
367.320508
 20
585.0
 30
0.0
 11
367.320508
 21
615.0
 31
0.0
  0
LINE
  5
45F
100
AcDbEntity
  8
1
  6
CONTINUOUS
 62
     4
100
AcDbLine
 10
375.0
 20
630.0
 30
0.0
 11
375.0
 21
620.0
 31
0.0
  0
LINE
  5
460
100
AcDbEntity
  8
1
  6
CONTINUOUS
 62
     4
100
AcDbLine
 10
375.0
 20
620.0
 30
0.0
 11
367.320508
 21
620.0
 31
0.0
  0
LINE
  5
461
100
AcDbEntity
  8
1
  6
CONTINUOUS
 62
     4
100
AcDbLine
 10
367.320508
 20
620.0
 30
0.0
 11
367.320508
 21
600.0
 31
0.0
  0
LINE
  5
462
100
AcDbEntity
  8
1
  6
CONTINUOUS
 62
     4
100
AcDbLine
 10
359.35
 20
630.0
 30
0.0
 11
375.0
 21
630.0
 31
0.0
  0
LINE
  5
463
100
AcDbEntity
  8
1
  6
CONTINUOUS
 62
     4
100
AcDbLine
 10
360.35
 20
600.0
 30
0.0
 11
360.35
 21
629.0
 31
0.0
  0
LINE
  5
464
100
AcDbEntity
  8
1
  6
CONTINUOUS
 62
     4
100
AcDbLine
 10
361.35
 20
630.0
 30
0.0
 11
360.35
 21
629.0
 31
0.0
  0
LINE
  5
465
100
AcDbEntity
  8
1
  6
CONTINUOUS
 62
     4
100
AcDbLine
 10
320.0
 20
580.0
 30
0.0
 11
320.0
 21
614.0
 31
0.0
  0
LINE
  5
466
100
AcDbEntity
  8
1
  6
CONTINUOUS
 62
     4
100
AcDbLine
 10
332.679492
 20
615.0
 30
0.0
 11
321.0
 21
615.0
 31
0.0
  0
LINE
  5
467
100
AcDbEntity
  8
1
  6
CONTINUOUS
 62
     4
100
AcDbLine
 10
320.0
 20
614.0
 30
0.0
 11
321.0
 21
615.0
 31
0.0
  0
LINE
  5
468
100
AcDbEntity
  8
1
  6
CONTINUOUS
 62
     4
100
AcDbLine
 10
367.320508
 20
615.0
 30
0.0
 11
379.0
 21
615.0
 31
0.0
  0
LINE
  5
469
100
AcDbEntity
  8
1
  6
CONTINUOUS
 62
     4
100
AcDbLine
 10
380.0
 20
580.0
 30
0.0
 11
380.0
 21
614.0
 31
0.0
  0
LINE
  5
46A
100
AcDbEntity
  8
1
  6
CONTINUOUS
 62
     4
100
AcDbLine
 10
379.0
 20
615.0
 30
0.0
 11
380.0
 21
614.0
 31
0.0
  0
CIRCLE
  5
46B
100
AcDbEntity
  8
1
  6
CONTINUOUS
 62
     4
100
AcDbCircle
 10
201.85
 20
718.383713
 30
0.0
 40
15.0
  0
LINE
  5
46C
100
AcDbEntity
  8
1
  6
CONTINUOUS
 62
     4
100
AcDbLine
 10
325.0
 20
630.0
 30
0.0
 11
315.643506
 21
633.529308
 31
0.0
  0
LINE
  5
46D
100
AcDbEntity
  8
1
  6
CONTINUOUS
 62
     4
100
AcDbLine
 10
325.0
 20
630.0
 30
0.0
 11
318.661693
 21
637.734718
 31
0.0
  0
POLYLINE
  5
46E
100
AcDbEntity
  8
1
  6
CONTINUOUS
 62
     4
100
AcDb2dPolyline
 66
     1
 10
0.0
 20
0.0
 30
0.0
  0
VERTEX
  5
46F
100
AcDbEntity
  8
1
  6
CONTINUOUS
 62
     4
100
AcDbVertex
100
AcDb2dVertex
 10
325.0
 20
630.0
 30
0.0
  0
VERTEX
  5
470
100
AcDbEntity
  8
1
  6
CONTINUOUS
 62
     4
100
AcDbVertex
100
AcDb2dVertex
 10
214.036341
 20
709.637679
 30
0.0
  0
SEQEND
  5
471
100
AcDbEntity
  8
1
  6
CONTINUOUS
 62
     4
  0
TEXT
  5
472
100
AcDbEntity
  8
1
  6
CONTINUOUS
 62
     4
100
AcDbText
 10
198.1
 20
710.883713
 30
0.0
 40
15.0
  1
5
 41
0.5
 11
198.1
 21
710.883713
 31
0.0
100
AcDbText
 73
     1
  0
INSERT
  5
4BB
100
AcDbEntity
  8
8
  6
CONTINUOUS
 62
     6
100
AcDbBlockReference
  2
*G42
 10
0.0
 20
0.0
 30
0.0
  0
INSERT
  5
4C4
100
AcDbEntity
  8
8
  6
CONTINUOUS
 62
     6
100
AcDbBlockReference
  2
*G43
 10
0.0
 20
0.0
 30
0.0
  0
INSERT
  5
509
100
AcDbEntity
  8
8
  6
CONTINUOUS
 62
     6
100
AcDbBlockReference
  2
*G44
 10
0.0
 20
0.0
 30
0.0
  0
INSERT
  5
516
100
AcDbEntity
  8
8
  6
CONTINUOUS
 62
     6
100
AcDbBlockReference
  2
*G45
 10
0.0
 20
0.0
 30
0.0
  0
DIMENSION
  5
522
100
AcDbEntity
  8
7
  6
CONTINUOUS
 62
     4
100
AcDbDimension
  2
*D46
 10
548.15
 20
280.0
 30
0.0
 11
540.65
 21
455.0
 31
0.0
  1
350
100
AcDbAlignedDimension
 13
523.15
 23
280.0
 33
0.0
 14
380.0
 24
630.0
 34
0.0
 50
90.0
100
AcDbRotatedDimension
  0
TEXT
  5
523
100
AcDbEntity
  8
1
  6
CONTINUOUS
 62
     4
100
AcDbText
 10
484.888027
 20
227.363841
 30
0.0
 40
15.0
  1
SOLDERING DIMMENSIONS
 41
0.509709
 11
484.888027
 21
227.363841
 31
0.0
100
AcDbText
 73
     1
  0
TEXT
  5
524
100
AcDbEntity
  8
1
  6
CONTINUOUS
 62
     4
100
AcDbText
 10
484.888027
 20
212.363841
 30
0.0
 40
15.0
  1
DECIDED BY SHIPYARD.
 41
0.531915
 11
484.888027
 21
212.363841
 31
0.0
100
AcDbText
 73
     1
  0
DIMENSION
  5
530
100
AcDbEntity
  8
7
  6
CONTINUOUS
 62
     4
100
AcDbDimension
  2
*D47
 10
528.15
 20
280.0
 30
0.0
 11
520.65
 21
430.0
 31
0.0
  1
300
100
AcDbAlignedDimension
 13
523.15
 23
280.0
 33
0.0
 14
458.15
 24
580.0
 34
0.0
 50
90.0
100
AcDbRotatedDimension
  0
DIMENSION
  5
53C
100
AcDbEntity
  8
7
  6
CONTINUOUS
 62
     4
100
AcDbDimension
  2
*D48
 10
241.85
 20
227.363841
 30
0.0
 11
350.0
 21
234.863841
 31
0.0
  1
φ216.3
100
AcDbAlignedDimension
 13
241.85
 23
275.0
 33
0.0
 14
458.15
 24
275.0
 34
0.0
100
AcDbRotatedDimension
  0
DIMENSION
  5
548
100
AcDbEntity
  8
7
  6
CONTINUOUS
 62
     4
100
AcDbDimension
  2
*D49
 10
275.0
 20
250.0
 30
0.0
 11
350.0
 21
257.5
 31
0.0
  1
φ150
100
AcDbAlignedDimension
 13
275.0
 23
275.0
 33
0.0
 14
425.0
 24
275.0
 34
0.0
100
AcDbRotatedDimension
  0
DIMENSION
  5
554
100
AcDbEntity
  8
7
  6
CONTINUOUS
 62
     4
100
AcDbDimension
  2
*D50
 10
221.85
 20
555.0
 30
0.0
 11
214.35
 21
567.5
 31
0.0
  1
25
100
AcDbAlignedDimension
 13
236.85
 23
555.0
 33
0.0
 14
241.85
 24
580.0
 34
0.0
 50
90.0
100
AcDbRotatedDimension
  0
DIMENSION
  5
55E
100
AcDbEntity
  8
1
  6
CONTINUOUS
 62
     4
100
AcDbDimension
  2
*D51
 10
340.65
 20
645.0
 30
0.0
 11
388.784093
 21
652.5
 31
0.0
  1
φ18.7
100
AcDbAlignedDimension
 13
340.65
 23
645.0
 33
0.0
 14
359.35
 24
645.0
 34
0.0
100
AcDbRotatedDimension
  0
TEXT
  5
55F
100
AcDbEntity
  8
6
  6
CONTINUOUS
 62
    51
100
AcDbText
 10
720.633975
 20
824.351527
 30
0.0
 40
15.0
  1
取付はタンクの上面が吃水線と%%p１°以内の誤差で平行になるようにしてください。
 41
0.837004
 11
720.633975
 21
824.351527
 31
0.0
100
AcDbText
 73
     1
  0
TEXT
  5
560
100
AcDbEntity
  8
6
  6
CONTINUOUS
 62
    51
100
AcDbText
 10
700.633975
 20
672.743557
 30
0.0
 40
15.0
  1
4. ORIENT BOW MARK OF THE CASING IN PARALLEL WITH SHIP'S FORE-AFT LINE AND THE TOP
 41
0.545213
 11
700.633975
 21
672.743557
 31
0.0
100
AcDbText
 73
     1
  0
TEXT
  5
561
100
AcDbEntity
  8
6
  6
CONTINUOUS
 62
    51
100
AcDbText
 10
1166.818559
 20
298.486988
 30
0.0
 40
15.0
  1
66-017-1404
 41
0.5
 11
1166.818559
 21
298.486988
 31
0.0
100
AcDbText
 73
     1
  0
TEXT
  5
562
100
AcDbEntity
  8
6
  6
CONTINUOUS
 62
    51
100
AcDbText
 10
1166.818559
 20
273.486988
 30
0.0
 40
15.0
  1
66-017-1402
 41
0.5
 11
1166.818559
 21
273.486988
 31
0.0
100
AcDbText
 73
     1
  0
ENDSEC
  0
SECTION
  2
OBJECTS
  0
DICTIONARY
  5
19
100
AcDbDictionary
  3
ACAD_GROUP
350
1A
  3
ACAD_MLINESTYLE
350
1B
  0
DICTIONARY
  5
1A
102
{ACAD_REACTORS
330
19
102
}
100
AcDbDictionary
  0
DICTIONARY
  5
1B
102
{ACAD_REACTORS
330
19
102
}
100
AcDbDictionary
  3
STANDARD
350
1C
  0
MLINESTYLE
  5
1C
102
{ACAD_REACTORS
330
1B
102
}
100
AcDbMlineStyle
  2
STANDARD
 70
     0
  3

 62
     0
 51
90.0
 52
90.0
 71
     2
 49
0.5
 62
   256
  6
BYLAYER
 49
-0.5
 62
   256
  6
BYLAYER
  0
ENDSEC
  0
EOF
