  0
SECTION
  2
HEADER
  9
$ACADVER
  1
AC1014
  9
$ACADMAINTVER
 70
     0
  9
$DWGCODEPAGE
  3
DOS932
  9
$INSBASE
 10
0.0
 20
0.0
 30
0.0
  9
$EXTMIN
 10
0.0
 20
0.0
 30
0.0
  9
$EXTMAX
 10
1485.0
 20
1050.0
 30
0.0
  9
$LIMMIN
 10
0.0
 20
0.0
  9
$LIMMAX
 10
1485.0
 20
1050.0
  9
$ORTHOMODE
 70
     0
  9
$REGENMODE
 70
     1
  9
$FILLMODE
 70
     1
  9
$QTEXTMODE
 70
     0
  9
$MIRRTEXT
 70
     1
  9
$DRAGMODE
 70
     2
  9
$LTSCALE
 40
1.25
  9
$OSMODE
 70
     0
  9
$ATTMODE
 70
     1
  9
$TEXTSIZE
 40
15.0
  9
$TRACEWID
 40
0.05
  9
$TEXTSTYLE
  7
STANDARD
  9
$CLAYER
  8
0
  9
$CELTYPE
  6
CONTINUOUS
  9
$CECOLOR
 62
   256
  9
$CELTSCALE
 40
1.0
  9
$DELOBJ
 70
     1
  9
$DISPSILH
 70
     0
  9
$DIMSCALE
 40
5.0
  9
$DIMASZ
 40
2.0
  9
$DIMEXO
 40
1.0
  9
$DIMDLI
 40
5.0
  9
$DIMRND
 40
0.0
  9
$DIMDLE
 40
0.0
  9
$DIMEXE
 40
1.0
  9
$DIMTP
 40
0.0
  9
$DIMTM
 40
0.0
  9
$DIMTXT
 40
3.0
  9
$DIMCEN
 40
0.09
  9
$DIMTSZ
 40
0.0
  9
$DIMTOL
 70
     0
  9
$DIMLIM
 70
     0
  9
$DIMTIH
 70
     0
  9
$DIMTOH
 70
     0
  9
$DIMSE1
 70
     0
  9
$DIMSE2
 70
     0
  9
$DIMTAD
 70
     3
  9
$DIMZIN
 70
     0
  9
$DIMBLK
  1
_OPEN
  9
$DIMASO
 70
     1
  9
$DIMSHO
 70
     1
  9
$DIMPOST
  1

  9
$DIMAPOST
  1

  9
$DIMALT
 70
     0
  9
$DIMALTD
 70
     2
  9
$DIMALTF
 40
25.4
  9
$DIMLFAC
 40
1.0
  9
$DIMTOFL
 70
     1
  9
$DIMTVP
 40
0.7
  9
$DIMTIX
 70
     0
  9
$DIMSOXD
 70
     0
  9
$DIMSAH
 70
     0
  9
$DIMBLK1
  1
_OPEN
  9
$DIMBLK2
  1
_OPEN
  9
$DIMSTYLE
  2
STANDARD
  9
$DIMCLRD
 70
     0
  9
$DIMCLRE
 70
     0
  9
$DIMCLRT
 70
     0
  9
$DIMTFAC
 40
0.5
  9
$DIMGAP
 40
0.0
  9
$DIMJUST
 70
     0
  9
$DIMSD1
 70
     0
  9
$DIMSD2
 70
     0
  9
$DIMTOLJ
 70
     1
  9
$DIMTZIN
 70
     0
  9
$DIMALTZ
 70
     0
  9
$DIMALTTZ
 70
     0
  9
$DIMFIT
 70
     3
  9
$DIMUPT
 70
     0
  9
$DIMUNIT
 70
     2
  9
$DIMDEC
 70
     2
  9
$DIMTDEC
 70
     4
  9
$DIMALTU
 70
     2
  9
$DIMALTTD
 70
     2
  9
$DIMTXSTY
  7
STANDARD
  9
$DIMAUNIT
 70
     0
  9
$LUNITS
 70
     2
  9
$LUPREC
 70
     4
  9
$SKETCHINC
 40
0.1
  9
$FILLETRAD
 40
0.0
  9
$AUNITS
 70
     0
  9
$AUPREC
 70
     0
  9
$MENU
  1
acad
  9
$ELEVATION
 40
0.0
  9
$PELEVATION
 40
0.0
  9
$THICKNESS
 40
0.0
  9
$LIMCHECK
 70
     0
  9
$BLIPMODE
 70
     1
  9
$CHAMFERA
 40
0.0
  9
$CHAMFERB
 40
0.0
  9
$CHAMFERC
 40
0.0
  9
$CHAMFERD
 40
0.0
  9
$SKPOLY
 70
     0
  9
$TDCREATE
 40
2451498.633622685
  9
$TDUPDATE
 40
2451498.633622685
  9
$TDINDWG
 40
0.0000000000
  9
$TDUSRTIMER
 40
0.0000000000
  9
$USRTIMER
 70
     1
  9
$ANGBASE
 50
0.0
  9
$ANGDIR
 70
     0
  9
$PDMODE
 70
     0
  9
$PDSIZE
 40
0.0
  9
$PLINEWID
 40
0.0
  9
$COORDS
 70
     0
  9
$SPLFRAME
 70
     0
  9
$SPLINETYPE
 70
     6
  9
$SPLINESEGS
 70
     8
  9
$ATTDIA
 70
     0
  9
$ATTREQ
 70
     1
  9
$HANDLING
 70
     1
  9
$HANDSEED
  5
692
  9
$SURFTAB1
 70
     6
  9
$SURFTAB2
 70
     6
  9
$SURFTYPE
 70
     6
  9
$SURFU
 70
     6
  9
$SURFV
 70
     6
  9
$UCSNAME
  2

  9
$UCSORG
 10
0.0
 20
0.0
 30
0.0
  9
$UCSXDIR
 10
1.0
 20
0.0
 30
0.0
  9
$UCSYDIR
 10
0.0
 20
1.0
 30
0.0
  9
$PUCSNAME
  2

  9
$PUCSORG
 10
0.0
 20
0.0
 30
0.0
  9
$PUCSXDIR
 10
1.0
 20
0.0
 30
0.0
  9
$PUCSYDIR
 10
0.0
 20
1.0
 30
0.0
  9
$USERI1
 70
     0
  9
$USERI2
 70
     0
  9
$USERI3
 70
     0
  9
$USERI4
 70
     0
  9
$USERI5
 70
     0
  9
$USERR1
 40
0.0
  9
$USERR2
 40
0.0
  9
$USERR3
 40
0.0
  9
$USERR4
 40
0.0
  9
$USERR5
 40
0.0
  9
$WORLDVIEW
 70
     1
  9
$SHADEDGE
 70
     3
  9
$SHADEDIF
 70
    70
  9
$TILEMODE
 70
     1
  9
$MAXACTVP
 70
    16
  9
$PINSBASE
 10
0.0
 20
0.0
 30
0.0
  9
$PLIMCHECK
 70
     0
  9
$PEXTMIN
 10
0.0
 20
0.0
 30
0.0
  9
$PEXTMAX
 10
297.0
 20
210.0
 30
0.0
  9
$PLIMMIN
 10
0.0
 20
0.0
  9
$PLIMMAX
 10
297.0
 20
210.0
  9
$UNITMODE
 70
     0
  9
$VISRETAIN
 70
     0
  9
$PLINEGEN
 70
     1
  9
$PSLTSCALE
 70
     0
  9
$TREEDEPTH
 70
  3020
  9
$PICKSTYLE
 70
     1
  9
$CMLSTYLE
  2
STANDARD
  9
$CMLJUST
 70
     0
  9
$CMLSCALE
 40
1.0
  9
$PROXYGRAPHICS
 70
     0
  9
$MEASUREMENT
 70
     0
  0
ENDSEC
  0
SECTION
  2
CLASSES
  0
CLASS
  1
LWPOLYLINE
  2
AcDbPolyline
  3
"AutoCAD"
 90
        0
280
     0
281
     1
  0
CLASS
  1
IMAGE
  2
AcDbRasterImage
  3
ISM
 90
      127
280
     0
281
     1
  0
CLASS
  1
OLE2FRAME
  2
AcDbOle2Frame
  3
""
 90
        0
280
     0
281
     1
  0
CLASS
  1
HATCH
  2
AcDbHatch
  3
"ACAD_SEDONA"
 90
        0
280
     0
281
     1
  0
CLASS
  1
DICTIONARYVAR
  2
AcDbDictionaryVar
  3
"AutoCAD"
 90
        0
280
     0
281
     0
  0
CLASS
  1
RASTERVARIABLES
  2
AcDbRasterVariables
  3
ISM
 90
        0
280
     0
281
     0
  0
CLASS
  1
IMAGEDEF
  2
AcDbRasterImageDef
  3
ISM
 90
        0
280
     0
281
     0
  0
CLASS
  1
IMAGEDEF_REACTOR
  2
AcDbRasterImageDefReactor
  3
ISM
 90
        1
280
     0
281
     0
  0
CLASS
  1
IDBUFFER
  2
AcDbIdBuffer
  3
"Acad"
 90
        0
280
     0
281
     0
  0
CLASS
  1
SPATIAL_FILTER
  2
AcDbSpatialFilter
  3
"Acad"
 90
        0
280
     0
281
     0
  0
CLASS
  1
XRECORD
  2
AcDbXrecord
  3
"<Built In>"
 90
        0
280
     0
281
     0
  0
CLASS
  1
SORTENTSTABLE
  2
AcDbSortentsTable
  3
"AutoCAD"
 90
        0
280
     0
281
     0
  0
CLASS
  1
LAYER_INDEX
  2
AcDbLayerIndex
  3
"Acad"
 90
        0
280
     0
281
     0
  0
CLASS
  1
SPATIAL_INDEX
  2
AcDbSpatialIndex
  3
"Acad"
 90
        0
280
     0
281
     0
  0
CLASS
  1
OBJECT_PTR
  2
CAseDLPNTableRecord
  3
"ASE-LPNTableRecord"
 90
        1
280
     0
281
     0
  0
ENDSEC
  0
SECTION
  2
TABLES
  0
TABLE
  2
VPORT
  5
7
100
AcDbSymbolTable
 70
     1
  0
VPORT
  5
15
100
AcDbSymbolTableRecord
100
AcDbViewportTableRecord
  2
*ACTIVE
 70
     0
 10
0.0
 20
0.0
 11
1.0
 21
1.0
 12
6.591288
 22
4.579184
 13
0.0
 23
0.0
 14
1.0
 24
1.0
 15
0.0
 25
0.0
 16
0.0
 26
0.0
 36
1.0
 17
0.0
 27
0.0
 37
0.0
 40
9.158369
 41
0.688564
 42
50.0
 43
0.0
 44
0.0
 50
0.0
 51
0.0
 71
     0
 72
   100
 73
     1
 74
     1
 75
     0
 76
     0
 77
     0
 78
     0
  0
ENDTAB
  0
TABLE
  2
LTYPE
  5
4
100
AcDbSymbolTable
 70
     7
  0
LTYPE
  5
11
100
AcDbSymbolTableRecord
100
AcDbLinetypeTableRecord
  2
BYBLOCK
 70
     0
  3

 72
    65
 73
     0
 40
0.0
  0
LTYPE
  5
12
100
AcDbSymbolTableRecord
100
AcDbLinetypeTableRecord
  2
BYLAYER
 70
     0
  3

 72
    65
 73
     0
 40
0.0
  0
LTYPE
  5
13
100
AcDbSymbolTableRecord
100
AcDbLinetypeTableRecord
  2
CONTINUOUS
 70
     0
  3
Solid line
 72
    65
 73
     0
 40
0.0
  0
LTYPE
  5
1D
100
AcDbSymbolTableRecord
100
AcDbLinetypeTableRecord
  2
HIDDEN
 70
     0
  3
- - - - - - - - 
 72
    65
 73
     2
 40
12.6
 49
8.4
 74
     0
 49
-4.2
 74
     0
  0
LTYPE
  5
1E
100
AcDbSymbolTableRecord
100
AcDbLinetypeTableRecord
  2
DOT
 70
     0
  3
･ ･ ･ ･ ･ ･ ･ ･ 
 72
    65
 73
     2
 40
8.0
 49
6.0
 74
     0
 49
-2.0
 74
     0
  0
LTYPE
  5
1F
100
AcDbSymbolTableRecord
100
AcDbLinetypeTableRecord
  2
CENTER
 70
     0
  3
- ･ - ･ - ･ - ･ 
 72
    65
 73
     4
 40
50.5
 49
30.0
 74
     0
 49
-9.0
 74
     0
 49
2.5
 74
     0
 49
-9.0
 74
     0
  0
LTYPE
  5
20
100
AcDbSymbolTableRecord
100
AcDbLinetypeTableRecord
  2
PHANTOM
 70
     0
  3
- ･･ - ･･ - ･･ - ･･ 
 72
    65
 73
     6
 40
58.0
 49
30.0
 74
     0
 49
-9.0
 74
     0
 49
2.5
 74
     0
 49
-5.0
 74
     0
 49
2.5
 74
     0
 49
-9.0
 74
     0
  0
ENDTAB
  0
TABLE
  2
LAYER
  5
2
100
AcDbSymbolTable
 70
    24
  0
LAYER
  5
14
100
AcDbSymbolTableRecord
100
AcDbLayerTableRecord
  2
0
 70
     0
 62
     7
  6
CONTINUOUS
  0
LAYER
  5
21
100
AcDbSymbolTableRecord
100
AcDbLayerTableRecord
  2
1
 70
     0
 62
     4
  6
CONTINUOUS
  0
LAYER
  5
22
100
AcDbSymbolTableRecord
100
AcDbLayerTableRecord
  2
2
 70
     0
 62
     3
  6
CONTINUOUS
  0
LAYER
  5
23
100
AcDbSymbolTableRecord
100
AcDbLayerTableRecord
  2
3
 70
     0
 62
     2
  6
CONTINUOUS
  0
LAYER
  5
24
100
AcDbSymbolTableRecord
100
AcDbLayerTableRecord
  2
4
 70
     0
 62
    21
  6
CONTINUOUS
  0
LAYER
  5
25
100
AcDbSymbolTableRecord
100
AcDbLayerTableRecord
  2
5
 70
     0
 62
     5
  6
CONTINUOUS
  0
LAYER
  5
26
100
AcDbSymbolTableRecord
100
AcDbLayerTableRecord
  2
6
 70
     0
 62
    51
  6
CONTINUOUS
  0
LAYER
  5
27
100
AcDbSymbolTableRecord
100
AcDbLayerTableRecord
  2
7
 70
     0
 62
     4
  6
CONTINUOUS
  0
LAYER
  5
28
100
AcDbSymbolTableRecord
100
AcDbLayerTableRecord
  2
8
 70
     0
 62
     6
  6
CONTINUOUS
  0
LAYER
  5
29
100
AcDbSymbolTableRecord
100
AcDbLayerTableRecord
  2
9
 70
     0
 62
     2
  6
CONTINUOUS
  0
LAYER
  5
2A
100
AcDbSymbolTableRecord
100
AcDbLayerTableRecord
  2
10
 70
     0
 62
     3
  6
CONTINUOUS
  0
LAYER
  5
2B
100
AcDbSymbolTableRecord
100
AcDbLayerTableRecord
  2
11
 70
     0
 62
   251
  6
CONTINUOUS
  0
LAYER
  5
2C
100
AcDbSymbolTableRecord
100
AcDbLayerTableRecord
  2
12
 70
     0
 62
   136
  6
CONTINUOUS
  0
LAYER
  5
2D
100
AcDbSymbolTableRecord
100
AcDbLayerTableRecord
  2
13
 70
     0
 62
   216
  6
CONTINUOUS
  0
LAYER
  5
2E
100
AcDbSymbolTableRecord
100
AcDbLayerTableRecord
  2
14
 70
     0
 62
    56
  6
CONTINUOUS
  0
LAYER
  5
2F
100
AcDbSymbolTableRecord
100
AcDbLayerTableRecord
  2
15
 70
     0
 62
    96
  6
CONTINUOUS
  0
LAYER
  5
30
100
AcDbSymbolTableRecord
100
AcDbLayerTableRecord
  2
16
 70
     0
 62
    16
  6
CONTINUOUS
  0
LAYER
  5
31
100
AcDbSymbolTableRecord
100
AcDbLayerTableRecord
  2
17
 70
     0
 62
   132
  6
CONTINUOUS
  0
LAYER
  5
32
100
AcDbSymbolTableRecord
100
AcDbLayerTableRecord
  2
18
 70
     0
 62
   212
  6
CONTINUOUS
  0
LAYER
  5
33
100
AcDbSymbolTableRecord
100
AcDbLayerTableRecord
  2
19
 70
     0
 62
    52
  6
CONTINUOUS
  0
LAYER
  5
34
100
AcDbSymbolTableRecord
100
AcDbLayerTableRecord
  2
20
 70
     0
 62
   250
  6
CONTINUOUS
  0
LAYER
  5
35
100
AcDbSymbolTableRecord
100
AcDbLayerTableRecord
  2
97
 70
     0
 62
     7
  6
CONTINUOUS
  0
LAYER
  5
36
100
AcDbSymbolTableRecord
100
AcDbLayerTableRecord
  2
98
 70
     0
 62
     6
  6
CONTINUOUS
  0
LAYER
  5
37
100
AcDbSymbolTableRecord
100
AcDbLayerTableRecord
  2
128
 70
     0
 62
     7
  6
CONTINUOUS
  0
ENDTAB
  0
TABLE
  2
STYLE
  5
3
100
AcDbSymbolTable
 70
     1
  0
STYLE
  5
17
100
AcDbSymbolTableRecord
100
AcDbTextStyleTableRecord
  2
STANDARD
 70
     0
 40
0.0
 41
1.0
 50
0.0
 71
     0
 42
0.0
  3
txt
  4
bigfont
  0
ENDTAB
  0
TABLE
  2
VIEW
  5
5
100
AcDbSymbolTable
 70
     0
  0
ENDTAB
  0
TABLE
  2
UCS
  5
6
100
AcDbSymbolTable
 70
     0
  0
ENDTAB
  0
TABLE
  2
APPID
  5
8
100
AcDbSymbolTable
 70
     1
  0
APPID
  5
16
100
AcDbSymbolTableRecord
100
AcDbRegAppTableRecord
  2
ACAD
 70
     0
  0
ENDTAB
  0
TABLE
  2
DIMSTYLE
  5
9
100
AcDbSymbolTable
 70
     1
  0
DIMSTYLE
105
18
100
AcDbSymbolTableRecord
100
AcDbDimStyleTableRecord
  2
STANDARD
 70
     0
  3

  4

  5

  6

  7

 40
1.0
 41
0.18
 42
0.0625
 43
0.38
 44
0.18
 45
0.0
 46
0.0
 47
0.0
 48
0.0
140
0.18
141
0.09
142
0.0
143
25.4
144
1.0
145
0.0
146
1.0
147
0.09
 71
     0
 72
     0
 73
     1
 74
     1
 75
     0
 76
     0
 77
     0
 78
     0
170
     0
171
     2
172
     0
173
     0
174
     0
175
     0
176
     0
177
     0
178
     0
270
     2
271
     4
272
     4
273
     2
274
     2
340
17
275
     0
280
     0
281
     0
282
     0
283
     1
284
     0
285
     0
286
     0
287
     0
288
     0
  0
ENDTAB
  0
TABLE
  2
BLOCK_RECORD
  5
1
100
AcDbSymbolTable
 70
    74
  0
BLOCK_RECORD
  5
A
100
AcDbSymbolTableRecord
100
AcDbBlockTableRecord
  2
*MODEL_SPACE
  0
BLOCK_RECORD
  5
B
100
AcDbSymbolTableRecord
100
AcDbBlockTableRecord
  2
*PAPER_SPACE
  0
BLOCK_RECORD
  5
3D
100
AcDbSymbolTableRecord
100
AcDbBlockTableRecord
  2
*G0
  0
BLOCK_RECORD
  5
59
100
AcDbSymbolTableRecord
100
AcDbBlockTableRecord
  2
*G1
  0
BLOCK_RECORD
  5
73
100
AcDbSymbolTableRecord
100
AcDbBlockTableRecord
  2
*G2
  0
BLOCK_RECORD
  5
9C
100
AcDbSymbolTableRecord
100
AcDbBlockTableRecord
  2
*G3
  0
BLOCK_RECORD
  5
A8
100
AcDbSymbolTableRecord
100
AcDbBlockTableRecord
  2
*G4
  0
BLOCK_RECORD
  5
CC
100
AcDbSymbolTableRecord
100
AcDbBlockTableRecord
  2
*G5
  0
BLOCK_RECORD
  5
D3
100
AcDbSymbolTableRecord
100
AcDbBlockTableRecord
  2
*G6
  0
BLOCK_RECORD
  5
DB
100
AcDbSymbolTableRecord
100
AcDbBlockTableRecord
  2
*G7
  0
BLOCK_RECORD
  5
E1
100
AcDbSymbolTableRecord
100
AcDbBlockTableRecord
  2
*G8
  0
BLOCK_RECORD
  5
102
100
AcDbSymbolTableRecord
100
AcDbBlockTableRecord
  2
*G9
  0
BLOCK_RECORD
  5
109
100
AcDbSymbolTableRecord
100
AcDbBlockTableRecord
  2
*G10
  0
BLOCK_RECORD
  5
111
100
AcDbSymbolTableRecord
100
AcDbBlockTableRecord
  2
*G11
  0
BLOCK_RECORD
  5
117
100
AcDbSymbolTableRecord
100
AcDbBlockTableRecord
  2
*G12
  0
BLOCK_RECORD
  5
137
100
AcDbSymbolTableRecord
100
AcDbBlockTableRecord
  2
*G13
  0
BLOCK_RECORD
  5
160
100
AcDbSymbolTableRecord
100
AcDbBlockTableRecord
  2
*G14
  0
BLOCK_RECORD
  5
166
100
AcDbSymbolTableRecord
100
AcDbBlockTableRecord
  2
*G15
  0
BLOCK_RECORD
  5
16D
100
AcDbSymbolTableRecord
100
AcDbBlockTableRecord
  2
*G16
  0
BLOCK_RECORD
  5
173
100
AcDbSymbolTableRecord
100
AcDbBlockTableRecord
  2
*G17
  0
BLOCK_RECORD
  5
237
100
AcDbSymbolTableRecord
100
AcDbBlockTableRecord
  2
*G18
  0
BLOCK_RECORD
  5
242
100
AcDbSymbolTableRecord
100
AcDbBlockTableRecord
  2
*G19
  0
BLOCK_RECORD
  5
24C
100
AcDbSymbolTableRecord
100
AcDbBlockTableRecord
  2
*G20
  0
BLOCK_RECORD
  5
257
100
AcDbSymbolTableRecord
100
AcDbBlockTableRecord
  2
*G21
  0
BLOCK_RECORD
  5
266
100
AcDbSymbolTableRecord
100
AcDbBlockTableRecord
  2
*G22
  0
BLOCK_RECORD
  5
271
100
AcDbSymbolTableRecord
100
AcDbBlockTableRecord
  2
*G23
  0
BLOCK_RECORD
  5
288
100
AcDbSymbolTableRecord
100
AcDbBlockTableRecord
  2
*G24
  0
BLOCK_RECORD
  5
2A8
100
AcDbSymbolTableRecord
100
AcDbBlockTableRecord
  2
*G25
  0
BLOCK_RECORD
  5
2B0
100
AcDbSymbolTableRecord
100
AcDbBlockTableRecord
  2
*G26
  0
BLOCK_RECORD
  5
2C8
100
AcDbSymbolTableRecord
100
AcDbBlockTableRecord
  2
*G27
  0
BLOCK_RECORD
  5
2D3
100
AcDbSymbolTableRecord
100
AcDbBlockTableRecord
  2
*G28
  0
BLOCK_RECORD
  5
355
100
AcDbSymbolTableRecord
100
AcDbBlockTableRecord
  2
*G29
  0
BLOCK_RECORD
  5
372
100
AcDbSymbolTableRecord
100
AcDbBlockTableRecord
  2
*G30
  0
BLOCK_RECORD
  5
3C5
100
AcDbSymbolTableRecord
100
AcDbBlockTableRecord
  2
*G31
  0
BLOCK_RECORD
  5
3D0
100
AcDbSymbolTableRecord
100
AcDbBlockTableRecord
  2
*G32
  0
BLOCK_RECORD
  5
3E3
100
AcDbSymbolTableRecord
100
AcDbBlockTableRecord
  2
*D33
  0
BLOCK_RECORD
  5
3FD
100
AcDbSymbolTableRecord
100
AcDbBlockTableRecord
  2
*D34
  0
BLOCK_RECORD
  5
430
100
AcDbSymbolTableRecord
100
AcDbBlockTableRecord
  2
*G35
  0
BLOCK_RECORD
  5
43C
100
AcDbSymbolTableRecord
100
AcDbBlockTableRecord
  2
*G36
  0
BLOCK_RECORD
  5
44D
100
AcDbSymbolTableRecord
100
AcDbBlockTableRecord
  2
*G37
  0
BLOCK_RECORD
  5
457
100
AcDbSymbolTableRecord
100
AcDbBlockTableRecord
  2
*G38
  0
BLOCK_RECORD
  5
467
100
AcDbSymbolTableRecord
100
AcDbBlockTableRecord
  2
*G39
  0
BLOCK_RECORD
  5
470
100
AcDbSymbolTableRecord
100
AcDbBlockTableRecord
  2
*G40
  0
BLOCK_RECORD
  5
479
100
AcDbSymbolTableRecord
100
AcDbBlockTableRecord
  2
*G41
  0
BLOCK_RECORD
  5
482
100
AcDbSymbolTableRecord
100
AcDbBlockTableRecord
  2
*G42
  0
BLOCK_RECORD
  5
48C
100
AcDbSymbolTableRecord
100
AcDbBlockTableRecord
  2
*G43
  0
BLOCK_RECORD
  5
49B
100
AcDbSymbolTableRecord
100
AcDbBlockTableRecord
  2
*G44
  0
BLOCK_RECORD
  5
4A5
100
AcDbSymbolTableRecord
100
AcDbBlockTableRecord
  2
*G45
  0
BLOCK_RECORD
  5
4AE
100
AcDbSymbolTableRecord
100
AcDbBlockTableRecord
  2
*G46
  0
BLOCK_RECORD
  5
4B7
100
AcDbSymbolTableRecord
100
AcDbBlockTableRecord
  2
*G47
  0
BLOCK_RECORD
  5
4C0
100
AcDbSymbolTableRecord
100
AcDbBlockTableRecord
  2
*G48
  0
BLOCK_RECORD
  5
4CB
100
AcDbSymbolTableRecord
100
AcDbBlockTableRecord
  2
*D49
  0
BLOCK_RECORD
  5
4D7
100
AcDbSymbolTableRecord
100
AcDbBlockTableRecord
  2
*D50
  0
BLOCK_RECORD
  5
4EB
100
AcDbSymbolTableRecord
100
AcDbBlockTableRecord
  2
*G51
  0
BLOCK_RECORD
  5
50E
100
AcDbSymbolTableRecord
100
AcDbBlockTableRecord
  2
*G52
  0
BLOCK_RECORD
  5
52F
100
AcDbSymbolTableRecord
100
AcDbBlockTableRecord
  2
*G53
  0
BLOCK_RECORD
  5
538
100
AcDbSymbolTableRecord
100
AcDbBlockTableRecord
  2
*G54
  0
BLOCK_RECORD
  5
541
100
AcDbSymbolTableRecord
100
AcDbBlockTableRecord
  2
*G55
  0
BLOCK_RECORD
  5
54A
100
AcDbSymbolTableRecord
100
AcDbBlockTableRecord
  2
*G56
  0
BLOCK_RECORD
  5
553
100
AcDbSymbolTableRecord
100
AcDbBlockTableRecord
  2
*G57
  0
BLOCK_RECORD
  5
55C
100
AcDbSymbolTableRecord
100
AcDbBlockTableRecord
  2
*G58
  0
BLOCK_RECORD
  5
569
100
AcDbSymbolTableRecord
100
AcDbBlockTableRecord
  2
*G59
  0
BLOCK_RECORD
  5
570
100
AcDbSymbolTableRecord
100
AcDbBlockTableRecord
  2
*G60
  0
BLOCK_RECORD
  5
579
100
AcDbSymbolTableRecord
100
AcDbBlockTableRecord
  2
*G61
  0
BLOCK_RECORD
  5
584
100
AcDbSymbolTableRecord
100
AcDbBlockTableRecord
  2
*G62
  0
BLOCK_RECORD
  5
5D4
100
AcDbSymbolTableRecord
100
AcDbBlockTableRecord
  2
*G63
  0
BLOCK_RECORD
  5
5DB
100
AcDbSymbolTableRecord
100
AcDbBlockTableRecord
  2
*G64
  0
BLOCK_RECORD
  5
5E4
100
AcDbSymbolTableRecord
100
AcDbBlockTableRecord
  2
*G65
  0
BLOCK_RECORD
  5
5EF
100
AcDbSymbolTableRecord
100
AcDbBlockTableRecord
  2
*G66
  0
BLOCK_RECORD
  5
63F
100
AcDbSymbolTableRecord
100
AcDbBlockTableRecord
  2
*G67
  0
BLOCK_RECORD
  5
648
100
AcDbSymbolTableRecord
100
AcDbBlockTableRecord
  2
*D68
  0
BLOCK_RECORD
  5
654
100
AcDbSymbolTableRecord
100
AcDbBlockTableRecord
  2
*D69
  0
BLOCK_RECORD
  5
660
100
AcDbSymbolTableRecord
100
AcDbBlockTableRecord
  2
*D70
  0
BLOCK_RECORD
  5
66C
100
AcDbSymbolTableRecord
100
AcDbBlockTableRecord
  2
*D71
  0
BLOCK_RECORD
  5
678
100
AcDbSymbolTableRecord
100
AcDbBlockTableRecord
  2
*D72
  0
BLOCK_RECORD
  5
682
100
AcDbSymbolTableRecord
100
AcDbBlockTableRecord
  2
*D73
  0
ENDTAB
  0
ENDSEC
  0
SECTION
  2
BLOCKS
  0
BLOCK
  5
D
100
AcDbEntity
  8
0
100
AcDbBlockBegin
  2
*MODEL_SPACE
 70
     0
 10
0.0
 20
0.0
 30
0.0
  3
*MODEL_SPACE
  1

  0
ENDBLK
  5
E
100
AcDbEntity
  8
0
100
AcDbBlockEnd
  0
BLOCK
  5
F
100
AcDbEntity
 67
     1
  8
0
100
AcDbBlockBegin
  2
*PAPER_SPACE
 70
     0
 10
0.0
 20
0.0
 30
0.0
  3
*PAPER_SPACE
  1

  0
ENDBLK
  5
10
100
AcDbEntity
 67
     1
  8
0
100
AcDbBlockEnd
  0
BLOCK
  5
3E
100
AcDbEntity
  8
1
  6
CONTINUOUS
 62
     4
100
AcDbBlockBegin
  2
*G0
 70
     0
 10
0.0
 20
0.0
 30
0.0
  3
*G0
  1

  0
LINE
  5
3F
100
AcDbEntity
  8
1
  6
CONTINUOUS
 62
     4
100
AcDbLine
 10
367.320508
 20
830.0
 30
0.0
 11
358.660254
 21
845.0
 31
0.0
  0
LINE
  5
40
100
AcDbEntity
  8
1
  6
CONTINUOUS
 62
     4
100
AcDbLine
 10
358.660254
 20
845.0
 30
0.0
 11
341.339746
 21
845.0
 31
0.0
  0
LINE
  5
41
100
AcDbEntity
  8
1
  6
CONTINUOUS
 62
     4
100
AcDbLine
 10
341.339746
 20
845.0
 30
0.0
 11
332.679492
 21
830.0
 31
0.0
  0
LINE
  5
42
100
AcDbEntity
  8
1
  6
CONTINUOUS
 62
     4
100
AcDbLine
 10
332.679492
 20
830.0
 30
0.0
 11
341.339746
 21
815.0
 31
0.0
  0
LINE
  5
43
100
AcDbEntity
  8
1
  6
CONTINUOUS
 62
     4
100
AcDbLine
 10
341.339746
 20
815.0
 30
0.0
 11
358.660254
 21
815.0
 31
0.0
  0
LINE
  5
44
100
AcDbEntity
  8
1
  6
CONTINUOUS
 62
     4
100
AcDbLine
 10
358.660254
 20
815.0
 30
0.0
 11
367.320508
 21
830.0
 31
0.0
  0
ENDBLK
  5
45
100
AcDbEntity
  8
0
100
AcDbBlockEnd
  0
BLOCK
  5
5A
100
AcDbEntity
  8
4
  6
CONTINUOUS
 62
    21
100
AcDbBlockBegin
  2
*G1
 70
     0
 10
0.0
 20
0.0
 30
0.0
  3
*G1
  1

  0
LINE
  5
5B
100
AcDbEntity
  8
4
  6
CONTINUOUS
 62
    21
100
AcDbLine
 10
1412.9
 20
961.475
 30
0.0
 11
67.45
 21
961.475
 31
0.0
  0
LINE
  5
5C
100
AcDbEntity
  8
4
  6
CONTINUOUS
 62
    21
100
AcDbLine
 10
67.45
 20
961.475
 30
0.0
 11
67.45
 21
51.475
 31
0.0
  0
LINE
  5
5D
100
AcDbEntity
  8
4
  6
CONTINUOUS
 62
    21
100
AcDbLine
 10
67.45
 20
51.475
 30
0.0
 11
1412.9
 21
51.475
 31
0.0
  0
LINE
  5
5E
100
AcDbEntity
  8
4
  6
CONTINUOUS
 62
    21
100
AcDbLine
 10
1412.9
 20
51.475
 30
0.0
 11
1412.9
 21
996.975
 31
0.0
  0
LINE
  5
5F
100
AcDbEntity
  8
4
  6
CONTINUOUS
 62
    21
100
AcDbLine
 10
1412.9
 20
996.975
 30
0.0
 11
1199.9
 21
996.975
 31
0.0
  0
LINE
  5
60
100
AcDbEntity
  8
4
  6
CONTINUOUS
 62
    21
100
AcDbLine
 10
1199.9
 20
996.975
 30
0.0
 11
1199.9
 21
961.475
 31
0.0
  0
ENDBLK
  5
61
100
AcDbEntity
  8
0
100
AcDbBlockEnd
  0
BLOCK
  5
74
100
AcDbEntity
  8
4
  6
CONTINUOUS
 62
    21
100
AcDbBlockBegin
  2
*G2
 70
     0
 10
0.0
 20
0.0
 30
0.0
  3
*G2
  1

  0
LINE
  5
75
100
AcDbEntity
  8
4
  6
CONTINUOUS
 62
    21
100
AcDbLine
 10
108.408125
 20
997.108125
 30
0.0
 11
87.640625
 21
997.108125
 31
0.0
  0
LINE
  5
76
100
AcDbEntity
  8
4
  6
CONTINUOUS
 62
    21
100
AcDbLine
 10
87.640625
 20
997.108125
 30
0.0
 11
87.640625
 21
993.07
 31
0.0
  0
LINE
  5
77
100
AcDbEntity
  8
4
  6
CONTINUOUS
 62
    21
100
AcDbLine
 10
87.640625
 20
993.07
 30
0.0
 11
103.21625
 21
993.07
 31
0.0
  0
LINE
  5
78
100
AcDbEntity
  8
4
  6
CONTINUOUS
 62
    21
100
AcDbLine
 10
103.21625
 20
993.07
 30
0.0
 11
103.21625
 21
987.878125
 31
0.0
  0
LINE
  5
79
100
AcDbEntity
  8
4
  6
CONTINUOUS
 62
    21
100
AcDbLine
 10
103.21625
 20
987.878125
 30
0.0
 11
87.640625
 21
987.878125
 31
0.0
  0
LINE
  5
7A
100
AcDbEntity
  8
4
  6
CONTINUOUS
 62
    21
100
AcDbLine
 10
87.640625
 20
987.878125
 30
0.0
 11
87.640625
 21
979.225
 31
0.0
  0
LINE
  5
7B
100
AcDbEntity
  8
4
  6
CONTINUOUS
 62
    21
100
AcDbLine
 10
87.640625
 20
979.225
 30
0.0
 11
67.45
 21
979.225
 31
0.0
  0
LINE
  5
7C
100
AcDbEntity
  8
4
  6
CONTINUOUS
 62
    21
100
AcDbLine
 10
67.45
 20
979.225
 30
0.0
 11
67.45
 21
1002.3
 31
0.0
  0
LINE
  5
7D
100
AcDbEntity
  8
4
  6
CONTINUOUS
 62
    21
100
AcDbLine
 10
67.45
 20
1002.3
 30
0.0
 11
108.408125
 21
1002.3
 31
0.0
  0
LINE
  5
7E
100
AcDbEntity
  8
4
  6
CONTINUOUS
 62
    21
100
AcDbLine
 10
108.408125
 20
1002.3
 30
0.0
 11
108.408125
 21
997.108125
 31
0.0
  0
ENDBLK
  5
7F
100
AcDbEntity
  8
0
100
AcDbBlockEnd
  0
BLOCK
  5
9D
100
AcDbEntity
  8
4
  6
CONTINUOUS
 62
    21
100
AcDbBlockBegin
  2
*G3
 70
     0
 10
0.0
 20
0.0
 30
0.0
  3
*G3
  1

  0
LINE
  5
9E
100
AcDbEntity
  8
4
  6
CONTINUOUS
 62
    21
100
AcDbLine
 10
196.451927
 20
1002.3
 30
0.0
 11
164.146927
 21
1002.3
 31
0.0
  0
LINE
  5
9F
100
AcDbEntity
  8
4
  6
CONTINUOUS
 62
    21
100
AcDbLine
 10
164.146927
 20
1002.3
 30
0.0
 11
164.146927
 21
979.225
 31
0.0
  0
LINE
  5
A0
100
AcDbEntity
  8
4
  6
CONTINUOUS
 62
    21
100
AcDbLine
 10
164.146927
 20
979.225
 30
0.0
 11
180.299427
 21
979.225
 31
0.0
  0
LINE
  5
A1
100
AcDbEntity
  8
4
  6
CONTINUOUS
 62
    21
100
AcDbLine
 10
180.299427
 20
979.225
 30
0.0
 11
180.299427
 21
985.570625
 31
0.0
  0
LINE
  5
A2
100
AcDbEntity
  8
4
  6
CONTINUOUS
 62
    21
100
AcDbLine
 10
180.299427
 20
985.570625
 30
0.0
 11
187.221927
 21
979.225
 31
0.0
  0
LINE
  5
A3
100
AcDbEntity
  8
4
  6
CONTINUOUS
 62
    21
100
AcDbLine
 10
187.221927
 20
979.225
 30
0.0
 11
204.528177
 21
979.225
 31
0.0
  0
LINE
  5
A4
100
AcDbEntity
  8
4
  6
CONTINUOUS
 62
    21
100
AcDbLine
 10
204.528177
 20
979.225
 30
0.0
 11
198.031971
 21
985.720975
 31
0.0
  0
ENDBLK
  5
A5
100
AcDbEntity
  8
0
100
AcDbBlockEnd
  0
BLOCK
  5
A9
100
AcDbEntity
  8
4
  6
CONTINUOUS
 62
    21
100
AcDbBlockBegin
  2
*G4
 70
     0
 10
0.0
 20
0.0
 30
0.0
  3
*G4
  1

  0
LINE
  5
AA
100
AcDbEntity
  8
4
  6
CONTINUOUS
 62
    21
100
AcDbLine
 10
187.798802
 20
997.108125
 30
0.0
 11
180.299427
 21
997.108125
 31
0.0
  0
LINE
  5
AB
100
AcDbEntity
  8
4
  6
CONTINUOUS
 62
    21
100
AcDbLine
 10
180.299427
 20
997.108125
 30
0.0
 11
180.299427
 21
989.031875
 31
0.0
  0
LINE
  5
AC
100
AcDbEntity
  8
4
  6
CONTINUOUS
 62
    21
100
AcDbLine
 10
180.299427
 20
989.031875
 30
0.0
 11
187.798802
 21
989.031875
 31
0.0
  0
ENDBLK
  5
AD
100
AcDbEntity
  8
0
100
AcDbBlockEnd
  0
BLOCK
  5
CD
100
AcDbEntity
  8
4
  6
CONTINUOUS
 62
    21
100
AcDbBlockBegin
  2
*G5
 70
     0
 10
0.0
 20
0.0
 30
0.0
  3
*G5
  1

  0
LINE
  5
CE
100
AcDbEntity
  8
4
  6
CONTINUOUS
 62
    21
100
AcDbLine
 10
157.333465
 20
1002.3
 30
0.0
 11
141.180965
 21
1002.3
 31
0.0
  0
LINE
  5
CF
100
AcDbEntity
  8
4
  6
CONTINUOUS
 62
    21
100
AcDbLine
 10
141.180965
 20
1002.3
 30
0.0
 11
141.180965
 21
989.897187
 31
0.0
  0
ENDBLK
  5
D0
100
AcDbEntity
  8
0
100
AcDbBlockEnd
  0
BLOCK
  5
D4
100
AcDbEntity
  8
4
  6
CONTINUOUS
 62
    21
100
AcDbBlockBegin
  2
*G6
 70
     0
 10
0.0
 20
0.0
 30
0.0
  3
*G6
  1

  0
LINE
  5
D5
100
AcDbEntity
  8
4
  6
CONTINUOUS
 62
    21
100
AcDbLine
 10
131.37409
 20
989.897187
 30
0.0
 11
131.37409
 21
1002.3
 31
0.0
  0
LINE
  5
D6
100
AcDbEntity
  8
4
  6
CONTINUOUS
 62
    21
100
AcDbLine
 10
131.37409
 20
1002.3
 30
0.0
 11
115.22159
 21
1002.3
 31
0.0
  0
LINE
  5
D7
100
AcDbEntity
  8
4
  6
CONTINUOUS
 62
    21
100
AcDbLine
 10
115.22159
 20
1002.3
 30
0.0
 11
115.22159
 21
990.7625
 31
0.0
  0
ENDBLK
  5
D8
100
AcDbEntity
  8
0
100
AcDbBlockEnd
  0
BLOCK
  5
DC
100
AcDbEntity
  8
4
  6
CONTINUOUS
 62
    21
100
AcDbBlockBegin
  2
*G7
 70
     0
 10
0.0
 20
0.0
 30
0.0
  3
*G7
  1

  0
LINE
  5
DD
100
AcDbEntity
  8
4
  6
CONTINUOUS
 62
    21
100
AcDbLine
 10
126.75909
 20
979.225
 30
0.0
 11
145.795965
 21
979.225
 31
0.0
  0
ENDBLK
  5
DE
100
AcDbEntity
  8
0
100
AcDbBlockEnd
  0
BLOCK
  5
E2
100
AcDbEntity
  8
4
  6
CONTINUOUS
 62
    21
100
AcDbBlockBegin
  2
*G8
 70
     0
 10
0.0
 20
0.0
 30
0.0
  3
*G8
  1

  0
LINE
  5
E3
100
AcDbEntity
  8
4
  6
CONTINUOUS
 62
    21
100
AcDbLine
 10
157.333465
 20
990.7625
 30
0.0
 11
157.333465
 21
1002.3
 31
0.0
  0
ENDBLK
  5
E4
100
AcDbEntity
  8
0
100
AcDbBlockEnd
  0
BLOCK
  5
103
100
AcDbEntity
  8
4
  6
CONTINUOUS
 62
    21
100
AcDbBlockBegin
  2
*G9
 70
     0
 10
0.0
 20
0.0
 30
0.0
  3
*G9
  1

  0
LINE
  5
104
100
AcDbEntity
  8
4
  6
CONTINUOUS
 62
    21
100
AcDbLine
 10
253.453517
 20
1002.3
 30
0.0
 11
237.301017
 21
1002.3
 31
0.0
  0
LINE
  5
105
100
AcDbEntity
  8
4
  6
CONTINUOUS
 62
    21
100
AcDbLine
 10
237.301017
 20
1002.3
 30
0.0
 11
237.301017
 21
989.897187
 31
0.0
  0
ENDBLK
  5
106
100
AcDbEntity
  8
0
100
AcDbBlockEnd
  0
BLOCK
  5
10A
100
AcDbEntity
  8
4
  6
CONTINUOUS
 62
    21
100
AcDbBlockBegin
  2
*G10
 70
     0
 10
0.0
 20
0.0
 30
0.0
  3
*G10
  1

  0
LINE
  5
10B
100
AcDbEntity
  8
4
  6
CONTINUOUS
 62
    21
100
AcDbLine
 10
227.494142
 20
989.897187
 30
0.0
 11
227.494142
 21
1002.3
 31
0.0
  0
LINE
  5
10C
100
AcDbEntity
  8
4
  6
CONTINUOUS
 62
    21
100
AcDbLine
 10
227.494142
 20
1002.3
 30
0.0
 11
211.341642
 21
1002.3
 31
0.0
  0
LINE
  5
10D
100
AcDbEntity
  8
4
  6
CONTINUOUS
 62
    21
100
AcDbLine
 10
211.341642
 20
1002.3
 30
0.0
 11
211.341642
 21
990.7625
 31
0.0
  0
ENDBLK
  5
10E
100
AcDbEntity
  8
0
100
AcDbBlockEnd
  0
BLOCK
  5
112
100
AcDbEntity
  8
4
  6
CONTINUOUS
 62
    21
100
AcDbBlockBegin
  2
*G11
 70
     0
 10
0.0
 20
0.0
 30
0.0
  3
*G11
  1

  0
LINE
  5
113
100
AcDbEntity
  8
4
  6
CONTINUOUS
 62
    21
100
AcDbLine
 10
222.879142
 20
979.225
 30
0.0
 11
241.916017
 21
979.225
 31
0.0
  0
ENDBLK
  5
114
100
AcDbEntity
  8
0
100
AcDbBlockEnd
  0
BLOCK
  5
118
100
AcDbEntity
  8
4
  6
CONTINUOUS
 62
    21
100
AcDbBlockBegin
  2
*G12
 70
     0
 10
0.0
 20
0.0
 30
0.0
  3
*G12
  1

  0
LINE
  5
119
100
AcDbEntity
  8
4
  6
CONTINUOUS
 62
    21
100
AcDbLine
 10
253.453517
 20
990.762493
 30
0.0
 11
253.453517
 21
1002.3
 31
0.0
  0
ENDBLK
  5
11A
100
AcDbEntity
  8
0
100
AcDbBlockEnd
  0
BLOCK
  5
138
100
AcDbEntity
  8
4
  6
CONTINUOUS
 62
    21
100
AcDbBlockBegin
  2
*G13
 70
     0
 10
0.0
 20
0.0
 30
0.0
  3
*G13
  1

  0
LINE
  5
139
100
AcDbEntity
  8
4
  6
CONTINUOUS
 62
    21
100
AcDbLine
 10
282.765108
 20
994.223519
 30
0.0
 11
282.765108
 21
1002.3
 31
0.0
  0
LINE
  5
13A
100
AcDbEntity
  8
4
  6
CONTINUOUS
 62
    21
100
AcDbLine
 10
282.765108
 20
1002.3
 30
0.0
 11
300.071358
 21
1002.3
 31
0.0
  0
LINE
  5
13B
100
AcDbEntity
  8
4
  6
CONTINUOUS
 62
    21
100
AcDbLine
 10
300.071358
 20
1002.3
 30
0.0
 11
300.071358
 21
979.225
 31
0.0
  0
LINE
  5
13C
100
AcDbEntity
  8
4
  6
CONTINUOUS
 62
    21
100
AcDbLine
 10
300.071358
 20
979.225
 30
0.0
 11
282.765108
 21
979.225
 31
0.0
  0
LINE
  5
13D
100
AcDbEntity
  8
4
  6
CONTINUOUS
 62
    21
100
AcDbLine
 10
282.765108
 20
979.225
 30
0.0
 11
277.573233
 21
987.30125
 31
0.0
  0
LINE
  5
13E
100
AcDbEntity
  8
4
  6
CONTINUOUS
 62
    21
100
AcDbLine
 10
277.573233
 20
987.30125
 30
0.0
 11
277.573233
 21
979.225
 31
0.0
  0
LINE
  5
13F
100
AcDbEntity
  8
4
  6
CONTINUOUS
 62
    21
100
AcDbLine
 10
277.573233
 20
979.225
 30
0.0
 11
260.266983
 21
979.225
 31
0.0
  0
LINE
  5
140
100
AcDbEntity
  8
4
  6
CONTINUOUS
 62
    21
100
AcDbLine
 10
260.266983
 20
979.225
 30
0.0
 11
260.266983
 21
1002.3
 31
0.0
  0
LINE
  5
141
100
AcDbEntity
  8
4
  6
CONTINUOUS
 62
    21
100
AcDbLine
 10
260.266983
 20
1002.3
 30
0.0
 11
277.573233
 21
1002.3
 31
0.0
  0
LINE
  5
142
100
AcDbEntity
  8
4
  6
CONTINUOUS
 62
    21
100
AcDbLine
 10
277.573233
 20
1002.3
 30
0.0
 11
282.765108
 21
994.223519
 31
0.0
  0
ENDBLK
  5
143
100
AcDbEntity
  8
0
100
AcDbBlockEnd
  0
BLOCK
  5
161
100
AcDbEntity
  8
4
  6
CONTINUOUS
 62
    21
100
AcDbBlockBegin
  2
*G14
 70
     0
 10
0.0
 20
0.0
 30
0.0
  3
*G14
  1

  0
LINE
  5
162
100
AcDbEntity
  8
4
  6
CONTINUOUS
 62
    21
100
AcDbLine
 10
318.422323
 20
979.225
 30
0.0
 11
335.728573
 21
979.225
 31
0.0
  0
ENDBLK
  5
163
100
AcDbEntity
  8
0
100
AcDbBlockEnd
  0
BLOCK
  5
167
100
AcDbEntity
  8
4
  6
CONTINUOUS
 62
    21
100
AcDbBlockBegin
  2
*G15
 70
     0
 10
0.0
 20
0.0
 30
0.0
  3
*G15
  1

  0
LINE
  5
168
100
AcDbEntity
  8
4
  6
CONTINUOUS
 62
    21
100
AcDbLine
 10
335.728573
 20
1002.3
 30
0.0
 11
318.422323
 21
1002.3
 31
0.0
  0
ENDBLK
  5
169
100
AcDbEntity
  8
0
100
AcDbBlockEnd
  0
BLOCK
  5
16E
100
AcDbEntity
  8
4
  6
CONTINUOUS
 62
    21
100
AcDbBlockBegin
  2
*G16
 70
     0
 10
0.0
 20
0.0
 30
0.0
  3
*G16
  1

  0
LINE
  5
16F
100
AcDbEntity
  8
4
  6
CONTINUOUS
 62
    21
100
AcDbLine
 10
324.191073
 20
995.3775
 30
0.0
 11
324.191073
 21
986.1475
 31
0.0
  0
ENDBLK
  5
170
100
AcDbEntity
  8
0
100
AcDbBlockEnd
  0
BLOCK
  5
174
100
AcDbEntity
  8
4
  6
CONTINUOUS
 62
    21
100
AcDbBlockBegin
  2
*G17
 70
     0
 10
0.0
 20
0.0
 30
0.0
  3
*G17
  1

  0
LINE
  5
175
100
AcDbEntity
  8
4
  6
CONTINUOUS
 62
    21
100
AcDbLine
 10
329.959823
 20
986.1475
 30
0.0
 11
329.959823
 21
995.3775
 31
0.0
  0
ENDBLK
  5
176
100
AcDbEntity
  8
0
100
AcDbBlockEnd
  0
BLOCK
  5
238
100
AcDbEntity
  8
6
  6
CONTINUOUS
 62
    51
100
AcDbBlockBegin
  2
*G18
 70
     0
 10
0.0
 20
0.0
 30
0.0
  3
*G18
  1

  0
LINE
  5
239
100
AcDbEntity
  8
6
  6
CONTINUOUS
 62
    51
100
AcDbLine
 10
1162.091118
 20
591.986988
 30
0.0
 11
1162.091118
 21
496.986988
 31
0.0
  0
LINE
  5
23A
100
AcDbEntity
  8
6
  6
CONTINUOUS
 62
    51
100
AcDbLine
 10
1162.091118
 20
496.986988
 30
0.0
 11
1392.091118
 21
496.986988
 31
0.0
  0
LINE
  5
23B
100
AcDbEntity
  8
6
  6
CONTINUOUS
 62
    51
100
AcDbLine
 10
1392.091118
 20
496.986988
 30
0.0
 11
1392.091118
 21
591.986988
 31
0.0
  0
LINE
  5
23C
100
AcDbEntity
  8
6
  6
CONTINUOUS
 62
    51
100
AcDbLine
 10
1392.091118
 20
591.986988
 30
0.0
 11
1162.091118
 21
591.986988
 31
0.0
  0
ENDBLK
  5
23D
100
AcDbEntity
  8
0
100
AcDbBlockEnd
  0
BLOCK
  5
243
100
AcDbEntity
  8
1
  6
CONTINUOUS
 62
     4
100
AcDbBlockBegin
  2
*G19
 70
     0
 10
0.0
 20
0.0
 30
0.0
  3
*G19
  1

  0
LINE
  5
244
100
AcDbEntity
  8
1
  6
CONTINUOUS
 62
     4
100
AcDbLine
 10
266.85
 20
320.0
 30
0.0
 11
266.85
 21
340.0
 31
0.0
  0
LINE
  5
245
100
AcDbEntity
  8
1
  6
CONTINUOUS
 62
     4
100
AcDbLine
 10
266.85
 20
340.0
 30
0.0
 11
317.5
 21
340.0
 31
0.0
  0
LINE
  5
246
100
AcDbEntity
  8
1
  6
CONTINUOUS
 62
     4
100
AcDbLine
 10
317.5
 20
340.0
 30
0.0
 11
317.5
 21
320.0
 31
0.0
  0
LINE
  5
247
100
AcDbEntity
  8
1
  6
CONTINUOUS
 62
     4
100
AcDbLine
 10
317.5
 20
320.0
 30
0.0
 11
266.85
 21
320.0
 31
0.0
  0
ENDBLK
  5
248
100
AcDbEntity
  8
0
100
AcDbBlockEnd
  0
BLOCK
  5
24D
100
AcDbEntity
  8
8
  6
CONTINUOUS
 62
     6
100
AcDbBlockBegin
  2
*G20
 70
     0
 10
0.0
 20
0.0
 30
0.0
  3
*G20
  1

  0
LINE
  5
24E
100
AcDbEntity
  8
8
  6
CONTINUOUS
 62
     6
100
AcDbLine
 10
233.1
 20
255.239985
 30
0.0
 11
241.85
 21
255.239985
 31
0.0
  0
LINE
  5
24F
100
AcDbEntity
  8
8
  6
CONTINUOUS
 62
     6
100
AcDbLine
 10
234.35
 20
256.489985
 30
0.0
 11
241.85
 21
256.489985
 31
0.0
  0
LINE
  5
250
100
AcDbEntity
  8
8
  6
CONTINUOUS
 62
     6
100
AcDbLine
 10
235.6
 20
257.739985
 30
0.0
 11
241.85
 21
257.739985
 31
0.0
  0
LINE
  5
251
100
AcDbEntity
  8
8
  6
CONTINUOUS
 62
     6
100
AcDbLine
 10
236.85
 20
258.989985
 30
0.0
 11
241.85
 21
258.989985
 31
0.0
  0
LINE
  5
252
100
AcDbEntity
  8
8
  6
CONTINUOUS
 62
     6
100
AcDbLine
 10
238.1
 20
260.239985
 30
0.0
 11
241.85
 21
260.239985
 31
0.0
  0
LINE
  5
253
100
AcDbEntity
  8
8
  6
CONTINUOUS
 62
     6
100
AcDbLine
 10
239.35
 20
261.489985
 30
0.0
 11
241.85
 21
261.489985
 31
0.0
  0
LINE
  5
254
100
AcDbEntity
  8
8
  6
CONTINUOUS
 62
     6
100
AcDbLine
 10
240.6
 20
262.739985
 30
0.0
 11
241.85
 21
262.739985
 31
0.0
  0
ENDBLK
  5
255
100
AcDbEntity
  8
0
100
AcDbBlockEnd
  0
BLOCK
  5
258
100
AcDbEntity
  8
8
  6
CONTINUOUS
 62
     6
100
AcDbBlockBegin
  2
*G21
 70
     0
 10
0.0
 20
0.0
 30
0.0
  3
*G21
  1

  0
LINE
  5
259
100
AcDbEntity
  8
8
  6
CONTINUOUS
 62
     6
100
AcDbLine
 10
233.1
 20
231.25
 30
0.0
 11
241.85
 21
231.25
 31
0.0
  0
LINE
  5
25A
100
AcDbEntity
  8
8
  6
CONTINUOUS
 62
     6
100
AcDbLine
 10
234.35
 20
232.5
 30
0.0
 11
241.85
 21
232.5
 31
0.0
  0
LINE
  5
25B
100
AcDbEntity
  8
8
  6
CONTINUOUS
 62
     6
100
AcDbLine
 10
235.6
 20
233.75
 30
0.0
 11
241.85
 21
233.75
 31
0.0
  0
LINE
  5
25C
100
AcDbEntity
  8
8
  6
CONTINUOUS
 62
     6
100
AcDbLine
 10
236.85
 20
235.0
 30
0.0
 11
241.85
 21
235.0
 31
0.0
  0
LINE
  5
25D
100
AcDbEntity
  8
8
  6
CONTINUOUS
 62
     6
100
AcDbLine
 10
238.1
 20
236.25
 30
0.0
 11
241.85
 21
236.25
 31
0.0
  0
LINE
  5
25E
100
AcDbEntity
  8
8
  6
CONTINUOUS
 62
     6
100
AcDbLine
 10
239.35
 20
237.5
 30
0.0
 11
241.85
 21
237.5
 31
0.0
  0
LINE
  5
25F
100
AcDbEntity
  8
8
  6
CONTINUOUS
 62
     6
100
AcDbLine
 10
240.6
 20
238.75
 30
0.0
 11
241.85
 21
238.75
 31
0.0
  0
ENDBLK
  5
260
100
AcDbEntity
  8
0
100
AcDbBlockEnd
  0
BLOCK
  5
267
100
AcDbEntity
  8
8
  6
CONTINUOUS
 62
     6
100
AcDbBlockBegin
  2
*G22
 70
     0
 10
0.0
 20
0.0
 30
0.0
  3
*G22
  1

  0
LINE
  5
268
100
AcDbEntity
  8
8
  6
CONTINUOUS
 62
     6
100
AcDbLine
 10
466.9
 20
255.239985
 30
0.0
 11
458.15
 21
255.239985
 31
0.0
  0
LINE
  5
269
100
AcDbEntity
  8
8
  6
CONTINUOUS
 62
     6
100
AcDbLine
 10
465.65
 20
256.489985
 30
0.0
 11
458.15
 21
256.489985
 31
0.0
  0
LINE
  5
26A
100
AcDbEntity
  8
8
  6
CONTINUOUS
 62
     6
100
AcDbLine
 10
464.4
 20
257.739985
 30
0.0
 11
458.15
 21
257.739985
 31
0.0
  0
LINE
  5
26B
100
AcDbEntity
  8
8
  6
CONTINUOUS
 62
     6
100
AcDbLine
 10
463.15
 20
258.989985
 30
0.0
 11
458.15
 21
258.989985
 31
0.0
  0
LINE
  5
26C
100
AcDbEntity
  8
8
  6
CONTINUOUS
 62
     6
100
AcDbLine
 10
461.9
 20
260.239985
 30
0.0
 11
458.15
 21
260.239985
 31
0.0
  0
LINE
  5
26D
100
AcDbEntity
  8
8
  6
CONTINUOUS
 62
     6
100
AcDbLine
 10
460.65
 20
261.489985
 30
0.0
 11
458.15
 21
261.489985
 31
0.0
  0
LINE
  5
26E
100
AcDbEntity
  8
8
  6
CONTINUOUS
 62
     6
100
AcDbLine
 10
459.4
 20
262.739985
 30
0.0
 11
458.15
 21
262.739985
 31
0.0
  0
ENDBLK
  5
26F
100
AcDbEntity
  8
0
100
AcDbBlockEnd
  0
BLOCK
  5
272
100
AcDbEntity
  8
8
  6
CONTINUOUS
 62
     6
100
AcDbBlockBegin
  2
*G23
 70
     0
 10
0.0
 20
0.0
 30
0.0
  3
*G23
  1

  0
LINE
  5
273
100
AcDbEntity
  8
8
  6
CONTINUOUS
 62
     6
100
AcDbLine
 10
466.9
 20
231.25
 30
0.0
 11
458.15
 21
231.25
 31
0.0
  0
LINE
  5
274
100
AcDbEntity
  8
8
  6
CONTINUOUS
 62
     6
100
AcDbLine
 10
465.65
 20
232.5
 30
0.0
 11
458.15
 21
232.5
 31
0.0
  0
LINE
  5
275
100
AcDbEntity
  8
8
  6
CONTINUOUS
 62
     6
100
AcDbLine
 10
464.4
 20
233.75
 30
0.0
 11
458.15
 21
233.75
 31
0.0
  0
LINE
  5
276
100
AcDbEntity
  8
8
  6
CONTINUOUS
 62
     6
100
AcDbLine
 10
463.15
 20
235.0
 30
0.0
 11
458.15
 21
235.0
 31
0.0
  0
LINE
  5
277
100
AcDbEntity
  8
8
  6
CONTINUOUS
 62
     6
100
AcDbLine
 10
461.9
 20
236.25
 30
0.0
 11
458.15
 21
236.25
 31
0.0
  0
LINE
  5
278
100
AcDbEntity
  8
8
  6
CONTINUOUS
 62
     6
100
AcDbLine
 10
460.65
 20
237.5
 30
0.0
 11
458.15
 21
237.5
 31
0.0
  0
LINE
  5
279
100
AcDbEntity
  8
8
  6
CONTINUOUS
 62
     6
100
AcDbLine
 10
459.4
 20
238.75
 30
0.0
 11
458.15
 21
238.75
 31
0.0
  0
ENDBLK
  5
27A
100
AcDbEntity
  8
0
100
AcDbBlockEnd
  0
BLOCK
  5
289
100
AcDbEntity
  8
1
  6
CONTINUOUS
 62
     4
100
AcDbBlockBegin
  2
*G24
 70
     0
 10
0.0
 20
0.0
 30
0.0
  3
*G24
  1

  0
LINE
  5
28A
100
AcDbEntity
  8
1
  6
CONTINUOUS
 62
     4
100
AcDbLine
 10
377.320508
 20
352.0
 30
0.0
 11
374.820508
 21
356.330127
 31
0.0
  0
LINE
  5
28B
100
AcDbEntity
  8
1
  6
CONTINUOUS
 62
     4
100
AcDbLine
 10
374.820508
 20
356.330127
 30
0.0
 11
369.820508
 21
356.330127
 31
0.0
  0
LINE
  5
28C
100
AcDbEntity
  8
1
  6
CONTINUOUS
 62
     4
100
AcDbLine
 10
369.820508
 20
356.330127
 30
0.0
 11
367.320508
 21
352.0
 31
0.0
  0
LINE
  5
28D
100
AcDbEntity
  8
1
  6
CONTINUOUS
 62
     4
100
AcDbLine
 10
367.320508
 20
352.0
 30
0.0
 11
369.820508
 21
347.669873
 31
0.0
  0
LINE
  5
28E
100
AcDbEntity
  8
1
  6
CONTINUOUS
 62
     4
100
AcDbLine
 10
369.820508
 20
347.669873
 30
0.0
 11
374.820508
 21
347.669873
 31
0.0
  0
LINE
  5
28F
100
AcDbEntity
  8
1
  6
CONTINUOUS
 62
     4
100
AcDbLine
 10
374.820508
 20
347.669873
 30
0.0
 11
377.320508
 21
352.0
 31
0.0
  0
ENDBLK
  5
290
100
AcDbEntity
  8
0
100
AcDbBlockEnd
  0
BLOCK
  5
2A9
100
AcDbEntity
  8
7
  6
CONTINUOUS
 62
     4
100
AcDbBlockBegin
  2
*G25
 70
     0
 10
0.0
 20
0.0
 30
0.0
  3
*G25
  1

  0
LINE
  5
2AA
100
AcDbEntity
  8
7
  6
CONTINUOUS
 62
     4
100
AcDbLine
 10
396.489746
 20
239.0
 30
0.0
 11
396.489746
 21
240.0
 31
0.0
  0
LINE
  5
2AB
100
AcDbEntity
  8
7
  6
CONTINUOUS
 62
     4
100
AcDbLine
 10
396.489746
 20
240.0
 30
0.0
 11
413.810254
 21
240.0
 31
0.0
  0
LINE
  5
2AC
100
AcDbEntity
  8
7
  6
CONTINUOUS
 62
     4
100
AcDbLine
 10
413.810254
 20
240.0
 30
0.0
 11
413.810254
 21
239.0
 31
0.0
  0
LINE
  5
2AD
100
AcDbEntity
  8
7
  6
CONTINUOUS
 62
     4
100
AcDbLine
 10
413.810254
 20
239.0
 30
0.0
 11
396.489746
 21
239.0
 31
0.0
  0
ENDBLK
  5
2AE
100
AcDbEntity
  8
0
100
AcDbBlockEnd
  0
BLOCK
  5
2B1
100
AcDbEntity
  8
7
  6
CONTINUOUS
 62
     4
100
AcDbBlockBegin
  2
*G26
 70
     0
 10
0.0
 20
0.0
 30
0.0
  3
*G26
  1

  0
LINE
  5
2B2
100
AcDbEntity
  8
7
  6
CONTINUOUS
 62
     4
100
AcDbLine
 10
395.15
 20
240.0
 30
0.0
 11
395.15
 21
241.0
 31
0.0
  0
LINE
  5
2B3
100
AcDbEntity
  8
7
  6
CONTINUOUS
 62
     4
100
AcDbLine
 10
395.15
 20
241.0
 30
0.0
 11
415.15
 21
241.0
 31
0.0
  0
LINE
  5
2B4
100
AcDbEntity
  8
7
  6
CONTINUOUS
 62
     4
100
AcDbLine
 10
415.15
 20
241.0
 30
0.0
 11
415.15
 21
240.0
 31
0.0
  0
LINE
  5
2B5
100
AcDbEntity
  8
7
  6
CONTINUOUS
 62
     4
100
AcDbLine
 10
415.15
 20
240.0
 30
0.0
 11
395.15
 21
240.0
 31
0.0
  0
ENDBLK
  5
2B6
100
AcDbEntity
  8
0
100
AcDbBlockEnd
  0
BLOCK
  5
2C9
100
AcDbEntity
  8
1
  6
CONTINUOUS
 62
     4
100
AcDbBlockBegin
  2
*G27
 70
     0
 10
0.0
 20
0.0
 30
0.0
  3
*G27
  1

  0
LINE
  5
2CA
100
AcDbEntity
  8
1
  6
CONTINUOUS
 62
     4
100
AcDbLine
 10
423.15
 20
230.0
 30
0.0
 11
276.85
 21
230.0
 31
0.0
  0
LINE
  5
2CB
100
AcDbEntity
  8
1
  6
CONTINUOUS
 62
     4
100
AcDbLine
 10
276.85
 20
230.0
 30
0.0
 11
276.85
 21
315.0
 31
0.0
  0
ARC
  5
2CC
100
AcDbEntity
  8
1
  6
CONTINUOUS
 62
     4
100
AcDbCircle
 10
281.85
 20
315.0
 30
0.0
 40
5.0
100
AcDbArc
 50
90.0
 51
180.0
  0
LINE
  5
2CD
100
AcDbEntity
  8
1
  6
CONTINUOUS
 62
     4
100
AcDbLine
 10
423.15
 20
315.0
 30
0.0
 11
423.15
 21
230.0
 31
0.0
  0
ARC
  5
2CE
100
AcDbEntity
  8
1
  6
CONTINUOUS
 62
     4
100
AcDbCircle
 10
418.15
 20
315.0
 30
0.0
 40
5.0
100
AcDbArc
 50
0.0
 51
90.0
  0
LINE
  5
2CF
100
AcDbEntity
  8
1
  6
CONTINUOUS
 62
     4
100
AcDbLine
 10
283.85
 20
320.0
 30
0.0
 11
400.15
 21
320.0
 31
0.0
  0
LINE
  5
2D0
100
AcDbEntity
  8
1
  6
CONTINUOUS
 62
     4
100
AcDbLine
 10
410.15
 20
320.0
 30
0.0
 11
416.15
 21
320.0
 31
0.0
  0
ENDBLK
  5
2D1
100
AcDbEntity
  8
0
100
AcDbBlockEnd
  0
BLOCK
  5
2D4
100
AcDbEntity
  8
1
  6
CONTINUOUS
 62
     4
100
AcDbBlockBegin
  2
*G28
 70
     0
 10
0.0
 20
0.0
 30
0.0
  3
*G28
  1

  0
LINE
  5
2D5
100
AcDbEntity
  8
1
  6
CONTINUOUS
 62
     4
100
AcDbLine
 10
433.15
 20
320.0
 30
0.0
 11
433.15
 21
340.0
 31
0.0
  0
LINE
  5
2D6
100
AcDbEntity
  8
1
  6
CONTINUOUS
 62
     4
100
AcDbLine
 10
382.5
 20
340.0
 30
0.0
 11
382.5
 21
320.0
 31
0.0
  0
LINE
  5
2D7
100
AcDbEntity
  8
1
  6
CONTINUOUS
 62
     4
100
AcDbLine
 10
433.15
 20
340.0
 30
0.0
 11
410.15
 21
340.0
 31
0.0
  0
LINE
  5
2D8
100
AcDbEntity
  8
1
  6
CONTINUOUS
 62
     4
100
AcDbLine
 10
400.15
 20
340.0
 30
0.0
 11
382.5
 21
340.0
 31
0.0
  0
LINE
  5
2D9
100
AcDbEntity
  8
1
  6
CONTINUOUS
 62
     4
100
AcDbLine
 10
382.5
 20
320.0
 30
0.0
 11
400.15
 21
320.0
 31
0.0
  0
LINE
  5
2DA
100
AcDbEntity
  8
1
  6
CONTINUOUS
 62
     4
100
AcDbLine
 10
410.15
 20
320.0
 30
0.0
 11
433.15
 21
320.0
 31
0.0
  0
ENDBLK
  5
2DB
100
AcDbEntity
  8
0
100
AcDbBlockEnd
  0
BLOCK
  5
356
100
AcDbEntity
  8
8
  6
CONTINUOUS
 62
     6
100
AcDbBlockBegin
  2
*G29
 70
     0
 10
0.0
 20
0.0
 30
0.0
  3
*G29
  1

  0
LINE
  5
357
100
AcDbEntity
  8
8
  6
CONTINUOUS
 62
     6
100
AcDbLine
 10
392.751357
 20
230.0
 30
0.0
 11
394.15
 21
231.398643
 31
0.0
  0
LINE
  5
358
100
AcDbEntity
  8
8
  6
CONTINUOUS
 62
     6
100
AcDbLine
 10
390.721393
 20
231.50557
 30
0.0
 11
394.15
 21
234.934177
 31
0.0
  0
LINE
  5
359
100
AcDbEntity
  8
8
  6
CONTINUOUS
 62
     6
100
AcDbLine
 10
390.500431
 20
234.820143
 30
0.0
 11
394.15
 21
238.469711
 31
0.0
  0
LINE
  5
35A
100
AcDbEntity
  8
8
  6
CONTINUOUS
 62
     6
100
AcDbLine
 10
396.680289
 20
241.0
 30
0.0
 11
400.15
 21
244.469711
 31
0.0
  0
LINE
  5
35B
100
AcDbEntity
  8
8
  6
CONTINUOUS
 62
     6
100
AcDbLine
 10
390.677576
 20
238.532821
 30
0.0
 11
400.15
 21
248.005245
 31
0.0
  0
LINE
  5
35C
100
AcDbEntity
  8
8
  6
CONTINUOUS
 62
     6
100
AcDbLine
 10
391.156379
 20
242.547158
 30
0.0
 11
400.15
 21
251.540779
 31
0.0
  0
LINE
  5
35D
100
AcDbEntity
  8
8
  6
CONTINUOUS
 62
     6
100
AcDbLine
 10
391.790496
 20
246.716809
 30
0.0
 11
400.15
 21
255.076313
 31
0.0
  0
LINE
  5
35E
100
AcDbEntity
  8
8
  6
CONTINUOUS
 62
     6
100
AcDbLine
 10
392.457552
 20
250.919399
 30
0.0
 11
400.15
 21
258.611847
 31
0.0
  0
LINE
  5
35F
100
AcDbEntity
  8
8
  6
CONTINUOUS
 62
     6
100
AcDbLine
 10
393.105653
 20
255.103034
 30
0.0
 11
400.15
 21
262.147381
 31
0.0
  0
LINE
  5
360
100
AcDbEntity
  8
8
  6
CONTINUOUS
 62
     6
100
AcDbLine
 10
393.713998
 20
259.246913
 30
0.0
 11
400.15
 21
265.682915
 31
0.0
  0
LINE
  5
361
100
AcDbEntity
  8
8
  6
CONTINUOUS
 62
     6
100
AcDbLine
 10
394.267623
 20
263.336072
 30
0.0
 11
400.15
 21
269.218449
 31
0.0
  0
LINE
  5
362
100
AcDbEntity
  8
8
  6
CONTINUOUS
 62
     6
100
AcDbLine
 10
394.768623
 20
267.372605
 30
0.0
 11
400.15
 21
272.753983
 31
0.0
  0
LINE
  5
363
100
AcDbEntity
  8
8
  6
CONTINUOUS
 62
     6
100
AcDbLine
 10
395.213991
 20
271.353508
 30
0.0
 11
400.15
 21
276.289516
 31
0.0
  0
LINE
  5
364
100
AcDbEntity
  8
8
  6
CONTINUOUS
 62
     6
100
AcDbLine
 10
395.607102
 20
275.282152
 30
0.0
 11
400.15
 21
279.82505
 31
0.0
  0
LINE
  5
365
100
AcDbEntity
  8
8
  6
CONTINUOUS
 62
     6
100
AcDbLine
 10
395.957827
 20
279.168411
 30
0.0
 11
400.15
 21
283.360584
 31
0.0
  0
LINE
  5
366
100
AcDbEntity
  8
8
  6
CONTINUOUS
 62
     6
100
AcDbLine
 10
396.279608
 20
283.025726
 30
0.0
 11
400.15
 21
286.896118
 31
0.0
  0
LINE
  5
367
100
AcDbEntity
  8
8
  6
CONTINUOUS
 62
     6
100
AcDbLine
 10
396.576609
 20
286.858261
 30
0.0
 11
400.15
 21
290.431652
 31
0.0
  0
LINE
  5
368
100
AcDbEntity
  8
8
  6
CONTINUOUS
 62
     6
100
AcDbLine
 10
396.853425
 20
290.670611
 30
0.0
 11
400.15
 21
293.967186
 31
0.0
  0
LINE
  5
369
100
AcDbEntity
  8
8
  6
CONTINUOUS
 62
     6
100
AcDbLine
 10
397.114148
 20
294.466868
 30
0.0
 11
400.15
 21
297.50272
 31
0.0
  0
LINE
  5
36A
100
AcDbEntity
  8
8
  6
CONTINUOUS
 62
     6
100
AcDbLine
 10
397.362046
 20
298.2503
 30
0.0
 11
400.15
 21
301.038254
 31
0.0
  0
LINE
  5
36B
100
AcDbEntity
  8
8
  6
CONTINUOUS
 62
     6
100
AcDbLine
 10
397.599655
 20
302.023443
 30
0.0
 11
400.15
 21
304.573788
 31
0.0
  0
LINE
  5
36C
100
AcDbEntity
  8
8
  6
CONTINUOUS
 62
     6
100
AcDbLine
 10
397.829049
 20
305.78837
 30
0.0
 11
400.15
 21
308.109322
 31
0.0
  0
LINE
  5
36D
100
AcDbEntity
  8
8
  6
CONTINUOUS
 62
     6
100
AcDbLine
 10
398.052104
 20
309.54696
 30
0.0
 11
400.15
 21
311.644855
 31
0.0
  0
LINE
  5
36E
100
AcDbEntity
  8
8
  6
CONTINUOUS
 62
     6
100
AcDbLine
 10
398.270641
 20
313.301031
 30
0.0
 11
400.15
 21
315.180389
 31
0.0
  0
LINE
  5
36F
100
AcDbEntity
  8
8
  6
CONTINUOUS
 62
     6
100
AcDbLine
 10
398.48633
 20
317.052254
 30
0.0
 11
400.15
 21
318.715923
 31
0.0
  0
ENDBLK
  5
370
100
AcDbEntity
  8
0
100
AcDbBlockEnd
  0
BLOCK
  5
373
100
AcDbEntity
  8
8
  6
CONTINUOUS
 62
     6
100
AcDbBlockBegin
  2
*G30
 70
     0
 10
0.0
 20
0.0
 30
0.0
  3
*G30
  1

  0
LINE
  5
374
100
AcDbEntity
  8
8
  6
CONTINUOUS
 62
     6
100
AcDbLine
 10
416.15
 20
230.213009
 30
0.0
 11
419.780113
 21
233.843122
 31
0.0
  0
LINE
  5
375
100
AcDbEntity
  8
8
  6
CONTINUOUS
 62
     6
100
AcDbLine
 10
416.15
 20
233.748543
 30
0.0
 11
419.71839
 21
237.316933
 31
0.0
  0
LINE
  5
376
100
AcDbEntity
  8
8
  6
CONTINUOUS
 62
     6
100
AcDbLine
 10
416.15
 20
237.284077
 30
0.0
 11
419.409813
 21
240.54389
 31
0.0
  0
LINE
  5
377
100
AcDbEntity
  8
8
  6
CONTINUOUS
 62
     6
100
AcDbLine
 10
416.15
 20
240.819611
 30
0.0
 11
418.982546
 21
243.652157
 31
0.0
  0
LINE
  5
378
100
AcDbEntity
  8
8
  6
CONTINUOUS
 62
     6
100
AcDbLine
 10
412.794855
 20
241.0
 30
0.0
 11
418.509798
 21
246.714943
 31
0.0
  0
LINE
  5
379
100
AcDbEntity
  8
8
  6
CONTINUOUS
 62
     6
100
AcDbLine
 10
410.15
 20
241.890678
 30
0.0
 11
418.025117
 21
249.765795
 31
0.0
  0
LINE
  5
37A
100
AcDbEntity
  8
8
  6
CONTINUOUS
 62
     6
100
AcDbLine
 10
410.15
 20
245.426212
 30
0.0
 11
417.544536
 21
252.820748
 31
0.0
  0
LINE
  5
37B
100
AcDbEntity
  8
8
  6
CONTINUOUS
 62
     6
100
AcDbLine
 10
410.15
 20
248.961746
 30
0.0
 11
417.076289
 21
255.888035
 31
0.0
  0
LINE
  5
37C
100
AcDbEntity
  8
8
  6
CONTINUOUS
 62
     6
100
AcDbLine
 10
410.15
 20
252.49728
 30
0.0
 11
416.625542
 21
258.972822
 31
0.0
  0
LINE
  5
37D
100
AcDbEntity
  8
8
  6
CONTINUOUS
 62
     6
100
AcDbLine
 10
410.15
 20
256.032814
 30
0.0
 11
416.196231
 21
262.079045
 31
0.0
  0
LINE
  5
37E
100
AcDbEntity
  8
8
  6
CONTINUOUS
 62
     6
100
AcDbLine
 10
410.15
 20
259.568348
 30
0.0
 11
415.793438
 21
265.211786
 31
0.0
  0
LINE
  5
37F
100
AcDbEntity
  8
8
  6
CONTINUOUS
 62
     6
100
AcDbLine
 10
410.15
 20
263.103882
 30
0.0
 11
415.414527
 21
268.368408
 31
0.0
  0
LINE
  5
380
100
AcDbEntity
  8
8
  6
CONTINUOUS
 62
     6
100
AcDbLine
 10
410.15
 20
266.639416
 30
0.0
 11
415.06489
 21
271.554306
 31
0.0
  0
LINE
  5
381
100
AcDbEntity
  8
8
  6
CONTINUOUS
 62
     6
100
AcDbLine
 10
410.15
 20
270.17495
 30
0.0
 11
414.742822
 21
274.767771
 31
0.0
  0
LINE
  5
382
100
AcDbEntity
  8
8
  6
CONTINUOUS
 62
     6
100
AcDbLine
 10
410.15
 20
273.710484
 30
0.0
 11
414.443242
 21
278.003725
 31
0.0
  0
LINE
  5
383
100
AcDbEntity
  8
8
  6
CONTINUOUS
 62
     6
100
AcDbLine
 10
410.15
 20
277.246017
 30
0.0
 11
414.163885
 21
281.259902
 31
0.0
  0
LINE
  5
384
100
AcDbEntity
  8
8
  6
CONTINUOUS
 62
     6
100
AcDbLine
 10
410.15
 20
280.781551
 30
0.0
 11
413.900369
 21
284.531921
 31
0.0
  0
LINE
  5
385
100
AcDbEntity
  8
8
  6
CONTINUOUS
 62
     6
100
AcDbLine
 10
410.15
 20
284.317085
 30
0.0
 11
413.650416
 21
287.817501
 31
0.0
  0
LINE
  5
386
100
AcDbEntity
  8
8
  6
CONTINUOUS
 62
     6
100
AcDbLine
 10
410.15
 20
287.852619
 30
0.0
 11
413.414667
 21
291.117286
 31
0.0
  0
LINE
  5
387
100
AcDbEntity
  8
8
  6
CONTINUOUS
 62
     6
100
AcDbLine
 10
410.15
 20
291.388153
 30
0.0
 11
413.188561
 21
294.426714
 31
0.0
  0
LINE
  5
388
100
AcDbEntity
  8
8
  6
CONTINUOUS
 62
     6
100
AcDbLine
 10
410.15
 20
294.923687
 30
0.0
 11
412.970463
 21
297.74415
 31
0.0
  0
LINE
  5
389
100
AcDbEntity
  8
8
  6
CONTINUOUS
 62
     6
100
AcDbLine
 10
410.15
 20
298.459221
 30
0.0
 11
412.759277
 21
301.068498
 31
0.0
  0
LINE
  5
38A
100
AcDbEntity
  8
8
  6
CONTINUOUS
 62
     6
100
AcDbLine
 10
410.15
 20
301.994755
 30
0.0
 11
412.554135
 21
304.39889
 31
0.0
  0
LINE
  5
38B
100
AcDbEntity
  8
8
  6
CONTINUOUS
 62
     6
100
AcDbLine
 10
410.15
 20
305.530289
 30
0.0
 11
412.35443
 21
307.734719
 31
0.0
  0
LINE
  5
38C
100
AcDbEntity
  8
8
  6
CONTINUOUS
 62
     6
100
AcDbLine
 10
410.15
 20
309.065823
 30
0.0
 11
412.158391
 21
311.074213
 31
0.0
  0
LINE
  5
38D
100
AcDbEntity
  8
8
  6
CONTINUOUS
 62
     6
100
AcDbLine
 10
410.15
 20
312.601357
 30
0.0
 11
411.964888
 21
314.416244
 31
0.0
  0
LINE
  5
38E
100
AcDbEntity
  8
8
  6
CONTINUOUS
 62
     6
100
AcDbLine
 10
410.15
 20
316.13689
 30
0.0
 11
411.77319
 21
317.76008
 31
0.0
  0
LINE
  5
38F
100
AcDbEntity
  8
8
  6
CONTINUOUS
 62
     6
100
AcDbLine
 10
410.15
 20
319.672424
 30
0.0
 11
410.477576
 21
320.0
 31
0.0
  0
ENDBLK
  5
390
100
AcDbEntity
  8
0
100
AcDbBlockEnd
  0
BLOCK
  5
3C6
100
AcDbEntity
  8
1
  6
CONTINUOUS
 62
     4
100
AcDbBlockBegin
  2
*G31
 70
     0
 10
0.0
 20
0.0
 30
0.0
  3
*G31
  1

  0
LINE
  5
3C7
100
AcDbEntity
  8
1
  6
CONTINUOUS
 62
     4
100
AcDbLine
 10
288.85
 20
530.0
 30
0.0
 11
248.85
 21
530.0
 31
0.0
  0
LINE
  5
3C8
100
AcDbEntity
  8
1
  6
CONTINUOUS
 62
     4
100
AcDbLine
 10
248.85
 20
530.0
 30
0.0
 11
248.85
 21
565.0
 31
0.0
  0
LINE
  5
3C9
100
AcDbEntity
  8
1
  6
CONTINUOUS
 62
     4
100
AcDbLine
 10
253.85
 20
570.0
 30
0.0
 11
248.85
 21
565.0
 31
0.0
  0
LINE
  5
3CA
100
AcDbEntity
  8
1
  6
CONTINUOUS
 62
     4
100
AcDbLine
 10
253.85
 20
570.0
 30
0.0
 11
283.85
 21
570.0
 31
0.0
  0
LINE
  5
3CB
100
AcDbEntity
  8
1
  6
CONTINUOUS
 62
     4
100
AcDbLine
 10
288.85
 20
530.0
 30
0.0
 11
288.85
 21
565.0
 31
0.0
  0
LINE
  5
3CC
100
AcDbEntity
  8
1
  6
CONTINUOUS
 62
     4
100
AcDbLine
 10
283.85
 20
570.0
 30
0.0
 11
288.85
 21
565.0
 31
0.0
  0
ENDBLK
  5
3CD
100
AcDbEntity
  8
0
100
AcDbBlockEnd
  0
BLOCK
  5
3D1
100
AcDbEntity
  8
1
  6
CONTINUOUS
 62
     4
100
AcDbBlockBegin
  2
*G32
 70
     0
 10
0.0
 20
0.0
 30
0.0
  3
*G32
  1

  0
LINE
  5
3D2
100
AcDbEntity
  8
1
  6
CONTINUOUS
 62
     4
100
AcDbLine
 10
411.15
 20
530.0
 30
0.0
 11
451.15
 21
530.0
 31
0.0
  0
LINE
  5
3D3
100
AcDbEntity
  8
1
  6
CONTINUOUS
 62
     4
100
AcDbLine
 10
451.15
 20
530.0
 30
0.0
 11
451.15
 21
565.0
 31
0.0
  0
LINE
  5
3D4
100
AcDbEntity
  8
1
  6
CONTINUOUS
 62
     4
100
AcDbLine
 10
446.15
 20
570.0
 30
0.0
 11
451.15
 21
565.0
 31
0.0
  0
LINE
  5
3D5
100
AcDbEntity
  8
1
  6
CONTINUOUS
 62
     4
100
AcDbLine
 10
446.15
 20
570.0
 30
0.0
 11
416.15
 21
570.0
 31
0.0
  0
LINE
  5
3D6
100
AcDbEntity
  8
1
  6
CONTINUOUS
 62
     4
100
AcDbLine
 10
411.15
 20
530.0
 30
0.0
 11
411.15
 21
565.0
 31
0.0
  0
LINE
  5
3D7
100
AcDbEntity
  8
1
  6
CONTINUOUS
 62
     4
100
AcDbLine
 10
416.15
 20
570.0
 30
0.0
 11
411.15
 21
565.0
 31
0.0
  0
ENDBLK
  5
3D8
100
AcDbEntity
  8
0
100
AcDbBlockEnd
  0
BLOCK
  5
3E4
100
AcDbEntity
  8
1
  6
CONTINUOUS
 62
     4
100
AcDbBlockBegin
  2
*D33
 70
     0
 10
0.0
 20
0.0
 30
0.0
  3
*D33
  1

  0
LINE
  5
3E5
100
AcDbEntity
  8
1
  6
CONTINUOUS
 62
     4
100
AcDbLine
 10
528.15
 20
510.0
 30
0.0
 11
528.15
 21
590.0
 31
0.0
  0
LINE
  5
3E6
100
AcDbEntity
  8
1
  6
CONTINUOUS
 62
     4
100
AcDbLine
 10
533.15
 20
530.0
 30
0.0
 11
458.15
 21
530.0
 31
0.0
  0
LINE
  5
3E7
100
AcDbEntity
  8
1
  6
CONTINUOUS
 62
     4
100
AcDbLine
 10
533.15
 20
570.0
 30
0.0
 11
451.15
 21
570.0
 31
0.0
  0
LINE
  5
3E8
100
AcDbEntity
  8
1
  6
CONTINUOUS
 62
     4
100
AcDbLine
 10
528.15
 20
530.0
 30
0.0
 11
530.73819
 21
520.340742
 31
0.0
  0
LINE
  5
3E9
100
AcDbEntity
  8
1
  6
CONTINUOUS
 62
     4
100
AcDbLine
 10
528.15
 20
530.0
 30
0.0
 11
525.56181
 21
520.340742
 31
0.0
  0
LINE
  5
3EA
100
AcDbEntity
  8
1
  6
CONTINUOUS
 62
     4
100
AcDbLine
 10
528.15
 20
570.0
 30
0.0
 11
525.56181
 21
579.659258
 31
0.0
  0
LINE
  5
3EB
100
AcDbEntity
  8
1
  6
CONTINUOUS
 62
     4
100
AcDbLine
 10
528.15
 20
570.0
 30
0.0
 11
530.73819
 21
579.659258
 31
0.0
  0
TEXT
  5
3EC
100
AcDbEntity
  8
1
  6
CONTINUOUS
 62
     4
100
AcDbText
 10
528.15
 20
535.0
 30
0.0
 40
15.0
  1
(40)
 50
90.0
 41
0.5
 11
528.15
 21
535.0
 31
0.0
100
AcDbText
 73
     1
  0
ENDBLK
  5
3ED
100
AcDbEntity
  8
1
  6
CONTINUOUS
 62
     4
100
AcDbBlockEnd
  0
BLOCK
  5
3FE
100
AcDbEntity
  8
1
  6
CONTINUOUS
 62
     4
100
AcDbBlockBegin
  2
*D34
 70
     0
 10
0.0
 20
0.0
 30
0.0
  3
*D34
  1

  0
LINE
  5
3FF
100
AcDbEntity
  8
1
  6
CONTINUOUS
 62
     4
100
AcDbLine
 10
320.65
 20
660.0
 30
0.0
 11
406.909093
 21
660.0
 31
0.0
  0
LINE
  5
400
100
AcDbEntity
  8
1
  6
CONTINUOUS
 62
     4
100
AcDbLine
 10
340.65
 20
660.0
 30
0.0
 11
330.990742
 21
657.41181
 31
0.0
  0
LINE
  5
401
100
AcDbEntity
  8
1
  6
CONTINUOUS
 62
     4
100
AcDbLine
 10
340.65
 20
660.0
 30
0.0
 11
330.990742
 21
662.58819
 31
0.0
  0
LINE
  5
402
100
AcDbEntity
  8
1
  6
CONTINUOUS
 62
     4
100
AcDbLine
 10
359.35
 20
660.0
 30
0.0
 11
369.009258
 21
662.58819
 31
0.0
  0
LINE
  5
403
100
AcDbEntity
  8
1
  6
CONTINUOUS
 62
     4
100
AcDbLine
 10
359.35
 20
660.0
 30
0.0
 11
369.009258
 21
657.41181
 31
0.0
  0
TEXT
  5
404
100
AcDbEntity
  8
1
  6
CONTINUOUS
 62
     4
100
AcDbText
 10
366.284093
 20
660.0
 30
0.0
 40
15.0
  1
%%c18.7
 41
0.652174
 11
366.284093
 21
660.0
 31
0.0
100
AcDbText
 73
     1
  0
ENDBLK
  5
405
100
AcDbEntity
  8
1
  6
CONTINUOUS
 62
     4
100
AcDbBlockEnd
  0
BLOCK
  5
431
100
AcDbEntity
  8
7
  6
CONTINUOUS
 62
     4
100
AcDbBlockBegin
  2
*G35
 70
     0
 10
0.0
 20
0.0
 30
0.0
  3
*G35
  1

  0
LINE
  5
432
100
AcDbEntity
  8
7
  6
CONTINUOUS
 62
     4
100
AcDbLine
 10
272.5
 20
630.0
 30
0.0
 11
272.5
 21
615.0
 31
0.0
  0
LINE
  5
433
100
AcDbEntity
  8
7
  6
CONTINUOUS
 62
     4
100
AcDbLine
 10
272.5
 20
615.0
 30
0.0
 11
323.0
 21
615.0
 31
0.0
  0
LINE
  5
434
100
AcDbEntity
  8
7
  6
CONTINUOUS
 62
     4
100
AcDbLine
 10
272.5
 20
630.0
 30
0.0
 11
318.0
 21
630.0
 31
0.0
  0
LINE
  5
435
100
AcDbEntity
  8
7
  6
CONTINUOUS
 62
     4
100
AcDbLine
 10
318.0
 20
630.0
 30
0.0
 11
323.0
 21
625.0
 31
0.0
  0
LINE
  5
436
100
AcDbEntity
  8
7
  6
CONTINUOUS
 62
     4
100
AcDbLine
 10
323.0
 20
615.0
 30
0.0
 11
323.0
 21
625.0
 31
0.0
  0
LINE
  5
437
100
AcDbEntity
  8
7
  6
CONTINUOUS
 62
     4
100
AcDbLine
 10
323.0
 20
625.0
 30
0.0
 11
328.0
 21
630.0
 31
0.0
  0
LINE
  5
438
100
AcDbEntity
  8
7
  6
CONTINUOUS
 62
     4
100
AcDbLine
 10
315.0
 20
615.0
 30
0.0
 11
320.0
 21
610.0
 31
0.0
  0
ENDBLK
  5
439
100
AcDbEntity
  8
0
100
AcDbBlockEnd
  0
BLOCK
  5
43D
100
AcDbEntity
  8
7
  6
CONTINUOUS
 62
     4
100
AcDbBlockBegin
  2
*G36
 70
     0
 10
0.0
 20
0.0
 30
0.0
  3
*G36
  1

  0
LINE
  5
43E
100
AcDbEntity
  8
7
  6
CONTINUOUS
 62
     4
100
AcDbLine
 10
427.5
 20
630.0
 30
0.0
 11
427.5
 21
615.0
 31
0.0
  0
LINE
  5
43F
100
AcDbEntity
  8
7
  6
CONTINUOUS
 62
     4
100
AcDbLine
 10
427.5
 20
615.0
 30
0.0
 11
377.0
 21
615.0
 31
0.0
  0
LINE
  5
440
100
AcDbEntity
  8
7
  6
CONTINUOUS
 62
     4
100
AcDbLine
 10
427.5
 20
630.0
 30
0.0
 11
382.0
 21
630.0
 31
0.0
  0
LINE
  5
441
100
AcDbEntity
  8
7
  6
CONTINUOUS
 62
     4
100
AcDbLine
 10
382.0
 20
630.0
 30
0.0
 11
377.0
 21
625.0
 31
0.0
  0
LINE
  5
442
100
AcDbEntity
  8
7
  6
CONTINUOUS
 62
     4
100
AcDbLine
 10
377.0
 20
615.0
 30
0.0
 11
377.0
 21
625.0
 31
0.0
  0
LINE
  5
443
100
AcDbEntity
  8
7
  6
CONTINUOUS
 62
     4
100
AcDbLine
 10
377.0
 20
625.0
 30
0.0
 11
372.0
 21
630.0
 31
0.0
  0
LINE
  5
444
100
AcDbEntity
  8
7
  6
CONTINUOUS
 62
     4
100
AcDbLine
 10
385.0
 20
615.0
 30
0.0
 11
380.0
 21
610.0
 31
0.0
  0
ENDBLK
  5
445
100
AcDbEntity
  8
0
100
AcDbBlockEnd
  0
BLOCK
  5
44E
100
AcDbEntity
  8
1
  6
CONTINUOUS
 62
     4
100
AcDbBlockBegin
  2
*G37
 70
     0
 10
0.0
 20
0.0
 30
0.0
  3
*G37
  1

  0
LINE
  5
44F
100
AcDbEntity
  8
1
  6
CONTINUOUS
 62
     4
100
AcDbLine
 10
248.85
 20
825.0
 30
0.0
 11
248.85
 21
835.0
 31
0.0
  0
LINE
  5
450
100
AcDbEntity
  8
1
  6
CONTINUOUS
 62
     4
100
AcDbLine
 10
288.85
 20
835.0
 30
0.0
 11
288.85
 21
825.0
 31
0.0
  0
LINE
  5
451
100
AcDbEntity
  8
1
  6
CONTINUOUS
 62
     4
100
AcDbLine
 10
248.85
 20
835.0
 30
0.0
 11
272.661459
 21
835.0
 31
0.0
  0
LINE
  5
452
100
AcDbEntity
  8
1
  6
CONTINUOUS
 62
     4
100
AcDbLine
 10
281.922253
 20
835.0
 30
0.0
 11
288.85
 21
835.0
 31
0.0
  0
LINE
  5
453
100
AcDbEntity
  8
1
  6
CONTINUOUS
 62
     4
100
AcDbLine
 10
288.85
 20
825.0
 30
0.0
 11
281.922253
 21
825.0
 31
0.0
  0
LINE
  5
454
100
AcDbEntity
  8
1
  6
CONTINUOUS
 62
     4
100
AcDbLine
 10
272.661459
 20
825.0
 30
0.0
 11
248.85
 21
825.0
 31
0.0
  0
ENDBLK
  5
455
100
AcDbEntity
  8
0
100
AcDbBlockEnd
  0
BLOCK
  5
458
100
AcDbEntity
  8
1
  6
CONTINUOUS
 62
     4
100
AcDbBlockBegin
  2
*G38
 70
     0
 10
0.0
 20
0.0
 30
0.0
  3
*G38
  1

  0
LINE
  5
459
100
AcDbEntity
  8
1
  6
CONTINUOUS
 62
     4
100
AcDbLine
 10
451.15
 20
825.0
 30
0.0
 11
451.15
 21
835.0
 31
0.0
  0
LINE
  5
45A
100
AcDbEntity
  8
1
  6
CONTINUOUS
 62
     4
100
AcDbLine
 10
411.15
 20
835.0
 30
0.0
 11
411.15
 21
825.0
 31
0.0
  0
LINE
  5
45B
100
AcDbEntity
  8
1
  6
CONTINUOUS
 62
     4
100
AcDbLine
 10
451.15
 20
835.0
 30
0.0
 11
427.338541
 21
835.0
 31
0.0
  0
LINE
  5
45C
100
AcDbEntity
  8
1
  6
CONTINUOUS
 62
     4
100
AcDbLine
 10
418.077747
 20
835.0
 30
0.0
 11
411.15
 21
835.0
 31
0.0
  0
LINE
  5
45D
100
AcDbEntity
  8
1
  6
CONTINUOUS
 62
     4
100
AcDbLine
 10
411.15
 20
825.0
 30
0.0
 11
418.077747
 21
825.0
 31
0.0
  0
LINE
  5
45E
100
AcDbEntity
  8
1
  6
CONTINUOUS
 62
     4
100
AcDbLine
 10
427.338541
 20
825.0
 30
0.0
 11
451.15
 21
825.0
 31
0.0
  0
ENDBLK
  5
45F
100
AcDbEntity
  8
0
100
AcDbBlockEnd
  0
BLOCK
  5
468
100
AcDbEntity
  8
8
  6
CONTINUOUS
 62
     6
100
AcDbBlockBegin
  2
*G39
 70
     0
 10
0.0
 20
0.0
 30
0.0
  3
*G39
  1

  0
LINE
  5
469
100
AcDbEntity
  8
8
  6
CONTINUOUS
 62
     6
100
AcDbLine
 10
322.5
 20
625.5
 30
0.0
 11
323.5
 21
625.5
 31
0.0
  0
LINE
  5
46A
100
AcDbEntity
  8
8
  6
CONTINUOUS
 62
     6
100
AcDbLine
 10
321.5
 20
626.5
 30
0.0
 11
324.5
 21
626.5
 31
0.0
  0
LINE
  5
46B
100
AcDbEntity
  8
8
  6
CONTINUOUS
 62
     6
100
AcDbLine
 10
320.5
 20
627.5
 30
0.0
 11
325.5
 21
627.5
 31
0.0
  0
LINE
  5
46C
100
AcDbEntity
  8
8
  6
CONTINUOUS
 62
     6
100
AcDbLine
 10
319.5
 20
628.5
 30
0.0
 11
326.5
 21
628.5
 31
0.0
  0
LINE
  5
46D
100
AcDbEntity
  8
8
  6
CONTINUOUS
 62
     6
100
AcDbLine
 10
318.5
 20
629.5
 30
0.0
 11
327.5
 21
629.5
 31
0.0
  0
ENDBLK
  5
46E
100
AcDbEntity
  8
0
100
AcDbBlockEnd
  0
BLOCK
  5
471
100
AcDbEntity
  8
8
  6
CONTINUOUS
 62
     6
100
AcDbBlockBegin
  2
*G40
 70
     0
 10
0.0
 20
0.0
 30
0.0
  3
*G40
  1

  0
LINE
  5
472
100
AcDbEntity
  8
8
  6
CONTINUOUS
 62
     6
100
AcDbLine
 10
376.5
 20
625.5
 30
0.0
 11
377.5
 21
625.5
 31
0.0
  0
LINE
  5
473
100
AcDbEntity
  8
8
  6
CONTINUOUS
 62
     6
100
AcDbLine
 10
375.5
 20
626.5
 30
0.0
 11
378.5
 21
626.5
 31
0.0
  0
LINE
  5
474
100
AcDbEntity
  8
8
  6
CONTINUOUS
 62
     6
100
AcDbLine
 10
374.5
 20
627.5
 30
0.0
 11
379.5
 21
627.5
 31
0.0
  0
LINE
  5
475
100
AcDbEntity
  8
8
  6
CONTINUOUS
 62
     6
100
AcDbLine
 10
373.5
 20
628.5
 30
0.0
 11
380.5
 21
628.5
 31
0.0
  0
LINE
  5
476
100
AcDbEntity
  8
8
  6
CONTINUOUS
 62
     6
100
AcDbLine
 10
372.5
 20
629.5
 30
0.0
 11
381.5
 21
629.5
 31
0.0
  0
ENDBLK
  5
477
100
AcDbEntity
  8
0
100
AcDbBlockEnd
  0
BLOCK
  5
47A
100
AcDbEntity
  8
8
  6
CONTINUOUS
 62
     6
100
AcDbBlockBegin
  2
*G41
 70
     0
 10
0.0
 20
0.0
 30
0.0
  3
*G41
  1

  0
LINE
  5
47B
100
AcDbEntity
  8
8
  6
CONTINUOUS
 62
     6
100
AcDbLine
 10
319.5
 20
610.5
 30
0.0
 11
320.0
 21
610.5
 31
0.0
  0
LINE
  5
47C
100
AcDbEntity
  8
8
  6
CONTINUOUS
 62
     6
100
AcDbLine
 10
318.5
 20
611.5
 30
0.0
 11
320.0
 21
611.5
 31
0.0
  0
LINE
  5
47D
100
AcDbEntity
  8
8
  6
CONTINUOUS
 62
     6
100
AcDbLine
 10
317.5
 20
612.5
 30
0.0
 11
320.0
 21
612.5
 31
0.0
  0
LINE
  5
47E
100
AcDbEntity
  8
8
  6
CONTINUOUS
 62
     6
100
AcDbLine
 10
316.5
 20
613.5
 30
0.0
 11
320.0
 21
613.5
 31
0.0
  0
LINE
  5
47F
100
AcDbEntity
  8
8
  6
CONTINUOUS
 62
     6
100
AcDbLine
 10
315.5
 20
614.5
 30
0.0
 11
320.0
 21
614.5
 31
0.0
  0
ENDBLK
  5
480
100
AcDbEntity
  8
0
100
AcDbBlockEnd
  0
BLOCK
  5
483
100
AcDbEntity
  8
8
  6
CONTINUOUS
 62
     6
100
AcDbBlockBegin
  2
*G42
 70
     0
 10
0.0
 20
0.0
 30
0.0
  3
*G42
  1

  0
LINE
  5
484
100
AcDbEntity
  8
8
  6
CONTINUOUS
 62
     6
100
AcDbLine
 10
380.0
 20
610.5
 30
0.0
 11
380.5
 21
610.5
 31
0.0
  0
LINE
  5
485
100
AcDbEntity
  8
8
  6
CONTINUOUS
 62
     6
100
AcDbLine
 10
380.0
 20
611.5
 30
0.0
 11
381.5
 21
611.5
 31
0.0
  0
LINE
  5
486
100
AcDbEntity
  8
8
  6
CONTINUOUS
 62
     6
100
AcDbLine
 10
380.0
 20
612.5
 30
0.0
 11
382.5
 21
612.5
 31
0.0
  0
LINE
  5
487
100
AcDbEntity
  8
8
  6
CONTINUOUS
 62
     6
100
AcDbLine
 10
380.0
 20
613.5
 30
0.0
 11
383.5
 21
613.5
 31
0.0
  0
LINE
  5
488
100
AcDbEntity
  8
8
  6
CONTINUOUS
 62
     6
100
AcDbLine
 10
380.0
 20
614.5
 30
0.0
 11
384.5
 21
614.5
 31
0.0
  0
ENDBLK
  5
489
100
AcDbEntity
  8
0
100
AcDbBlockEnd
  0
BLOCK
  5
48D
100
AcDbEntity
  8
1
  6
CONTINUOUS
 62
     4
100
AcDbBlockBegin
  2
*G43
 70
     0
 10
0.0
 20
0.0
 30
0.0
  3
*G43
  1

  0
LINE
  5
48E
100
AcDbEntity
  8
1
  6
CONTINUOUS
 62
     4
100
AcDbLine
 10
322.5
 20
530.0
 30
0.0
 11
322.5
 21
505.0
 31
0.0
  0
LINE
  5
48F
100
AcDbEntity
  8
1
  6
CONTINUOUS
 62
     4
100
AcDbLine
 10
322.5
 20
505.0
 30
0.0
 11
241.85
 21
505.0
 31
0.0
  0
LINE
  5
490
100
AcDbEntity
  8
1
  6
CONTINUOUS
 62
     4
100
AcDbLine
 10
241.85
 20
505.0
 30
0.0
 11
241.85
 21
525.0
 31
0.0
  0
LINE
  5
491
100
AcDbEntity
  8
1
  6
CONTINUOUS
 62
     4
100
AcDbLine
 10
322.5
 20
530.0
 30
0.0
 11
246.85
 21
530.0
 31
0.0
  0
LINE
  5
492
100
AcDbEntity
  8
1
  6
CONTINUOUS
 62
     4
100
AcDbLine
 10
241.85
 20
525.0
 30
0.0
 11
246.85
 21
530.0
 31
0.0
  0
LINE
  5
493
100
AcDbEntity
  8
1
  6
CONTINUOUS
 62
     4
100
AcDbLine
 10
315.0
 20
530.0
 30
0.0
 11
320.0
 21
535.0
 31
0.0
  0
LINE
  5
494
100
AcDbEntity
  8
1
  6
CONTINUOUS
 62
     4
100
AcDbLine
 10
322.5
 20
505.0
 30
0.0
 11
327.5
 21
510.0
 31
0.0
  0
ENDBLK
  5
495
100
AcDbEntity
  8
0
100
AcDbBlockEnd
  0
BLOCK
  5
49C
100
AcDbEntity
  8
1
  6
CONTINUOUS
 62
     4
100
AcDbBlockBegin
  2
*G44
 70
     0
 10
0.0
 20
0.0
 30
0.0
  3
*G44
  1

  0
LINE
  5
49D
100
AcDbEntity
  8
1
  6
CONTINUOUS
 62
     4
100
AcDbLine
 10
377.5
 20
530.0
 30
0.0
 11
377.5
 21
505.0
 31
0.0
  0
LINE
  5
49E
100
AcDbEntity
  8
1
  6
CONTINUOUS
 62
     4
100
AcDbLine
 10
377.5
 20
505.0
 30
0.0
 11
458.15
 21
505.0
 31
0.0
  0
LINE
  5
49F
100
AcDbEntity
  8
1
  6
CONTINUOUS
 62
     4
100
AcDbLine
 10
458.15
 20
505.0
 30
0.0
 11
458.15
 21
525.0
 31
0.0
  0
LINE
  5
4A0
100
AcDbEntity
  8
1
  6
CONTINUOUS
 62
     4
100
AcDbLine
 10
377.5
 20
530.0
 30
0.0
 11
453.15
 21
530.0
 31
0.0
  0
LINE
  5
4A1
100
AcDbEntity
  8
1
  6
CONTINUOUS
 62
     4
100
AcDbLine
 10
458.15
 20
525.0
 30
0.0
 11
453.15
 21
530.0
 31
0.0
  0
ENDBLK
  5
4A2
100
AcDbEntity
  8
0
100
AcDbBlockEnd
  0
BLOCK
  5
4A6
100
AcDbEntity
  8
8
  6
CONTINUOUS
 62
     6
100
AcDbBlockBegin
  2
*G45
 70
     0
 10
0.0
 20
0.0
 30
0.0
  3
*G45
  1

  0
LINE
  5
4A7
100
AcDbEntity
  8
8
  6
CONTINUOUS
 62
     6
100
AcDbLine
 10
315.5
 20
530.5
 30
0.0
 11
320.0
 21
530.5
 31
0.0
  0
LINE
  5
4A8
100
AcDbEntity
  8
8
  6
CONTINUOUS
 62
     6
100
AcDbLine
 10
316.5
 20
531.5
 30
0.0
 11
320.0
 21
531.5
 31
0.0
  0
LINE
  5
4A9
100
AcDbEntity
  8
8
  6
CONTINUOUS
 62
     6
100
AcDbLine
 10
317.5
 20
532.5
 30
0.0
 11
320.0
 21
532.5
 31
0.0
  0
LINE
  5
4AA
100
AcDbEntity
  8
8
  6
CONTINUOUS
 62
     6
100
AcDbLine
 10
318.5
 20
533.5
 30
0.0
 11
320.0
 21
533.5
 31
0.0
  0
LINE
  5
4AB
100
AcDbEntity
  8
8
  6
CONTINUOUS
 62
     6
100
AcDbLine
 10
319.5
 20
534.5
 30
0.0
 11
320.0
 21
534.5
 31
0.0
  0
ENDBLK
  5
4AC
100
AcDbEntity
  8
0
100
AcDbBlockEnd
  0
BLOCK
  5
4AF
100
AcDbEntity
  8
8
  6
CONTINUOUS
 62
     6
100
AcDbBlockBegin
  2
*G46
 70
     0
 10
0.0
 20
0.0
 30
0.0
  3
*G46
  1

  0
LINE
  5
4B0
100
AcDbEntity
  8
8
  6
CONTINUOUS
 62
     6
100
AcDbLine
 10
380.0
 20
530.5
 30
0.0
 11
384.5
 21
530.5
 31
0.0
  0
LINE
  5
4B1
100
AcDbEntity
  8
8
  6
CONTINUOUS
 62
     6
100
AcDbLine
 10
380.0
 20
531.5
 30
0.0
 11
383.5
 21
531.5
 31
0.0
  0
LINE
  5
4B2
100
AcDbEntity
  8
8
  6
CONTINUOUS
 62
     6
100
AcDbLine
 10
380.0
 20
532.5
 30
0.0
 11
382.5
 21
532.5
 31
0.0
  0
LINE
  5
4B3
100
AcDbEntity
  8
8
  6
CONTINUOUS
 62
     6
100
AcDbLine
 10
380.0
 20
533.5
 30
0.0
 11
381.5
 21
533.5
 31
0.0
  0
LINE
  5
4B4
100
AcDbEntity
  8
8
  6
CONTINUOUS
 62
     6
100
AcDbLine
 10
380.0
 20
534.5
 30
0.0
 11
380.5
 21
534.5
 31
0.0
  0
ENDBLK
  5
4B5
100
AcDbEntity
  8
0
100
AcDbBlockEnd
  0
BLOCK
  5
4B8
100
AcDbEntity
  8
8
  6
CONTINUOUS
 62
     6
100
AcDbBlockBegin
  2
*G47
 70
     0
 10
0.0
 20
0.0
 30
0.0
  3
*G47
  1

  0
LINE
  5
4B9
100
AcDbEntity
  8
8
  6
CONTINUOUS
 62
     6
100
AcDbLine
 10
322.5
 20
505.5
 30
0.0
 11
323.0
 21
505.5
 31
0.0
  0
LINE
  5
4BA
100
AcDbEntity
  8
8
  6
CONTINUOUS
 62
     6
100
AcDbLine
 10
322.5
 20
506.5
 30
0.0
 11
324.0
 21
506.5
 31
0.0
  0
LINE
  5
4BB
100
AcDbEntity
  8
8
  6
CONTINUOUS
 62
     6
100
AcDbLine
 10
322.5
 20
507.5
 30
0.0
 11
325.0
 21
507.5
 31
0.0
  0
LINE
  5
4BC
100
AcDbEntity
  8
8
  6
CONTINUOUS
 62
     6
100
AcDbLine
 10
322.5
 20
508.5
 30
0.0
 11
326.0
 21
508.5
 31
0.0
  0
LINE
  5
4BD
100
AcDbEntity
  8
8
  6
CONTINUOUS
 62
     6
100
AcDbLine
 10
322.5
 20
509.5
 30
0.0
 11
327.0
 21
509.5
 31
0.0
  0
ENDBLK
  5
4BE
100
AcDbEntity
  8
0
100
AcDbBlockEnd
  0
BLOCK
  5
4C1
100
AcDbEntity
  8
8
  6
CONTINUOUS
 62
     6
100
AcDbBlockBegin
  2
*G48
 70
     0
 10
0.0
 20
0.0
 30
0.0
  3
*G48
  1

  0
LINE
  5
4C2
100
AcDbEntity
  8
8
  6
CONTINUOUS
 62
     6
100
AcDbLine
 10
377.0
 20
505.5
 30
0.0
 11
377.5
 21
505.5
 31
0.0
  0
LINE
  5
4C3
100
AcDbEntity
  8
8
  6
CONTINUOUS
 62
     6
100
AcDbLine
 10
376.0
 20
506.5
 30
0.0
 11
377.5
 21
506.5
 31
0.0
  0
LINE
  5
4C4
100
AcDbEntity
  8
8
  6
CONTINUOUS
 62
     6
100
AcDbLine
 10
375.0
 20
507.5
 30
0.0
 11
377.5
 21
507.5
 31
0.0
  0
LINE
  5
4C5
100
AcDbEntity
  8
8
  6
CONTINUOUS
 62
     6
100
AcDbLine
 10
374.0
 20
508.5
 30
0.0
 11
377.5
 21
508.5
 31
0.0
  0
LINE
  5
4C6
100
AcDbEntity
  8
8
  6
CONTINUOUS
 62
     6
100
AcDbLine
 10
373.0
 20
509.5
 30
0.0
 11
377.5
 21
509.5
 31
0.0
  0
ENDBLK
  5
4C7
100
AcDbEntity
  8
0
100
AcDbBlockEnd
  0
BLOCK
  5
4CC
100
AcDbEntity
  8
7
  6
CONTINUOUS
 62
     4
100
AcDbBlockBegin
  2
*D49
 70
     0
 10
0.0
 20
0.0
 30
0.0
  3
*D49
  1

  0
LINE
  5
4CD
100
AcDbEntity
  8
7
  6
CONTINUOUS
 62
     4
100
AcDbLine
 10
272.5
 20
686.22
 30
0.0
 11
427.5
 21
686.22
 31
0.0
  0
LINE
  5
4CE
100
AcDbEntity
  8
7
  6
CONTINUOUS
 62
     4
100
AcDbLine
 10
272.5
 20
691.22
 30
0.0
 11
272.5
 21
635.0
 31
0.0
  0
LINE
  5
4CF
100
AcDbEntity
  8
7
  6
CONTINUOUS
 62
     4
100
AcDbLine
 10
427.5
 20
691.22
 30
0.0
 11
427.5
 21
635.0
 31
0.0
  0
LINE
  5
4D0
100
AcDbEntity
  8
7
  6
CONTINUOUS
 62
     4
100
AcDbLine
 10
272.5
 20
686.22
 30
0.0
 11
282.159258
 21
688.80819
 31
0.0
  0
LINE
  5
4D1
100
AcDbEntity
  8
7
  6
CONTINUOUS
 62
     4
100
AcDbLine
 10
272.5
 20
686.22
 30
0.0
 11
282.159258
 21
683.63181
 31
0.0
  0
LINE
  5
4D2
100
AcDbEntity
  8
7
  6
CONTINUOUS
 62
     4
100
AcDbLine
 10
427.5
 20
686.22
 30
0.0
 11
417.840742
 21
683.63181
 31
0.0
  0
LINE
  5
4D3
100
AcDbEntity
  8
7
  6
CONTINUOUS
 62
     4
100
AcDbLine
 10
427.5
 20
686.22
 30
0.0
 11
417.840742
 21
688.80819
 31
0.0
  0
TEXT
  5
4D4
100
AcDbEntity
  8
7
  6
CONTINUOUS
 62
     4
100
AcDbText
 10
331.25
 20
686.22
 30
0.0
 40
15.0
  1
%%c155
 41
0.625
 11
331.25
 21
686.22
 31
0.0
100
AcDbText
 73
     1
  0
ENDBLK
  5
4D5
100
AcDbEntity
  8
7
  6
CONTINUOUS
 62
     4
100
AcDbBlockEnd
  0
BLOCK
  5
4D8
100
AcDbEntity
  8
7
  6
CONTINUOUS
 62
     4
100
AcDbBlockBegin
  2
*D50
 70
     0
 10
0.0
 20
0.0
 30
0.0
  3
*D50
  1

  0
LINE
  5
4D9
100
AcDbEntity
  8
7
  6
CONTINUOUS
 62
     4
100
AcDbLine
 10
307.465319
 20
787.682144
 30
0.0
 11
392.534681
 21
872.317856
 31
0.0
  0
LINE
  5
4DA
100
AcDbEntity
  8
7
  6
CONTINUOUS
 62
     4
100
AcDbLine
 10
307.465319
 20
787.682144
 30
0.0
 11
312.487432
 21
796.329594
 31
0.0
  0
LINE
  5
4DB
100
AcDbEntity
  8
7
  6
CONTINUOUS
 62
     4
100
AcDbLine
 10
307.465319
 20
787.682144
 30
0.0
 11
316.138321
 21
792.659998
 31
0.0
  0
LINE
  5
4DC
100
AcDbEntity
  8
7
  6
CONTINUOUS
 62
     4
100
AcDbLine
 10
392.534681
 20
872.317856
 30
0.0
 11
387.512568
 21
863.670406
 31
0.0
  0
LINE
  5
4DD
100
AcDbEntity
  8
7
  6
CONTINUOUS
 62
     4
100
AcDbLine
 10
392.534681
 20
872.317856
 30
0.0
 11
383.861679
 21
867.340002
 31
0.0
  0
TEXT
  5
4DE
100
AcDbEntity
  8
7
  6
CONTINUOUS
 62
     4
100
AcDbText
 10
361.957582
 20
841.896627
 30
0.0
 40
15.0
  1
%%c120
 50
44.853591
 41
0.625
 11
361.957582
 21
841.896627
 31
0.0
100
AcDbText
 73
     1
  0
ENDBLK
  5
4DF
100
AcDbEntity
  8
7
  6
CONTINUOUS
 62
     4
100
AcDbBlockEnd
  0
BLOCK
  5
4EC
100
AcDbEntity
  8
8
  6
CONTINUOUS
 62
     6
100
AcDbBlockBegin
  2
*G51
 70
     0
 10
0.0
 20
0.0
 30
0.0
  3
*G51
  1

  0
LINE
  5
4ED
100
AcDbEntity
  8
8
  6
CONTINUOUS
 62
     6
100
AcDbLine
 10
241.85
 20
491.0
 30
0.0
 11
243.183333
 21
491.0
 31
0.0
  0
LINE
  5
4EE
100
AcDbEntity
  8
8
  6
CONTINUOUS
 62
     6
100
AcDbLine
 10
241.85
 20
492.0
 30
0.0
 11
244.516667
 21
492.0
 31
0.0
  0
LINE
  5
4EF
100
AcDbEntity
  8
8
  6
CONTINUOUS
 62
     6
100
AcDbLine
 10
241.85
 20
493.0
 30
0.0
 11
245.85
 21
493.0
 31
0.0
  0
LINE
  5
4F0
100
AcDbEntity
  8
8
  6
CONTINUOUS
 62
     6
100
AcDbLine
 10
241.85
 20
494.0
 30
0.0
 11
247.183333
 21
494.0
 31
0.0
  0
LINE
  5
4F1
100
AcDbEntity
  8
8
  6
CONTINUOUS
 62
     6
100
AcDbLine
 10
241.85
 20
495.0
 30
0.0
 11
248.516667
 21
495.0
 31
0.0
  0
LINE
  5
4F2
100
AcDbEntity
  8
8
  6
CONTINUOUS
 62
     6
100
AcDbLine
 10
241.85
 20
496.0
 30
0.0
 11
249.85
 21
496.0
 31
0.0
  0
LINE
  5
4F3
100
AcDbEntity
  8
8
  6
CONTINUOUS
 62
     6
100
AcDbLine
 10
241.85
 20
497.0
 30
0.0
 11
251.183333
 21
497.0
 31
0.0
  0
LINE
  5
4F4
100
AcDbEntity
  8
8
  6
CONTINUOUS
 62
     6
100
AcDbLine
 10
241.85
 20
498.0
 30
0.0
 11
252.516667
 21
498.0
 31
0.0
  0
LINE
  5
4F5
100
AcDbEntity
  8
8
  6
CONTINUOUS
 62
     6
100
AcDbLine
 10
241.85
 20
499.0
 30
0.0
 11
253.85
 21
499.0
 31
0.0
  0
LINE
  5
4F6
100
AcDbEntity
  8
8
  6
CONTINUOUS
 62
     6
100
AcDbLine
 10
241.85
 20
500.0
 30
0.0
 11
255.183333
 21
500.0
 31
0.0
  0
LINE
  5
4F7
100
AcDbEntity
  8
8
  6
CONTINUOUS
 62
     6
100
AcDbLine
 10
241.85
 20
501.0
 30
0.0
 11
256.516667
 21
501.0
 31
0.0
  0
LINE
  5
4F8
100
AcDbEntity
  8
8
  6
CONTINUOUS
 62
     6
100
AcDbLine
 10
241.85
 20
502.0
 30
0.0
 11
257.85
 21
502.0
 31
0.0
  0
LINE
  5
4F9
100
AcDbEntity
  8
8
  6
CONTINUOUS
 62
     6
100
AcDbLine
 10
241.85
 20
503.0
 30
0.0
 11
259.183333
 21
503.0
 31
0.0
  0
LINE
  5
4FA
100
AcDbEntity
  8
8
  6
CONTINUOUS
 62
     6
100
AcDbLine
 10
241.85
 20
504.0
 30
0.0
 11
260.516667
 21
504.0
 31
0.0
  0
LINE
  5
4FB
100
AcDbEntity
  8
8
  6
CONTINUOUS
 62
     6
100
AcDbLine
 10
241.85
 20
505.0
 30
0.0
 11
261.85
 21
505.0
 31
0.0
  0
LINE
  5
4FC
100
AcDbEntity
  8
8
  6
CONTINUOUS
 62
     6
100
AcDbLine
 10
241.85
 20
506.0
 30
0.0
 11
260.516667
 21
506.0
 31
0.0
  0
LINE
  5
4FD
100
AcDbEntity
  8
8
  6
CONTINUOUS
 62
     6
100
AcDbLine
 10
241.85
 20
507.0
 30
0.0
 11
259.183333
 21
507.0
 31
0.0
  0
LINE
  5
4FE
100
AcDbEntity
  8
8
  6
CONTINUOUS
 62
     6
100
AcDbLine
 10
241.85
 20
508.0
 30
0.0
 11
257.85
 21
508.0
 31
0.0
  0
LINE
  5
4FF
100
AcDbEntity
  8
8
  6
CONTINUOUS
 62
     6
100
AcDbLine
 10
241.85
 20
509.0
 30
0.0
 11
256.516667
 21
509.0
 31
0.0
  0
LINE
  5
500
100
AcDbEntity
  8
8
  6
CONTINUOUS
 62
     6
100
AcDbLine
 10
241.85
 20
510.0
 30
0.0
 11
255.183333
 21
510.0
 31
0.0
  0
LINE
  5
501
100
AcDbEntity
  8
8
  6
CONTINUOUS
 62
     6
100
AcDbLine
 10
241.85
 20
511.0
 30
0.0
 11
253.85
 21
511.0
 31
0.0
  0
LINE
  5
502
100
AcDbEntity
  8
8
  6
CONTINUOUS
 62
     6
100
AcDbLine
 10
241.85
 20
512.0
 30
0.0
 11
252.516667
 21
512.0
 31
0.0
  0
LINE
  5
503
100
AcDbEntity
  8
8
  6
CONTINUOUS
 62
     6
100
AcDbLine
 10
241.85
 20
513.0
 30
0.0
 11
251.183333
 21
513.0
 31
0.0
  0
LINE
  5
504
100
AcDbEntity
  8
8
  6
CONTINUOUS
 62
     6
100
AcDbLine
 10
241.85
 20
514.0
 30
0.0
 11
249.85
 21
514.0
 31
0.0
  0
LINE
  5
505
100
AcDbEntity
  8
8
  6
CONTINUOUS
 62
     6
100
AcDbLine
 10
241.85
 20
515.0
 30
0.0
 11
248.516667
 21
515.0
 31
0.0
  0
LINE
  5
506
100
AcDbEntity
  8
8
  6
CONTINUOUS
 62
     6
100
AcDbLine
 10
241.85
 20
516.0
 30
0.0
 11
247.183333
 21
516.0
 31
0.0
  0
LINE
  5
507
100
AcDbEntity
  8
8
  6
CONTINUOUS
 62
     6
100
AcDbLine
 10
241.85
 20
517.0
 30
0.0
 11
245.85
 21
517.0
 31
0.0
  0
LINE
  5
508
100
AcDbEntity
  8
8
  6
CONTINUOUS
 62
     6
100
AcDbLine
 10
241.85
 20
518.0
 30
0.0
 11
244.516667
 21
518.0
 31
0.0
  0
LINE
  5
509
100
AcDbEntity
  8
8
  6
CONTINUOUS
 62
     6
100
AcDbLine
 10
241.85
 20
519.0
 30
0.0
 11
243.183333
 21
519.0
 31
0.0
  0
ENDBLK
  5
50A
100
AcDbEntity
  8
0
100
AcDbBlockEnd
  0
BLOCK
  5
50F
100
AcDbEntity
  8
8
  6
CONTINUOUS
 62
     6
100
AcDbBlockBegin
  2
*G52
 70
     0
 10
0.0
 20
0.0
 30
0.0
  3
*G52
  1

  0
LINE
  5
510
100
AcDbEntity
  8
8
  6
CONTINUOUS
 62
     6
100
AcDbLine
 10
458.011307
 20
490.000641
 30
0.0
 11
456.67803
 21
490.01297
 31
0.0
  0
LINE
  5
511
100
AcDbEntity
  8
8
  6
CONTINUOUS
 62
     6
100
AcDbLine
 10
458.020553
 20
491.000598
 30
0.0
 11
455.354
 21
491.025255
 31
0.0
  0
LINE
  5
512
100
AcDbEntity
  8
8
  6
CONTINUOUS
 62
     6
100
AcDbLine
 10
458.029799
 20
492.000556
 30
0.0
 11
454.02997
 21
492.037541
 31
0.0
  0
LINE
  5
513
100
AcDbEntity
  8
8
  6
CONTINUOUS
 62
     6
100
AcDbLine
 10
458.039045
 20
493.000513
 30
0.0
 11
452.70594
 21
493.049826
 31
0.0
  0
LINE
  5
514
100
AcDbEntity
  8
8
  6
CONTINUOUS
 62
     6
100
AcDbLine
 10
458.048292
 20
494.00047
 30
0.0
 11
451.38191
 21
494.062112
 31
0.0
  0
LINE
  5
515
100
AcDbEntity
  8
8
  6
CONTINUOUS
 62
     6
100
AcDbLine
 10
458.057538
 20
495.000427
 30
0.0
 11
450.05788
 21
495.074397
 31
0.0
  0
LINE
  5
516
100
AcDbEntity
  8
8
  6
CONTINUOUS
 62
     6
100
AcDbLine
 10
458.066784
 20
496.000385
 30
0.0
 11
448.73385
 21
496.086683
 31
0.0
  0
LINE
  5
517
100
AcDbEntity
  8
8
  6
CONTINUOUS
 62
     6
100
AcDbLine
 10
458.07603
 20
497.000342
 30
0.0
 11
447.40982
 21
497.098968
 31
0.0
  0
LINE
  5
518
100
AcDbEntity
  8
8
  6
CONTINUOUS
 62
     6
100
AcDbLine
 10
458.085276
 20
498.000299
 30
0.0
 11
446.085789
 21
498.111254
 31
0.0
  0
LINE
  5
519
100
AcDbEntity
  8
8
  6
CONTINUOUS
 62
     6
100
AcDbLine
 10
458.094523
 20
499.000256
 30
0.0
 11
444.761759
 21
499.123539
 31
0.0
  0
LINE
  5
51A
100
AcDbEntity
  8
8
  6
CONTINUOUS
 62
     6
100
AcDbLine
 10
458.103769
 20
500.000214
 30
0.0
 11
443.437729
 21
500.135825
 31
0.0
  0
LINE
  5
51B
100
AcDbEntity
  8
8
  6
CONTINUOUS
 62
     6
100
AcDbLine
 10
458.113015
 20
501.000171
 30
0.0
 11
442.113699
 21
501.14811
 31
0.0
  0
LINE
  5
51C
100
AcDbEntity
  8
8
  6
CONTINUOUS
 62
     6
100
AcDbLine
 10
458.122261
 20
502.000128
 30
0.0
 11
440.789669
 21
502.160396
 31
0.0
  0
LINE
  5
51D
100
AcDbEntity
  8
8
  6
CONTINUOUS
 62
     6
100
AcDbLine
 10
458.131508
 20
503.000085
 30
0.0
 11
439.465639
 21
503.172682
 31
0.0
  0
LINE
  5
51E
100
AcDbEntity
  8
8
  6
CONTINUOUS
 62
     6
100
AcDbLine
 10
458.140754
 20
504.000043
 30
0.0
 11
438.141609
 21
504.184967
 31
0.0
  0
LINE
  5
51F
100
AcDbEntity
  8
8
  6
CONTINUOUS
 62
     6
100
AcDbLine
 10
458.15
 20
505.0
 30
0.0
 11
439.484131
 21
505.172596
 31
0.0
  0
LINE
  5
520
100
AcDbEntity
  8
8
  6
CONTINUOUS
 62
     6
100
AcDbLine
 10
458.159246
 20
505.999957
 30
0.0
 11
440.826654
 21
506.160225
 31
0.0
  0
LINE
  5
521
100
AcDbEntity
  8
8
  6
CONTINUOUS
 62
     6
100
AcDbLine
 10
458.168492
 20
506.999915
 30
0.0
 11
442.169176
 21
507.147854
 31
0.0
  0
LINE
  5
522
100
AcDbEntity
  8
8
  6
CONTINUOUS
 62
     6
100
AcDbLine
 10
458.177739
 20
507.999872
 30
0.0
 11
443.511699
 21
508.135483
 31
0.0
  0
LINE
  5
523
100
AcDbEntity
  8
8
  6
CONTINUOUS
 62
     6
100
AcDbLine
 10
458.186985
 20
508.999829
 30
0.0
 11
444.854222
 21
509.123112
 31
0.0
  0
LINE
  5
524
100
AcDbEntity
  8
8
  6
CONTINUOUS
 62
     6
100
AcDbLine
 10
458.196231
 20
509.999786
 30
0.0
 11
446.196744
 21
510.110741
 31
0.0
  0
LINE
  5
525
100
AcDbEntity
  8
8
  6
CONTINUOUS
 62
     6
100
AcDbLine
 10
458.205477
 20
510.999744
 30
0.0
 11
447.539267
 21
511.09837
 31
0.0
  0
LINE
  5
526
100
AcDbEntity
  8
8
  6
CONTINUOUS
 62
     6
100
AcDbLine
 10
458.214724
 20
511.999701
 30
0.0
 11
448.881789
 21
512.085999
 31
0.0
  0
LINE
  5
527
100
AcDbEntity
  8
8
  6
CONTINUOUS
 62
     6
100
AcDbLine
 10
458.22397
 20
512.999658
 30
0.0
 11
450.224312
 21
513.073628
 31
0.0
  0
LINE
  5
528
100
AcDbEntity
  8
8
  6
CONTINUOUS
 62
     6
100
AcDbLine
 10
458.233216
 20
513.999615
 30
0.0
 11
451.566834
 21
514.061257
 31
0.0
  0
LINE
  5
529
100
AcDbEntity
  8
8
  6
CONTINUOUS
 62
     6
100
AcDbLine
 10
458.242462
 20
514.999573
 30
0.0
 11
452.909357
 21
515.048886
 31
0.0
  0
LINE
  5
52A
100
AcDbEntity
  8
8
  6
CONTINUOUS
 62
     6
100
AcDbLine
 10
458.251708
 20
515.99953
 30
0.0
 11
454.251879
 21
516.036515
 31
0.0
  0
LINE
  5
52B
100
AcDbEntity
  8
8
  6
CONTINUOUS
 62
     6
100
AcDbLine
 10
458.260955
 20
516.999487
 30
0.0
 11
455.594402
 21
517.024144
 31
0.0
  0
LINE
  5
52C
100
AcDbEntity
  8
8
  6
CONTINUOUS
 62
     6
100
AcDbLine
 10
458.270201
 20
517.999444
 30
0.0
 11
456.936925
 21
518.011773
 31
0.0
  0
ENDBLK
  5
52D
100
AcDbEntity
  8
0
100
AcDbBlockEnd
  0
BLOCK
  5
530
100
AcDbEntity
  8
1
  6
CONTINUOUS
 62
     4
100
AcDbBlockBegin
  2
*G53
 70
     0
 10
0.0
 20
0.0
 30
0.0
  3
*G53
  1

  0
LINE
  5
531
100
AcDbEntity
  8
1
  6
CONTINUOUS
 62
     4
100
AcDbLine
 10
241.85
 20
230.0
 30
0.0
 11
241.85
 21
505.0
 31
0.0
  0
LINE
  5
532
100
AcDbEntity
  8
1
  6
CONTINUOUS
 62
     4
100
AcDbLine
 10
241.85
 20
505.0
 30
0.0
 11
266.85
 21
505.0
 31
0.0
  0
LINE
  5
533
100
AcDbEntity
  8
1
  6
CONTINUOUS
 62
     4
100
AcDbLine
 10
266.85
 20
505.0
 30
0.0
 11
266.85
 21
250.0
 31
0.0
  0
LINE
  5
534
100
AcDbEntity
  8
1
  6
CONTINUOUS
 62
     4
100
AcDbLine
 10
261.85
 20
230.0
 30
0.0
 11
241.85
 21
230.0
 31
0.0
  0
LINE
  5
535
100
AcDbEntity
  8
1
  6
CONTINUOUS
 62
     4
100
AcDbLine
 10
256.85
 20
230.0
 30
0.0
 11
261.85
 21
235.0
 31
0.0
  0
ENDBLK
  5
536
100
AcDbEntity
  8
0
100
AcDbBlockEnd
  0
BLOCK
  5
539
100
AcDbEntity
  8
1
  6
CONTINUOUS
 62
     4
100
AcDbBlockBegin
  2
*G54
 70
     0
 10
0.0
 20
0.0
 30
0.0
  3
*G54
  1

  0
LINE
  5
53A
100
AcDbEntity
  8
1
  6
CONTINUOUS
 62
     4
100
AcDbLine
 10
261.85
 20
230.0
 30
0.0
 11
261.85
 21
250.0
 31
0.0
  0
LINE
  5
53B
100
AcDbEntity
  8
1
  6
CONTINUOUS
 62
     4
100
AcDbLine
 10
261.85
 20
250.0
 30
0.0
 11
275.0
 21
250.0
 31
0.0
  0
LINE
  5
53C
100
AcDbEntity
  8
1
  6
CONTINUOUS
 62
     4
100
AcDbLine
 10
275.0
 20
250.0
 30
0.0
 11
275.0
 21
230.0
 31
0.0
  0
LINE
  5
53D
100
AcDbEntity
  8
1
  6
CONTINUOUS
 62
     4
100
AcDbLine
 10
275.0
 20
230.0
 30
0.0
 11
261.85
 21
230.0
 31
0.0
  0
LINE
  5
53E
100
AcDbEntity
  8
1
  6
CONTINUOUS
 62
     4
100
AcDbLine
 10
261.85
 20
235.0
 30
0.0
 11
266.85
 21
230.0
 31
0.0
  0
ENDBLK
  5
53F
100
AcDbEntity
  8
0
100
AcDbBlockEnd
  0
BLOCK
  5
542
100
AcDbEntity
  8
8
  6
CONTINUOUS
 62
     6
100
AcDbBlockBegin
  2
*G55
 70
     0
 10
0.0
 20
0.0
 30
0.0
  3
*G55
  1

  0
LINE
  5
543
100
AcDbEntity
  8
8
  6
CONTINUOUS
 62
     6
100
AcDbLine
 10
257.35
 20
230.5
 30
0.0
 11
266.35
 21
230.5
 31
0.0
  0
LINE
  5
544
100
AcDbEntity
  8
8
  6
CONTINUOUS
 62
     6
100
AcDbLine
 10
258.35
 20
231.5
 30
0.0
 11
265.35
 21
231.5
 31
0.0
  0
LINE
  5
545
100
AcDbEntity
  8
8
  6
CONTINUOUS
 62
     6
100
AcDbLine
 10
259.35
 20
232.5
 30
0.0
 11
264.35
 21
232.5
 31
0.0
  0
LINE
  5
546
100
AcDbEntity
  8
8
  6
CONTINUOUS
 62
     6
100
AcDbLine
 10
260.35
 20
233.5
 30
0.0
 11
263.35
 21
233.5
 31
0.0
  0
LINE
  5
547
100
AcDbEntity
  8
8
  6
CONTINUOUS
 62
     6
100
AcDbLine
 10
261.35
 20
234.5
 30
0.0
 11
262.35
 21
234.5
 31
0.0
  0
ENDBLK
  5
548
100
AcDbEntity
  8
0
100
AcDbBlockEnd
  0
BLOCK
  5
54B
100
AcDbEntity
  8
8
  6
CONTINUOUS
 62
     6
100
AcDbBlockBegin
  2
*G56
 70
     0
 10
0.0
 20
0.0
 30
0.0
  3
*G56
  1

  0
LINE
  5
54C
100
AcDbEntity
  8
8
  6
CONTINUOUS
 62
     6
100
AcDbLine
 10
433.65
 20
230.5
 30
0.0
 11
442.65
 21
230.5
 31
0.0
  0
LINE
  5
54D
100
AcDbEntity
  8
8
  6
CONTINUOUS
 62
     6
100
AcDbLine
 10
434.65
 20
231.5
 30
0.0
 11
441.65
 21
231.5
 31
0.0
  0
LINE
  5
54E
100
AcDbEntity
  8
8
  6
CONTINUOUS
 62
     6
100
AcDbLine
 10
435.65
 20
232.5
 30
0.0
 11
440.65
 21
232.5
 31
0.0
  0
LINE
  5
54F
100
AcDbEntity
  8
8
  6
CONTINUOUS
 62
     6
100
AcDbLine
 10
436.65
 20
233.5
 30
0.0
 11
439.65
 21
233.5
 31
0.0
  0
LINE
  5
550
100
AcDbEntity
  8
8
  6
CONTINUOUS
 62
     6
100
AcDbLine
 10
437.65
 20
234.5
 30
0.0
 11
438.65
 21
234.5
 31
0.0
  0
ENDBLK
  5
551
100
AcDbEntity
  8
0
100
AcDbBlockEnd
  0
BLOCK
  5
554
100
AcDbEntity
  8
1
  6
CONTINUOUS
 62
     4
100
AcDbBlockBegin
  2
*G57
 70
     0
 10
0.0
 20
0.0
 30
0.0
  3
*G57
  1

  0
LINE
  5
555
100
AcDbEntity
  8
1
  6
CONTINUOUS
 62
     4
100
AcDbLine
 10
458.15
 20
230.0
 30
0.0
 11
458.15
 21
505.0
 31
0.0
  0
LINE
  5
556
100
AcDbEntity
  8
1
  6
CONTINUOUS
 62
     4
100
AcDbLine
 10
458.15
 20
505.0
 30
0.0
 11
433.15
 21
505.0
 31
0.0
  0
LINE
  5
557
100
AcDbEntity
  8
1
  6
CONTINUOUS
 62
     4
100
AcDbLine
 10
433.15
 20
505.0
 30
0.0
 11
433.15
 21
250.0
 31
0.0
  0
LINE
  5
558
100
AcDbEntity
  8
1
  6
CONTINUOUS
 62
     4
100
AcDbLine
 10
438.15
 20
230.0
 30
0.0
 11
458.15
 21
230.0
 31
0.0
  0
LINE
  5
559
100
AcDbEntity
  8
1
  6
CONTINUOUS
 62
     4
100
AcDbLine
 10
443.15
 20
230.0
 30
0.0
 11
438.15
 21
235.0
 31
0.0
  0
ENDBLK
  5
55A
100
AcDbEntity
  8
0
100
AcDbBlockEnd
  0
BLOCK
  5
55D
100
AcDbEntity
  8
1
  6
CONTINUOUS
 62
     4
100
AcDbBlockBegin
  2
*G58
 70
     0
 10
0.0
 20
0.0
 30
0.0
  3
*G58
  1

  0
LINE
  5
55E
100
AcDbEntity
  8
1
  6
CONTINUOUS
 62
     4
100
AcDbLine
 10
438.15
 20
230.0
 30
0.0
 11
438.15
 21
250.0
 31
0.0
  0
LINE
  5
55F
100
AcDbEntity
  8
1
  6
CONTINUOUS
 62
     4
100
AcDbLine
 10
438.15
 20
250.0
 30
0.0
 11
425.0
 21
250.0
 31
0.0
  0
LINE
  5
560
100
AcDbEntity
  8
1
  6
CONTINUOUS
 62
     4
100
AcDbLine
 10
425.0
 20
250.0
 30
0.0
 11
425.0
 21
230.0
 31
0.0
  0
LINE
  5
561
100
AcDbEntity
  8
1
  6
CONTINUOUS
 62
     4
100
AcDbLine
 10
425.0
 20
230.0
 30
0.0
 11
438.15
 21
230.0
 31
0.0
  0
LINE
  5
562
100
AcDbEntity
  8
1
  6
CONTINUOUS
 62
     4
100
AcDbLine
 10
433.15
 20
230.0
 30
0.0
 11
438.15
 21
235.0
 31
0.0
  0
ENDBLK
  5
563
100
AcDbEntity
  8
0
100
AcDbBlockEnd
  0
BLOCK
  5
56A
100
AcDbEntity
  8
8
  6
CONTINUOUS
 62
     6
100
AcDbBlockBegin
  2
*G59
 70
     0
 10
0.0
 20
0.0
 30
0.0
  3
*G59
  1

  0
LINE
  5
56B
100
AcDbEntity
  8
8
  6
CONTINUOUS
 62
     6
100
AcDbLine
 10
276.071068
 20
615.0
 30
0.0
 11
280.5
 21
619.428932
 31
0.0
  0
LINE
  5
56C
100
AcDbEntity
  8
8
  6
CONTINUOUS
 62
     6
100
AcDbLine
 10
272.5
 20
618.5
 30
0.0
 11
280.5
 21
626.5
 31
0.0
  0
LINE
  5
56D
100
AcDbEntity
  8
8
  6
CONTINUOUS
 62
     6
100
AcDbLine
 10
272.5
 20
625.571068
 30
0.0
 11
276.928932
 21
630.0
 31
0.0
  0
ENDBLK
  5
56E
100
AcDbEntity
  8
0
100
AcDbBlockEnd
  0
BLOCK
  5
571
100
AcDbEntity
  8
8
  6
CONTINUOUS
 62
     6
100
AcDbBlockBegin
  2
*G60
 70
     0
 10
0.0
 20
0.0
 30
0.0
  3
*G60
  1

  0
LINE
  5
572
100
AcDbEntity
  8
8
  6
CONTINUOUS
 62
     6
100
AcDbLine
 10
317.892136
 20
615.0
 30
0.0
 11
323.0
 21
620.107864
 31
0.0
  0
LINE
  5
573
100
AcDbEntity
  8
8
  6
CONTINUOUS
 62
     6
100
AcDbLine
 10
310.821068
 20
615.0
 30
0.0
 11
321.910534
 21
626.089466
 31
0.0
  0
LINE
  5
574
100
AcDbEntity
  8
8
  6
CONTINUOUS
 62
     6
100
AcDbLine
 10
303.75
 20
615.0
 30
0.0
 11
318.375
 21
629.625
 31
0.0
  0
LINE
  5
575
100
AcDbEntity
  8
8
  6
CONTINUOUS
 62
     6
100
AcDbLine
 10
299.5
 20
617.821068
 30
0.0
 11
311.678932
 21
630.0
 31
0.0
  0
LINE
  5
576
100
AcDbEntity
  8
8
  6
CONTINUOUS
 62
     6
100
AcDbLine
 10
299.5
 20
624.892136
 30
0.0
 11
304.607864
 21
630.0
 31
0.0
  0
ENDBLK
  5
577
100
AcDbEntity
  8
0
100
AcDbBlockEnd
  0
BLOCK
  5
57A
100
AcDbEntity
  8
8
  6
CONTINUOUS
 62
     6
100
AcDbBlockBegin
  2
*G61
 70
     0
 10
0.0
 20
0.0
 30
0.0
  3
*G61
  1

  0
LINE
  5
57B
100
AcDbEntity
  8
8
  6
CONTINUOUS
 62
     6
100
AcDbLine
 10
333.538203
 20
605.0
 30
0.0
 11
339.65
 21
611.111797
 31
0.0
  0
LINE
  5
57C
100
AcDbEntity
  8
8
  6
CONTINUOUS
 62
     6
100
AcDbLine
 10
332.679492
 20
611.212356
 30
0.0
 11
339.65
 21
618.182864
 31
0.0
  0
LINE
  5
57D
100
AcDbEntity
  8
8
  6
CONTINUOUS
 62
     6
100
AcDbLine
 10
332.679492
 20
618.283424
 30
0.0
 11
339.65
 21
625.253932
 31
0.0
  0
LINE
  5
57E
100
AcDbEntity
  8
8
  6
CONTINUOUS
 62
     6
100
AcDbLine
 10
332.679492
 20
625.354492
 30
0.0
 11
339.65
 21
632.325
 31
0.0
  0
LINE
  5
57F
100
AcDbEntity
  8
8
  6
CONTINUOUS
 62
     6
100
AcDbLine
 10
332.679492
 20
632.42556
 30
0.0
 11
339.65
 21
639.396068
 31
0.0
  0
LINE
  5
580
100
AcDbEntity
  8
8
  6
CONTINUOUS
 62
     6
100
AcDbLine
 10
328.182864
 20
635.0
 30
0.0
 11
338.182864
 21
645.0
 31
0.0
  0
LINE
  5
581
100
AcDbEntity
  8
8
  6
CONTINUOUS
 62
     6
100
AcDbLine
 10
325.0
 20
638.888203
 30
0.0
 11
331.111797
 21
645.0
 31
0.0
  0
ENDBLK
  5
582
100
AcDbEntity
  8
0
100
AcDbBlockEnd
  0
BLOCK
  5
585
100
AcDbEntity
  8
8
  6
CONTINUOUS
 62
     6
100
AcDbBlockBegin
  2
*G62
 70
     0
 10
0.0
 20
0.0
 30
0.0
  3
*G62
  1

  0
LINE
  5
586
100
AcDbEntity
  8
8
  6
CONTINUOUS
 62
     6
100
AcDbLine
 10
272.097763
 20
230.0
 30
0.0
 11
275.0
 21
232.902237
 31
0.0
  0
LINE
  5
587
100
AcDbEntity
  8
8
  6
CONTINUOUS
 62
     6
100
AcDbLine
 10
265.026695
 20
230.0
 30
0.0
 11
275.0
 21
239.973305
 31
0.0
  0
LINE
  5
588
100
AcDbEntity
  8
8
  6
CONTINUOUS
 62
     6
100
AcDbLine
 10
257.955627
 20
230.0
 30
0.0
 11
275.0
 21
247.044373
 31
0.0
  0
LINE
  5
589
100
AcDbEntity
  8
8
  6
CONTINUOUS
 62
     6
100
AcDbLine
 10
250.88456
 20
230.0
 30
0.0
 11
270.88456
 21
250.0
 31
0.0
  0
LINE
  5
58A
100
AcDbEntity
  8
8
  6
CONTINUOUS
 62
     6
100
AcDbLine
 10
243.813492
 20
230.0
 30
0.0
 11
266.85
 21
253.036508
 31
0.0
  0
LINE
  5
58B
100
AcDbEntity
  8
8
  6
CONTINUOUS
 62
     6
100
AcDbLine
 10
241.85
 20
235.107576
 30
0.0
 11
266.85
 21
260.107576
 31
0.0
  0
LINE
  5
58C
100
AcDbEntity
  8
8
  6
CONTINUOUS
 62
     6
100
AcDbLine
 10
241.85
 20
242.178644
 30
0.0
 11
266.85
 21
267.178644
 31
0.0
  0
LINE
  5
58D
100
AcDbEntity
  8
8
  6
CONTINUOUS
 62
     6
100
AcDbLine
 10
241.85
 20
249.249712
 30
0.0
 11
266.85
 21
274.249712
 31
0.0
  0
LINE
  5
58E
100
AcDbEntity
  8
8
  6
CONTINUOUS
 62
     6
100
AcDbLine
 10
312.600288
 20
320.0
 30
0.0
 11
317.5
 21
324.899712
 31
0.0
  0
LINE
  5
58F
100
AcDbEntity
  8
8
  6
CONTINUOUS
 62
     6
100
AcDbLine
 10
241.85
 20
256.320779
 30
0.0
 11
266.85
 21
281.320779
 31
0.0
  0
LINE
  5
590
100
AcDbEntity
  8
8
  6
CONTINUOUS
 62
     6
100
AcDbLine
 10
305.529221
 20
320.0
 30
0.0
 11
317.5
 21
331.970779
 31
0.0
  0
LINE
  5
591
100
AcDbEntity
  8
8
  6
CONTINUOUS
 62
     6
100
AcDbLine
 10
241.85
 20
263.391847
 30
0.0
 11
266.85
 21
288.391847
 31
0.0
  0
LINE
  5
592
100
AcDbEntity
  8
8
  6
CONTINUOUS
 62
     6
100
AcDbLine
 10
298.458153
 20
320.0
 30
0.0
 11
317.5
 21
339.041847
 31
0.0
  0
LINE
  5
593
100
AcDbEntity
  8
8
  6
CONTINUOUS
 62
     6
100
AcDbLine
 10
241.85
 20
270.462915
 30
0.0
 11
266.85
 21
295.462915
 31
0.0
  0
LINE
  5
594
100
AcDbEntity
  8
8
  6
CONTINUOUS
 62
     6
100
AcDbLine
 10
291.387085
 20
320.0
 30
0.0
 11
311.387085
 21
340.0
 31
0.0
  0
LINE
  5
595
100
AcDbEntity
  8
8
  6
CONTINUOUS
 62
     6
100
AcDbLine
 10
241.85
 20
277.533983
 30
0.0
 11
266.85
 21
302.533983
 31
0.0
  0
LINE
  5
596
100
AcDbEntity
  8
8
  6
CONTINUOUS
 62
     6
100
AcDbLine
 10
284.316017
 20
320.0
 30
0.0
 11
304.316017
 21
340.0
 31
0.0
  0
LINE
  5
597
100
AcDbEntity
  8
8
  6
CONTINUOUS
 62
     6
100
AcDbLine
 10
241.85
 20
284.605051
 30
0.0
 11
266.85
 21
309.605051
 31
0.0
  0
LINE
  5
598
100
AcDbEntity
  8
8
  6
CONTINUOUS
 62
     6
100
AcDbLine
 10
277.244949
 20
320.0
 30
0.0
 11
297.244949
 21
340.0
 31
0.0
  0
LINE
  5
599
100
AcDbEntity
  8
8
  6
CONTINUOUS
 62
     6
100
AcDbLine
 10
241.85
 20
291.676118
 30
0.0
 11
266.85
 21
316.676118
 31
0.0
  0
LINE
  5
59A
100
AcDbEntity
  8
8
  6
CONTINUOUS
 62
     6
100
AcDbLine
 10
270.173882
 20
320.0
 30
0.0
 11
290.173882
 21
340.0
 31
0.0
  0
LINE
  5
59B
100
AcDbEntity
  8
8
  6
CONTINUOUS
 62
     6
100
AcDbLine
 10
241.85
 20
298.747186
 30
0.0
 11
283.102814
 21
340.0
 31
0.0
  0
LINE
  5
59C
100
AcDbEntity
  8
8
  6
CONTINUOUS
 62
     6
100
AcDbLine
 10
241.85
 20
305.818254
 30
0.0
 11
276.031746
 21
340.0
 31
0.0
  0
LINE
  5
59D
100
AcDbEntity
  8
8
  6
CONTINUOUS
 62
     6
100
AcDbLine
 10
241.85
 20
312.889322
 30
0.0
 11
268.960678
 21
340.0
 31
0.0
  0
LINE
  5
59E
100
AcDbEntity
  8
8
  6
CONTINUOUS
 62
     6
100
AcDbLine
 10
241.85
 20
319.96039
 30
0.0
 11
266.85
 21
344.96039
 31
0.0
  0
LINE
  5
59F
100
AcDbEntity
  8
8
  6
CONTINUOUS
 62
     6
100
AcDbLine
 10
241.85
 20
327.031458
 30
0.0
 11
266.85
 21
352.031458
 31
0.0
  0
LINE
  5
5A0
100
AcDbEntity
  8
8
  6
CONTINUOUS
 62
     6
100
AcDbLine
 10
241.85
 20
334.102525
 30
0.0
 11
266.85
 21
359.102525
 31
0.0
  0
LINE
  5
5A1
100
AcDbEntity
  8
8
  6
CONTINUOUS
 62
     6
100
AcDbLine
 10
241.85
 20
341.173593
 30
0.0
 11
266.85
 21
366.173593
 31
0.0
  0
LINE
  5
5A2
100
AcDbEntity
  8
8
  6
CONTINUOUS
 62
     6
100
AcDbLine
 10
241.85
 20
348.244661
 30
0.0
 11
266.85
 21
373.244661
 31
0.0
  0
LINE
  5
5A3
100
AcDbEntity
  8
8
  6
CONTINUOUS
 62
     6
100
AcDbLine
 10
241.85
 20
355.315729
 30
0.0
 11
266.85
 21
380.315729
 31
0.0
  0
LINE
  5
5A4
100
AcDbEntity
  8
8
  6
CONTINUOUS
 62
     6
100
AcDbLine
 10
241.85
 20
362.386797
 30
0.0
 11
266.85
 21
387.386797
 31
0.0
  0
LINE
  5
5A5
100
AcDbEntity
  8
8
  6
CONTINUOUS
 62
     6
100
AcDbLine
 10
241.85
 20
369.457864
 30
0.0
 11
266.85
 21
394.457864
 31
0.0
  0
LINE
  5
5A6
100
AcDbEntity
  8
8
  6
CONTINUOUS
 62
     6
100
AcDbLine
 10
241.85
 20
376.528932
 30
0.0
 11
266.85
 21
401.528932
 31
0.0
  0
LINE
  5
5A7
100
AcDbEntity
  8
8
  6
CONTINUOUS
 62
     6
100
AcDbLine
 10
241.85
 20
383.6
 30
0.0
 11
266.85
 21
408.6
 31
0.0
  0
LINE
  5
5A8
100
AcDbEntity
  8
8
  6
CONTINUOUS
 62
     6
100
AcDbLine
 10
241.85
 20
390.671068
 30
0.0
 11
266.85
 21
415.671068
 31
0.0
  0
LINE
  5
5A9
100
AcDbEntity
  8
8
  6
CONTINUOUS
 62
     6
100
AcDbLine
 10
241.85
 20
397.742136
 30
0.0
 11
266.85
 21
422.742136
 31
0.0
  0
LINE
  5
5AA
100
AcDbEntity
  8
8
  6
CONTINUOUS
 62
     6
100
AcDbLine
 10
241.85
 20
404.813203
 30
0.0
 11
266.85
 21
429.813203
 31
0.0
  0
LINE
  5
5AB
100
AcDbEntity
  8
8
  6
CONTINUOUS
 62
     6
100
AcDbLine
 10
241.85
 20
411.884271
 30
0.0
 11
266.85
 21
436.884271
 31
0.0
  0
LINE
  5
5AC
100
AcDbEntity
  8
8
  6
CONTINUOUS
 62
     6
100
AcDbLine
 10
241.85
 20
418.955339
 30
0.0
 11
266.85
 21
443.955339
 31
0.0
  0
LINE
  5
5AD
100
AcDbEntity
  8
8
  6
CONTINUOUS
 62
     6
100
AcDbLine
 10
332.894661
 20
510.0
 30
0.0
 11
339.65
 21
516.755339
 31
0.0
  0
LINE
  5
5AE
100
AcDbEntity
  8
8
  6
CONTINUOUS
 62
     6
100
AcDbLine
 10
241.85
 20
426.026407
 30
0.0
 11
266.85
 21
451.026407
 31
0.0
  0
LINE
  5
5AF
100
AcDbEntity
  8
8
  6
CONTINUOUS
 62
     6
100
AcDbLine
 10
320.823593
 20
505.0
 30
0.0
 11
322.5
 21
506.676407
 31
0.0
  0
LINE
  5
5B0
100
AcDbEntity
  8
8
  6
CONTINUOUS
 62
     6
100
AcDbLine
 10
325.823593
 20
510.0
 30
0.0
 11
339.65
 21
523.826407
 31
0.0
  0
LINE
  5
5B1
100
AcDbEntity
  8
8
  6
CONTINUOUS
 62
     6
100
AcDbLine
 10
241.85
 20
433.097475
 30
0.0
 11
266.85
 21
458.097475
 31
0.0
  0
LINE
  5
5B2
100
AcDbEntity
  8
8
  6
CONTINUOUS
 62
     6
100
AcDbLine
 10
313.752525
 20
505.0
 30
0.0
 11
339.65
 21
530.897475
 31
0.0
  0
LINE
  5
5B3
100
AcDbEntity
  8
8
  6
CONTINUOUS
 62
     6
100
AcDbLine
 10
241.85
 20
440.168542
 30
0.0
 11
266.85
 21
465.168542
 31
0.0
  0
LINE
  5
5B4
100
AcDbEntity
  8
8
  6
CONTINUOUS
 62
     6
100
AcDbLine
 10
306.681458
 20
505.0
 30
0.0
 11
339.65
 21
537.968542
 31
0.0
  0
LINE
  5
5B5
100
AcDbEntity
  8
8
  6
CONTINUOUS
 62
     6
100
AcDbLine
 10
241.85
 20
447.23961
 30
0.0
 11
266.85
 21
472.23961
 31
0.0
  0
LINE
  5
5B6
100
AcDbEntity
  8
8
  6
CONTINUOUS
 62
     6
100
AcDbLine
 10
299.61039
 20
505.0
 30
0.0
 11
339.65
 21
545.03961
 31
0.0
  0
LINE
  5
5B7
100
AcDbEntity
  8
8
  6
CONTINUOUS
 62
     6
100
AcDbLine
 10
241.85
 20
454.310678
 30
0.0
 11
266.85
 21
479.310678
 31
0.0
  0
LINE
  5
5B8
100
AcDbEntity
  8
8
  6
CONTINUOUS
 62
     6
100
AcDbLine
 10
292.539322
 20
505.0
 30
0.0
 11
317.539322
 21
530.0
 31
0.0
  0
LINE
  5
5B9
100
AcDbEntity
  8
8
  6
CONTINUOUS
 62
     6
100
AcDbLine
 10
320.0
 20
532.460678
 30
0.0
 11
339.65
 21
552.110678
 31
0.0
  0
LINE
  5
5BA
100
AcDbEntity
  8
8
  6
CONTINUOUS
 62
     6
100
AcDbLine
 10
241.85
 20
461.381746
 30
0.0
 11
266.85
 21
486.381746
 31
0.0
  0
LINE
  5
5BB
100
AcDbEntity
  8
8
  6
CONTINUOUS
 62
     6
100
AcDbLine
 10
285.468254
 20
505.0
 30
0.0
 11
310.468254
 21
530.0
 31
0.0
  0
LINE
  5
5BC
100
AcDbEntity
  8
8
  6
CONTINUOUS
 62
     6
100
AcDbLine
 10
320.0
 20
539.531746
 30
0.0
 11
339.65
 21
559.181746
 31
0.0
  0
LINE
  5
5BD
100
AcDbEntity
  8
8
  6
CONTINUOUS
 62
     6
100
AcDbLine
 10
241.85
 20
468.452814
 30
0.0
 11
266.85
 21
493.452814
 31
0.0
  0
LINE
  5
5BE
100
AcDbEntity
  8
8
  6
CONTINUOUS
 62
     6
100
AcDbLine
 10
278.397186
 20
505.0
 30
0.0
 11
303.397186
 21
530.0
 31
0.0
  0
LINE
  5
5BF
100
AcDbEntity
  8
8
  6
CONTINUOUS
 62
     6
100
AcDbLine
 10
320.0
 20
546.602814
 30
0.0
 11
339.65
 21
566.252814
 31
0.0
  0
LINE
  5
5C0
100
AcDbEntity
  8
8
  6
CONTINUOUS
 62
     6
100
AcDbLine
 10
241.85
 20
475.523882
 30
0.0
 11
266.85
 21
500.523882
 31
0.0
  0
LINE
  5
5C1
100
AcDbEntity
  8
8
  6
CONTINUOUS
 62
     6
100
AcDbLine
 10
271.326118
 20
505.0
 30
0.0
 11
296.326118
 21
530.0
 31
0.0
  0
LINE
  5
5C2
100
AcDbEntity
  8
8
  6
CONTINUOUS
 62
     6
100
AcDbLine
 10
320.0
 20
553.673882
 30
0.0
 11
339.65
 21
573.323882
 31
0.0
  0
LINE
  5
5C3
100
AcDbEntity
  8
8
  6
CONTINUOUS
 62
     6
100
AcDbLine
 10
241.85
 20
482.594949
 30
0.0
 11
289.255051
 21
530.0
 31
0.0
  0
LINE
  5
5C4
100
AcDbEntity
  8
8
  6
CONTINUOUS
 62
     6
100
AcDbLine
 10
320.0
 20
560.744949
 30
0.0
 11
339.65
 21
580.394949
 31
0.0
  0
LINE
  5
5C5
100
AcDbEntity
  8
8
  6
CONTINUOUS
 62
     6
100
AcDbLine
 10
241.85
 20
489.666017
 30
0.0
 11
282.183983
 21
530.0
 31
0.0
  0
LINE
  5
5C6
100
AcDbEntity
  8
8
  6
CONTINUOUS
 62
     6
100
AcDbLine
 10
320.0
 20
567.816017
 30
0.0
 11
339.65
 21
587.466017
 31
0.0
  0
LINE
  5
5C7
100
AcDbEntity
  8
8
  6
CONTINUOUS
 62
     6
100
AcDbLine
 10
241.85
 20
496.737085
 30
0.0
 11
275.112915
 21
530.0
 31
0.0
  0
LINE
  5
5C8
100
AcDbEntity
  8
8
  6
CONTINUOUS
 62
     6
100
AcDbLine
 10
320.0
 20
574.887085
 30
0.0
 11
335.112915
 21
590.0
 31
0.0
  0
LINE
  5
5C9
100
AcDbEntity
  8
8
  6
CONTINUOUS
 62
     6
100
AcDbLine
 10
241.85
 20
503.808153
 30
0.0
 11
268.041847
 21
530.0
 31
0.0
  0
LINE
  5
5CA
100
AcDbEntity
  8
8
  6
CONTINUOUS
 62
     6
100
AcDbLine
 10
320.0
 20
581.958153
 30
0.0
 11
332.679492
 21
594.637645
 31
0.0
  0
LINE
  5
5CB
100
AcDbEntity
  8
8
  6
CONTINUOUS
 62
     6
100
AcDbLine
 10
241.85
 20
510.879221
 30
0.0
 11
260.970779
 21
530.0
 31
0.0
  0
LINE
  5
5CC
100
AcDbEntity
  8
8
  6
CONTINUOUS
 62
     6
100
AcDbLine
 10
320.0
 20
589.029221
 30
0.0
 11
332.679492
 21
601.708713
 31
0.0
  0
LINE
  5
5CD
100
AcDbEntity
  8
8
  6
CONTINUOUS
 62
     6
100
AcDbLine
 10
241.85
 20
517.950288
 30
0.0
 11
253.899712
 21
530.0
 31
0.0
  0
LINE
  5
5CE
100
AcDbEntity
  8
8
  6
CONTINUOUS
 62
     6
100
AcDbLine
 10
320.0
 20
596.100288
 30
0.0
 11
332.679492
 21
608.77978
 31
0.0
  0
LINE
  5
5CF
100
AcDbEntity
  8
8
  6
CONTINUOUS
 62
     6
100
AcDbLine
 10
320.0
 20
603.171356
 30
0.0
 11
332.679492
 21
615.850848
 31
0.0
  0
LINE
  5
5D0
100
AcDbEntity
  8
8
  6
CONTINUOUS
 62
     6
100
AcDbLine
 10
320.0
 20
610.242424
 30
0.0
 11
332.679492
 21
622.921916
 31
0.0
  0
LINE
  5
5D1
100
AcDbEntity
  8
8
  6
CONTINUOUS
 62
     6
100
AcDbLine
 10
323.0
 20
620.313492
 30
0.0
 11
332.679492
 21
629.992984
 31
0.0
  0
ENDBLK
  5
5D2
100
AcDbEntity
  8
0
100
AcDbBlockEnd
  0
BLOCK
  5
5D5
100
AcDbEntity
  8
8
  6
CONTINUOUS
 62
     6
100
AcDbBlockBegin
  2
*G63
 70
     0
 10
0.0
 20
0.0
 30
0.0
  3
*G63
  1

  0
LINE
  5
5D6
100
AcDbEntity
  8
8
  6
CONTINUOUS
 62
     6
100
AcDbLine
 10
423.071068
 20
615.0
 30
0.0
 11
427.5
 21
619.428932
 31
0.0
  0
LINE
  5
5D7
100
AcDbEntity
  8
8
  6
CONTINUOUS
 62
     6
100
AcDbLine
 10
419.5
 20
618.5
 30
0.0
 11
427.5
 21
626.5
 31
0.0
  0
LINE
  5
5D8
100
AcDbEntity
  8
8
  6
CONTINUOUS
 62
     6
100
AcDbLine
 10
419.5
 20
625.571068
 30
0.0
 11
423.928932
 21
630.0
 31
0.0
  0
ENDBLK
  5
5D9
100
AcDbEntity
  8
0
100
AcDbBlockEnd
  0
BLOCK
  5
5DC
100
AcDbEntity
  8
8
  6
CONTINUOUS
 62
     6
100
AcDbBlockBegin
  2
*G64
 70
     0
 10
0.0
 20
0.0
 30
0.0
  3
*G64
  1

  0
LINE
  5
5DD
100
AcDbEntity
  8
8
  6
CONTINUOUS
 62
     6
100
AcDbLine
 10
395.392136
 20
615.0
 30
0.0
 11
400.5
 21
620.107864
 31
0.0
  0
LINE
  5
5DE
100
AcDbEntity
  8
8
  6
CONTINUOUS
 62
     6
100
AcDbLine
 10
388.321068
 20
615.0
 30
0.0
 11
400.5
 21
627.178932
 31
0.0
  0
LINE
  5
5DF
100
AcDbEntity
  8
8
  6
CONTINUOUS
 62
     6
100
AcDbLine
 10
381.25
 20
615.0
 30
0.0
 11
396.25
 21
630.0
 31
0.0
  0
LINE
  5
5E0
100
AcDbEntity
  8
8
  6
CONTINUOUS
 62
     6
100
AcDbLine
 10
377.0
 20
617.821068
 30
0.0
 11
389.178932
 21
630.0
 31
0.0
  0
LINE
  5
5E1
100
AcDbEntity
  8
8
  6
CONTINUOUS
 62
     6
100
AcDbLine
 10
377.0
 20
624.892136
 30
0.0
 11
382.107864
 21
630.0
 31
0.0
  0
ENDBLK
  5
5E2
100
AcDbEntity
  8
0
100
AcDbBlockEnd
  0
BLOCK
  5
5E5
100
AcDbEntity
  8
8
  6
CONTINUOUS
 62
     6
100
AcDbBlockBegin
  2
*G65
 70
     0
 10
0.0
 20
0.0
 30
0.0
  3
*G65
  1

  0
LINE
  5
5E6
100
AcDbEntity
  8
8
  6
CONTINUOUS
 62
     6
100
AcDbLine
 10
361.817136
 20
605.0
 30
0.0
 11
367.320508
 21
610.503372
 31
0.0
  0
LINE
  5
5E7
100
AcDbEntity
  8
8
  6
CONTINUOUS
 62
     6
100
AcDbLine
 10
360.35
 20
610.603932
 30
0.0
 11
367.320508
 21
617.57444
 31
0.0
  0
LINE
  5
5E8
100
AcDbEntity
  8
8
  6
CONTINUOUS
 62
     6
100
AcDbLine
 10
360.35
 20
617.675
 30
0.0
 11
367.320508
 21
624.645508
 31
0.0
  0
LINE
  5
5E9
100
AcDbEntity
  8
8
  6
CONTINUOUS
 62
     6
100
AcDbLine
 10
360.35
 20
624.746068
 30
0.0
 11
367.320508
 21
631.716576
 31
0.0
  0
LINE
  5
5EA
100
AcDbEntity
  8
8
  6
CONTINUOUS
 62
     6
100
AcDbLine
 10
370.603932
 20
635.0
 30
0.0
 11
375.0
 21
639.396068
 31
0.0
  0
LINE
  5
5EB
100
AcDbEntity
  8
8
  6
CONTINUOUS
 62
     6
100
AcDbLine
 10
360.35
 20
631.817136
 30
0.0
 11
373.532864
 21
645.0
 31
0.0
  0
LINE
  5
5EC
100
AcDbEntity
  8
8
  6
CONTINUOUS
 62
     6
100
AcDbLine
 10
360.35
 20
638.888203
 30
0.0
 11
366.461797
 21
645.0
 31
0.0
  0
ENDBLK
  5
5ED
100
AcDbEntity
  8
0
100
AcDbBlockEnd
  0
BLOCK
  5
5F0
100
AcDbEntity
  8
8
  6
CONTINUOUS
 62
     6
100
AcDbBlockBegin
  2
*G66
 70
     0
 10
0.0
 20
0.0
 30
0.0
  3
*G66
  1

  0
LINE
  5
5F1
100
AcDbEntity
  8
8
  6
CONTINUOUS
 62
     6
100
AcDbLine
 10
456.737373
 20
230.0
 30
0.0
 11
458.15
 21
231.412627
 31
0.0
  0
LINE
  5
5F2
100
AcDbEntity
  8
8
  6
CONTINUOUS
 62
     6
100
AcDbLine
 10
449.666306
 20
230.0
 30
0.0
 11
458.15
 21
238.483694
 31
0.0
  0
LINE
  5
5F3
100
AcDbEntity
  8
8
  6
CONTINUOUS
 62
     6
100
AcDbLine
 10
442.595238
 20
230.0
 30
0.0
 11
458.15
 21
245.554762
 31
0.0
  0
LINE
  5
5F4
100
AcDbEntity
  8
8
  6
CONTINUOUS
 62
     6
100
AcDbLine
 10
435.52417
 20
230.0
 30
0.0
 11
458.15
 21
252.62583
 31
0.0
  0
LINE
  5
5F5
100
AcDbEntity
  8
8
  6
CONTINUOUS
 62
     6
100
AcDbLine
 10
428.453102
 20
230.0
 30
0.0
 11
458.15
 21
259.696898
 31
0.0
  0
LINE
  5
5F6
100
AcDbEntity
  8
8
  6
CONTINUOUS
 62
     6
100
AcDbLine
 10
425.0
 20
233.617966
 30
0.0
 11
458.15
 21
266.767966
 31
0.0
  0
LINE
  5
5F7
100
AcDbEntity
  8
8
  6
CONTINUOUS
 62
     6
100
AcDbLine
 10
425.0
 20
240.689033
 30
0.0
 11
458.15
 21
273.839033
 31
0.0
  0
LINE
  5
5F8
100
AcDbEntity
  8
8
  6
CONTINUOUS
 62
     6
100
AcDbLine
 10
425.0
 20
247.760101
 30
0.0
 11
427.239899
 21
250.0
 31
0.0
  0
LINE
  5
5F9
100
AcDbEntity
  8
8
  6
CONTINUOUS
 62
     6
100
AcDbLine
 10
433.15
 20
255.910101
 30
0.0
 11
458.15
 21
280.910101
 31
0.0
  0
LINE
  5
5FA
100
AcDbEntity
  8
8
  6
CONTINUOUS
 62
     6
100
AcDbLine
 10
433.15
 20
262.981169
 30
0.0
 11
458.15
 21
287.981169
 31
0.0
  0
LINE
  5
5FB
100
AcDbEntity
  8
8
  6
CONTINUOUS
 62
     6
100
AcDbLine
 10
433.15
 20
270.052237
 30
0.0
 11
458.15
 21
295.052237
 31
0.0
  0
LINE
  5
5FC
100
AcDbEntity
  8
8
  6
CONTINUOUS
 62
     6
100
AcDbLine
 10
433.15
 20
277.123305
 30
0.0
 11
458.15
 21
302.123305
 31
0.0
  0
LINE
  5
5FD
100
AcDbEntity
  8
8
  6
CONTINUOUS
 62
     6
100
AcDbLine
 10
433.15
 20
284.194373
 30
0.0
 11
458.15
 21
309.194373
 31
0.0
  0
LINE
  5
5FE
100
AcDbEntity
  8
8
  6
CONTINUOUS
 62
     6
100
AcDbLine
 10
433.15
 20
291.26544
 30
0.0
 11
458.15
 21
316.26544
 31
0.0
  0
LINE
  5
5FF
100
AcDbEntity
  8
8
  6
CONTINUOUS
 62
     6
100
AcDbLine
 10
433.15
 20
298.336508
 30
0.0
 11
458.15
 21
323.336508
 31
0.0
  0
LINE
  5
600
100
AcDbEntity
  8
8
  6
CONTINUOUS
 62
     6
100
AcDbLine
 10
433.15
 20
305.407576
 30
0.0
 11
458.15
 21
330.407576
 31
0.0
  0
LINE
  5
601
100
AcDbEntity
  8
8
  6
CONTINUOUS
 62
     6
100
AcDbLine
 10
433.15
 20
312.478644
 30
0.0
 11
458.15
 21
337.478644
 31
0.0
  0
LINE
  5
602
100
AcDbEntity
  8
8
  6
CONTINUOUS
 62
     6
100
AcDbLine
 10
433.15
 20
319.549712
 30
0.0
 11
458.15
 21
344.549712
 31
0.0
  0
LINE
  5
603
100
AcDbEntity
  8
8
  6
CONTINUOUS
 62
     6
100
AcDbLine
 10
426.529221
 20
320.0
 30
0.0
 11
458.15
 21
351.620779
 31
0.0
  0
LINE
  5
604
100
AcDbEntity
  8
8
  6
CONTINUOUS
 62
     6
100
AcDbLine
 10
419.458153
 20
320.0
 30
0.0
 11
458.15
 21
358.691847
 31
0.0
  0
LINE
  5
605
100
AcDbEntity
  8
8
  6
CONTINUOUS
 62
     6
100
AcDbLine
 10
412.387085
 20
320.0
 30
0.0
 11
432.387085
 21
340.0
 31
0.0
  0
LINE
  5
606
100
AcDbEntity
  8
8
  6
CONTINUOUS
 62
     6
100
AcDbLine
 10
433.15
 20
340.762915
 30
0.0
 11
458.15
 21
365.762915
 31
0.0
  0
LINE
  5
607
100
AcDbEntity
  8
8
  6
CONTINUOUS
 62
     6
100
AcDbLine
 10
410.15
 20
324.833983
 30
0.0
 11
425.316017
 21
340.0
 31
0.0
  0
LINE
  5
608
100
AcDbEntity
  8
8
  6
CONTINUOUS
 62
     6
100
AcDbLine
 10
433.15
 20
347.833983
 30
0.0
 11
458.15
 21
372.833983
 31
0.0
  0
LINE
  5
609
100
AcDbEntity
  8
8
  6
CONTINUOUS
 62
     6
100
AcDbLine
 10
410.15
 20
331.905051
 30
0.0
 11
418.244949
 21
340.0
 31
0.0
  0
LINE
  5
60A
100
AcDbEntity
  8
8
  6
CONTINUOUS
 62
     6
100
AcDbLine
 10
433.15
 20
354.905051
 30
0.0
 11
458.15
 21
379.905051
 31
0.0
  0
LINE
  5
60B
100
AcDbEntity
  8
8
  6
CONTINUOUS
 62
     6
100
AcDbLine
 10
410.15
 20
338.976118
 30
0.0
 11
411.173882
 21
340.0
 31
0.0
  0
LINE
  5
60C
100
AcDbEntity
  8
8
  6
CONTINUOUS
 62
     6
100
AcDbLine
 10
433.15
 20
361.976118
 30
0.0
 11
458.15
 21
386.976118
 31
0.0
  0
LINE
  5
60D
100
AcDbEntity
  8
8
  6
CONTINUOUS
 62
     6
100
AcDbLine
 10
433.15
 20
369.047186
 30
0.0
 11
458.15
 21
394.047186
 31
0.0
  0
LINE
  5
60E
100
AcDbEntity
  8
8
  6
CONTINUOUS
 62
     6
100
AcDbLine
 10
433.15
 20
376.118254
 30
0.0
 11
458.15
 21
401.118254
 31
0.0
  0
LINE
  5
60F
100
AcDbEntity
  8
8
  6
CONTINUOUS
 62
     6
100
AcDbLine
 10
433.15
 20
383.189322
 30
0.0
 11
458.15
 21
408.189322
 31
0.0
  0
LINE
  5
610
100
AcDbEntity
  8
8
  6
CONTINUOUS
 62
     6
100
AcDbLine
 10
433.15
 20
390.26039
 30
0.0
 11
458.15
 21
415.26039
 31
0.0
  0
LINE
  5
611
100
AcDbEntity
  8
8
  6
CONTINUOUS
 62
     6
100
AcDbLine
 10
433.15
 20
397.331458
 30
0.0
 11
458.15
 21
422.331458
 31
0.0
  0
LINE
  5
612
100
AcDbEntity
  8
8
  6
CONTINUOUS
 62
     6
100
AcDbLine
 10
433.15
 20
404.402525
 30
0.0
 11
458.15
 21
429.402525
 31
0.0
  0
LINE
  5
613
100
AcDbEntity
  8
8
  6
CONTINUOUS
 62
     6
100
AcDbLine
 10
433.15
 20
411.473593
 30
0.0
 11
458.15
 21
436.473593
 31
0.0
  0
LINE
  5
614
100
AcDbEntity
  8
8
  6
CONTINUOUS
 62
     6
100
AcDbLine
 10
433.15
 20
418.544661
 30
0.0
 11
458.15
 21
443.544661
 31
0.0
  0
LINE
  5
615
100
AcDbEntity
  8
8
  6
CONTINUOUS
 62
     6
100
AcDbLine
 10
433.15
 20
425.615729
 30
0.0
 11
458.15
 21
450.615729
 31
0.0
  0
LINE
  5
616
100
AcDbEntity
  8
8
  6
CONTINUOUS
 62
     6
100
AcDbLine
 10
433.15
 20
432.686797
 30
0.0
 11
458.15
 21
457.686797
 31
0.0
  0
LINE
  5
617
100
AcDbEntity
  8
8
  6
CONTINUOUS
 62
     6
100
AcDbLine
 10
433.15
 20
439.757864
 30
0.0
 11
458.15
 21
464.757864
 31
0.0
  0
LINE
  5
618
100
AcDbEntity
  8
8
  6
CONTINUOUS
 62
     6
100
AcDbLine
 10
433.15
 20
446.828932
 30
0.0
 11
458.15
 21
471.828932
 31
0.0
  0
LINE
  5
619
100
AcDbEntity
  8
8
  6
CONTINUOUS
 62
     6
100
AcDbLine
 10
433.15
 20
453.9
 30
0.0
 11
458.15
 21
478.9
 31
0.0
  0
LINE
  5
61A
100
AcDbEntity
  8
8
  6
CONTINUOUS
 62
     6
100
AcDbLine
 10
433.15
 20
460.971068
 30
0.0
 11
458.15
 21
485.971068
 31
0.0
  0
LINE
  5
61B
100
AcDbEntity
  8
8
  6
CONTINUOUS
 62
     6
100
AcDbLine
 10
433.15
 20
468.042136
 30
0.0
 11
458.15
 21
493.042136
 31
0.0
  0
LINE
  5
61C
100
AcDbEntity
  8
8
  6
CONTINUOUS
 62
     6
100
AcDbLine
 10
433.15
 20
475.113203
 30
0.0
 11
458.15
 21
500.113203
 31
0.0
  0
LINE
  5
61D
100
AcDbEntity
  8
8
  6
CONTINUOUS
 62
     6
100
AcDbLine
 10
433.15
 20
482.184271
 30
0.0
 11
458.15
 21
507.184271
 31
0.0
  0
LINE
  5
61E
100
AcDbEntity
  8
8
  6
CONTINUOUS
 62
     6
100
AcDbLine
 10
433.15
 20
489.255339
 30
0.0
 11
458.15
 21
514.255339
 31
0.0
  0
LINE
  5
61F
100
AcDbEntity
  8
8
  6
CONTINUOUS
 62
     6
100
AcDbLine
 10
433.15
 20
496.326407
 30
0.0
 11
458.15
 21
521.326407
 31
0.0
  0
LINE
  5
620
100
AcDbEntity
  8
8
  6
CONTINUOUS
 62
     6
100
AcDbLine
 10
433.15
 20
503.397475
 30
0.0
 11
456.451263
 21
526.698737
 31
0.0
  0
LINE
  5
621
100
AcDbEntity
  8
8
  6
CONTINUOUS
 62
     6
100
AcDbLine
 10
427.681458
 20
505.0
 30
0.0
 11
452.681458
 21
530.0
 31
0.0
  0
LINE
  5
622
100
AcDbEntity
  8
8
  6
CONTINUOUS
 62
     6
100
AcDbLine
 10
420.61039
 20
505.0
 30
0.0
 11
445.61039
 21
530.0
 31
0.0
  0
LINE
  5
623
100
AcDbEntity
  8
8
  6
CONTINUOUS
 62
     6
100
AcDbLine
 10
413.539322
 20
505.0
 30
0.0
 11
438.539322
 21
530.0
 31
0.0
  0
LINE
  5
624
100
AcDbEntity
  8
8
  6
CONTINUOUS
 62
     6
100
AcDbLine
 10
406.468254
 20
505.0
 30
0.0
 11
431.468254
 21
530.0
 31
0.0
  0
LINE
  5
625
100
AcDbEntity
  8
8
  6
CONTINUOUS
 62
     6
100
AcDbLine
 10
399.397186
 20
505.0
 30
0.0
 11
424.397186
 21
530.0
 31
0.0
  0
LINE
  5
626
100
AcDbEntity
  8
8
  6
CONTINUOUS
 62
     6
100
AcDbLine
 10
392.326118
 20
505.0
 30
0.0
 11
417.326118
 21
530.0
 31
0.0
  0
LINE
  5
627
100
AcDbEntity
  8
8
  6
CONTINUOUS
 62
     6
100
AcDbLine
 10
385.255051
 20
505.0
 30
0.0
 11
410.255051
 21
530.0
 31
0.0
  0
LINE
  5
628
100
AcDbEntity
  8
8
  6
CONTINUOUS
 62
     6
100
AcDbLine
 10
378.183983
 20
505.0
 30
0.0
 11
403.183983
 21
530.0
 31
0.0
  0
LINE
  5
629
100
AcDbEntity
  8
8
  6
CONTINUOUS
 62
     6
100
AcDbLine
 10
376.112915
 20
510.0
 30
0.0
 11
396.112915
 21
530.0
 31
0.0
  0
LINE
  5
62A
100
AcDbEntity
  8
8
  6
CONTINUOUS
 62
     6
100
AcDbLine
 10
369.041847
 20
510.0
 30
0.0
 11
389.041847
 21
530.0
 31
0.0
  0
LINE
  5
62B
100
AcDbEntity
  8
8
  6
CONTINUOUS
 62
     6
100
AcDbLine
 10
361.970779
 20
510.0
 30
0.0
 11
381.970779
 21
530.0
 31
0.0
  0
LINE
  5
62C
100
AcDbEntity
  8
8
  6
CONTINUOUS
 62
     6
100
AcDbLine
 10
360.35
 20
515.450288
 30
0.0
 11
380.0
 21
535.100288
 31
0.0
  0
LINE
  5
62D
100
AcDbEntity
  8
8
  6
CONTINUOUS
 62
     6
100
AcDbLine
 10
360.35
 20
522.521356
 30
0.0
 11
380.0
 21
542.171356
 31
0.0
  0
LINE
  5
62E
100
AcDbEntity
  8
8
  6
CONTINUOUS
 62
     6
100
AcDbLine
 10
360.35
 20
529.592424
 30
0.0
 11
380.0
 21
549.242424
 31
0.0
  0
LINE
  5
62F
100
AcDbEntity
  8
8
  6
CONTINUOUS
 62
     6
100
AcDbLine
 10
360.35
 20
536.663492
 30
0.0
 11
380.0
 21
556.313492
 31
0.0
  0
LINE
  5
630
100
AcDbEntity
  8
8
  6
CONTINUOUS
 62
     6
100
AcDbLine
 10
360.35
 20
543.73456
 30
0.0
 11
380.0
 21
563.38456
 31
0.0
  0
LINE
  5
631
100
AcDbEntity
  8
8
  6
CONTINUOUS
 62
     6
100
AcDbLine
 10
360.35
 20
550.805627
 30
0.0
 11
380.0
 21
570.455627
 31
0.0
  0
LINE
  5
632
100
AcDbEntity
  8
8
  6
CONTINUOUS
 62
     6
100
AcDbLine
 10
360.35
 20
557.876695
 30
0.0
 11
380.0
 21
577.526695
 31
0.0
  0
LINE
  5
633
100
AcDbEntity
  8
8
  6
CONTINUOUS
 62
     6
100
AcDbLine
 10
360.35
 20
564.947763
 30
0.0
 11
380.0
 21
584.597763
 31
0.0
  0
LINE
  5
634
100
AcDbEntity
  8
8
  6
CONTINUOUS
 62
     6
100
AcDbLine
 10
360.35
 20
572.018831
 30
0.0
 11
380.0
 21
591.668831
 31
0.0
  0
LINE
  5
635
100
AcDbEntity
  8
8
  6
CONTINUOUS
 62
     6
100
AcDbLine
 10
360.35
 20
579.089899
 30
0.0
 11
380.0
 21
598.739899
 31
0.0
  0
LINE
  5
636
100
AcDbEntity
  8
8
  6
CONTINUOUS
 62
     6
100
AcDbLine
 10
360.35
 20
586.160967
 30
0.0
 11
364.189033
 21
590.0
 31
0.0
  0
LINE
  5
637
100
AcDbEntity
  8
8
  6
CONTINUOUS
 62
     6
100
AcDbLine
 10
367.320508
 20
593.131475
 30
0.0
 11
380.0
 21
605.810967
 31
0.0
  0
LINE
  5
638
100
AcDbEntity
  8
8
  6
CONTINUOUS
 62
     6
100
AcDbLine
 10
367.320508
 20
600.202542
 30
0.0
 11
380.0
 21
612.882034
 31
0.0
  0
LINE
  5
639
100
AcDbEntity
  8
8
  6
CONTINUOUS
 62
     6
100
AcDbLine
 10
367.320508
 20
607.27361
 30
0.0
 11
377.0
 21
616.953102
 31
0.0
  0
LINE
  5
63A
100
AcDbEntity
  8
8
  6
CONTINUOUS
 62
     6
100
AcDbLine
 10
367.320508
 20
614.344678
 30
0.0
 11
377.0
 21
624.02417
 31
0.0
  0
LINE
  5
63B
100
AcDbEntity
  8
8
  6
CONTINUOUS
 62
     6
100
AcDbLine
 10
367.320508
 20
621.415746
 30
0.0
 11
373.952381
 21
628.047619
 31
0.0
  0
LINE
  5
63C
100
AcDbEntity
  8
8
  6
CONTINUOUS
 62
     6
100
AcDbLine
 10
367.320508
 20
628.486814
 30
0.0
 11
368.833694
 21
630.0
 31
0.0
  0
ENDBLK
  5
63D
100
AcDbEntity
  8
0
100
AcDbBlockEnd
  0
BLOCK
  5
640
100
AcDbEntity
  8
8
  6
CONTINUOUS
 62
     6
100
AcDbBlockBegin
  2
*G67
 70
     0
 10
0.0
 20
0.0
 30
0.0
  3
*G67
  1

  0
LINE
  5
641
100
AcDbEntity
  8
8
  6
CONTINUOUS
 62
     6
100
AcDbLine
 10
395.467136
 20
320.0
 30
0.0
 11
400.15
 21
324.682864
 31
0.0
  0
LINE
  5
642
100
AcDbEntity
  8
8
  6
CONTINUOUS
 62
     6
100
AcDbLine
 10
388.396068
 20
320.0
 30
0.0
 11
400.15
 21
331.753932
 31
0.0
  0
LINE
  5
643
100
AcDbEntity
  8
8
  6
CONTINUOUS
 62
     6
100
AcDbLine
 10
382.5
 20
321.175
 30
0.0
 11
400.15
 21
338.825
 31
0.0
  0
LINE
  5
644
100
AcDbEntity
  8
8
  6
CONTINUOUS
 62
     6
100
AcDbLine
 10
382.5
 20
328.246068
 30
0.0
 11
394.253932
 21
340.0
 31
0.0
  0
LINE
  5
645
100
AcDbEntity
  8
8
  6
CONTINUOUS
 62
     6
100
AcDbLine
 10
382.5
 20
335.317136
 30
0.0
 11
387.182864
 21
340.0
 31
0.0
  0
ENDBLK
  5
646
100
AcDbEntity
  8
0
100
AcDbBlockEnd
  0
BLOCK
  5
649
100
AcDbEntity
  8
7
  6
CONTINUOUS
 62
     4
100
AcDbBlockBegin
  2
*D68
 70
     0
 10
0.0
 20
0.0
 30
0.0
  3
*D68
  1

  0
LINE
  5
64A
100
AcDbEntity
  8
7
  6
CONTINUOUS
 62
     4
100
AcDbLine
 10
241.85
 20
177.363841
 30
0.0
 11
458.15
 21
177.363841
 31
0.0
  0
LINE
  5
64B
100
AcDbEntity
  8
7
  6
CONTINUOUS
 62
     4
100
AcDbLine
 10
241.85
 20
172.363841
 30
0.0
 11
241.85
 21
225.0
 31
0.0
  0
LINE
  5
64C
100
AcDbEntity
  8
7
  6
CONTINUOUS
 62
     4
100
AcDbLine
 10
458.15
 20
172.363841
 30
0.0
 11
458.15
 21
225.0
 31
0.0
  0
LINE
  5
64D
100
AcDbEntity
  8
7
  6
CONTINUOUS
 62
     4
100
AcDbLine
 10
241.85
 20
177.363841
 30
0.0
 11
251.509258
 21
179.952032
 31
0.0
  0
LINE
  5
64E
100
AcDbEntity
  8
7
  6
CONTINUOUS
 62
     4
100
AcDbLine
 10
241.85
 20
177.363841
 30
0.0
 11
251.509258
 21
174.775651
 31
0.0
  0
LINE
  5
64F
100
AcDbEntity
  8
7
  6
CONTINUOUS
 62
     4
100
AcDbLine
 10
458.15
 20
177.363841
 30
0.0
 11
448.490742
 21
174.775651
 31
0.0
  0
LINE
  5
650
100
AcDbEntity
  8
7
  6
CONTINUOUS
 62
     4
100
AcDbLine
 10
458.15
 20
177.363841
 30
0.0
 11
448.490742
 21
179.952032
 31
0.0
  0
TEXT
  5
651
100
AcDbEntity
  8
7
  6
CONTINUOUS
 62
     4
100
AcDbText
 10
323.75
 20
177.363841
 30
0.0
 40
15.0
  1
%%c216.3
 41
0.625
 11
323.75
 21
177.363841
 31
0.0
100
AcDbText
 73
     1
  0
ENDBLK
  5
652
100
AcDbEntity
  8
7
  6
CONTINUOUS
 62
     4
100
AcDbBlockEnd
  0
BLOCK
  5
655
100
AcDbEntity
  8
7
  6
CONTINUOUS
 62
     4
100
AcDbBlockBegin
  2
*D69
 70
     0
 10
0.0
 20
0.0
 30
0.0
  3
*D69
  1

  0
LINE
  5
656
100
AcDbEntity
  8
7
  6
CONTINUOUS
 62
     4
100
AcDbLine
 10
275.0
 20
200.0
 30
0.0
 11
425.0
 21
200.0
 31
0.0
  0
LINE
  5
657
100
AcDbEntity
  8
7
  6
CONTINUOUS
 62
     4
100
AcDbLine
 10
275.0
 20
195.0
 30
0.0
 11
275.0
 21
225.0
 31
0.0
  0
LINE
  5
658
100
AcDbEntity
  8
7
  6
CONTINUOUS
 62
     4
100
AcDbLine
 10
425.0
 20
195.0
 30
0.0
 11
425.0
 21
225.0
 31
0.0
  0
LINE
  5
659
100
AcDbEntity
  8
7
  6
CONTINUOUS
 62
     4
100
AcDbLine
 10
275.0
 20
200.0
 30
0.0
 11
284.659258
 21
202.58819
 31
0.0
  0
LINE
  5
65A
100
AcDbEntity
  8
7
  6
CONTINUOUS
 62
     4
100
AcDbLine
 10
275.0
 20
200.0
 30
0.0
 11
284.659258
 21
197.41181
 31
0.0
  0
LINE
  5
65B
100
AcDbEntity
  8
7
  6
CONTINUOUS
 62
     4
100
AcDbLine
 10
425.0
 20
200.0
 30
0.0
 11
415.340742
 21
197.41181
 31
0.0
  0
LINE
  5
65C
100
AcDbEntity
  8
7
  6
CONTINUOUS
 62
     4
100
AcDbLine
 10
425.0
 20
200.0
 30
0.0
 11
415.340742
 21
202.58819
 31
0.0
  0
TEXT
  5
65D
100
AcDbEntity
  8
7
  6
CONTINUOUS
 62
     4
100
AcDbText
 10
331.25
 20
200.0
 30
0.0
 40
15.0
  1
%%c150
 41
0.625
 11
331.25
 21
200.0
 31
0.0
100
AcDbText
 73
     1
  0
ENDBLK
  5
65E
100
AcDbEntity
  8
7
  6
CONTINUOUS
 62
     4
100
AcDbBlockEnd
  0
BLOCK
  5
661
100
AcDbEntity
  8
7
  6
CONTINUOUS
 62
     4
100
AcDbBlockBegin
  2
*D70
 70
     0
 10
0.0
 20
0.0
 30
0.0
  3
*D70
  1

  0
LINE
  5
662
100
AcDbEntity
  8
7
  6
CONTINUOUS
 62
     4
100
AcDbLine
 10
528.15
 20
230.0
 30
0.0
 11
528.15
 21
530.0
 31
0.0
  0
LINE
  5
663
100
AcDbEntity
  8
7
  6
CONTINUOUS
 62
     4
100
AcDbLine
 10
533.15
 20
230.0
 30
0.0
 11
523.15
 21
230.0
 31
0.0
  0
LINE
  5
664
100
AcDbEntity
  8
7
  6
CONTINUOUS
 62
     4
100
AcDbLine
 10
533.15
 20
530.0
 30
0.0
 11
458.15
 21
530.0
 31
0.0
  0
LINE
  5
665
100
AcDbEntity
  8
7
  6
CONTINUOUS
 62
     4
100
AcDbLine
 10
528.15
 20
230.0
 30
0.0
 11
525.56181
 21
239.659258
 31
0.0
  0
LINE
  5
666
100
AcDbEntity
  8
7
  6
CONTINUOUS
 62
     4
100
AcDbLine
 10
528.15
 20
230.0
 30
0.0
 11
530.73819
 21
239.659258
 31
0.0
  0
LINE
  5
667
100
AcDbEntity
  8
7
  6
CONTINUOUS
 62
     4
100
AcDbLine
 10
528.15
 20
530.0
 30
0.0
 11
530.73819
 21
520.340742
 31
0.0
  0
LINE
  5
668
100
AcDbEntity
  8
7
  6
CONTINUOUS
 62
     4
100
AcDbLine
 10
528.15
 20
530.0
 30
0.0
 11
525.56181
 21
520.340742
 31
0.0
  0
TEXT
  5
669
100
AcDbEntity
  8
7
  6
CONTINUOUS
 62
     4
100
AcDbText
 10
528.15
 20
368.75
 30
0.0
 40
15.0
  1
300
 50
90.0
 41
0.5
 11
528.15
 21
368.75
 31
0.0
100
AcDbText
 73
     1
  0
ENDBLK
  5
66A
100
AcDbEntity
  8
7
  6
CONTINUOUS
 62
     4
100
AcDbBlockEnd
  0
BLOCK
  5
66D
100
AcDbEntity
  8
7
  6
CONTINUOUS
 62
     4
100
AcDbBlockBegin
  2
*D71
 70
     0
 10
0.0
 20
0.0
 30
0.0
  3
*D71
  1

  0
LINE
  5
66E
100
AcDbEntity
  8
7
  6
CONTINUOUS
 62
     4
100
AcDbLine
 10
221.85
 20
485.0
 30
0.0
 11
221.85
 21
550.0
 31
0.0
  0
LINE
  5
66F
100
AcDbEntity
  8
7
  6
CONTINUOUS
 62
     4
100
AcDbLine
 10
216.85
 20
505.0
 30
0.0
 11
236.85
 21
505.0
 31
0.0
  0
LINE
  5
670
100
AcDbEntity
  8
7
  6
CONTINUOUS
 62
     4
100
AcDbLine
 10
216.85
 20
530.0
 30
0.0
 11
241.85
 21
530.0
 31
0.0
  0
LINE
  5
671
100
AcDbEntity
  8
7
  6
CONTINUOUS
 62
     4
100
AcDbLine
 10
221.85
 20
505.0
 30
0.0
 11
224.43819
 21
495.340742
 31
0.0
  0
LINE
  5
672
100
AcDbEntity
  8
7
  6
CONTINUOUS
 62
     4
100
AcDbLine
 10
221.85
 20
505.0
 30
0.0
 11
219.26181
 21
495.340742
 31
0.0
  0
LINE
  5
673
100
AcDbEntity
  8
7
  6
CONTINUOUS
 62
     4
100
AcDbLine
 10
221.85
 20
530.0
 30
0.0
 11
219.26181
 21
539.659258
 31
0.0
  0
LINE
  5
674
100
AcDbEntity
  8
7
  6
CONTINUOUS
 62
     4
100
AcDbLine
 10
221.85
 20
530.0
 30
0.0
 11
224.43819
 21
539.659258
 31
0.0
  0
TEXT
  5
675
100
AcDbEntity
  8
7
  6
CONTINUOUS
 62
     4
100
AcDbText
 10
221.85
 20
510.0
 30
0.0
 40
15.0
  1
25
 50
90.0
 41
0.5
 11
221.85
 21
510.0
 31
0.0
100
AcDbText
 73
     1
  0
ENDBLK
  5
676
100
AcDbEntity
  8
7
  6
CONTINUOUS
 62
     4
100
AcDbBlockEnd
  0
BLOCK
  5
679
100
AcDbEntity
  8
7
  6
CONTINUOUS
 62
     4
100
AcDbBlockBegin
  2
*D72
 70
     0
 10
0.0
 20
0.0
 30
0.0
  3
*D72
  1

  0
LINE
  5
67A
100
AcDbEntity
  8
7
  6
CONTINUOUS
 62
     4
100
AcDbLine
 10
286.85
 20
400.0
 30
0.0
 11
212.475
 21
400.0
 31
0.0
  0
LINE
  5
67B
100
AcDbEntity
  8
7
  6
CONTINUOUS
 62
     4
100
AcDbLine
 10
266.85
 20
400.0
 30
0.0
 11
276.509258
 21
402.58819
 31
0.0
  0
LINE
  5
67C
100
AcDbEntity
  8
7
  6
CONTINUOUS
 62
     4
100
AcDbLine
 10
266.85
 20
400.0
 30
0.0
 11
276.509258
 21
397.41181
 31
0.0
  0
LINE
  5
67D
100
AcDbEntity
  8
7
  6
CONTINUOUS
 62
     4
100
AcDbLine
 10
241.85
 20
400.0
 30
0.0
 11
232.190742
 21
397.41181
 31
0.0
  0
LINE
  5
67E
100
AcDbEntity
  8
7
  6
CONTINUOUS
 62
     4
100
AcDbLine
 10
241.85
 20
400.0
 30
0.0
 11
232.190742
 21
402.58819
 31
0.0
  0
TEXT
  5
67F
100
AcDbEntity
  8
7
  6
CONTINUOUS
 62
     4
100
AcDbText
 10
213.1
 20
400.0
 30
0.0
 40
15.0
  1
25
 41
0.5
 11
213.1
 21
400.0
 31
0.0
100
AcDbText
 73
     1
  0
ENDBLK
  5
680
100
AcDbEntity
  8
7
  6
CONTINUOUS
 62
     4
100
AcDbBlockEnd
  0
BLOCK
  5
683
100
AcDbEntity
  8
7
  6
CONTINUOUS
 62
     4
100
AcDbBlockBegin
  2
*D73
 70
     0
 10
0.0
 20
0.0
 30
0.0
  3
*D73
  1

  0
LINE
  5
684
100
AcDbEntity
  8
7
  6
CONTINUOUS
 62
     4
100
AcDbLine
 10
558.15
 20
230.0
 30
0.0
 11
558.15
 21
630.0
 31
0.0
  0
LINE
  5
685
100
AcDbEntity
  8
7
  6
CONTINUOUS
 62
     4
100
AcDbLine
 10
563.15
 20
230.0
 30
0.0
 11
523.15
 21
230.0
 31
0.0
  0
LINE
  5
686
100
AcDbEntity
  8
7
  6
CONTINUOUS
 62
     4
100
AcDbLine
 10
563.15
 20
630.0
 30
0.0
 11
432.5
 21
630.0
 31
0.0
  0
LINE
  5
687
100
AcDbEntity
  8
7
  6
CONTINUOUS
 62
     4
100
AcDbLine
 10
558.15
 20
230.0
 30
0.0
 11
555.56181
 21
239.659258
 31
0.0
  0
LINE
  5
688
100
AcDbEntity
  8
7
  6
CONTINUOUS
 62
     4
100
AcDbLine
 10
558.15
 20
230.0
 30
0.0
 11
560.73819
 21
239.659258
 31
0.0
  0
LINE
  5
689
100
AcDbEntity
  8
7
  6
CONTINUOUS
 62
     4
100
AcDbLine
 10
558.15
 20
630.0
 30
0.0
 11
560.73819
 21
620.340742
 31
0.0
  0
LINE
  5
68A
100
AcDbEntity
  8
7
  6
CONTINUOUS
 62
     4
100
AcDbLine
 10
558.15
 20
630.0
 30
0.0
 11
555.56181
 21
620.340742
 31
0.0
  0
TEXT
  5
68B
100
AcDbEntity
  8
7
  6
CONTINUOUS
 62
     4
100
AcDbText
 10
558.15
 20
418.75
 30
0.0
 40
15.0
  1
400
 50
90.0
 41
0.5
 11
558.15
 21
418.75
 31
0.0
100
AcDbText
 73
     1
  0
ENDBLK
  5
68C
100
AcDbEntity
  8
7
  6
CONTINUOUS
 62
     4
100
AcDbBlockEnd
  0
ENDSEC
  0
SECTION
  2
ENTITIES
  0
TEXT
  5
38
100
AcDbEntity
  8
4
  6
CONTINUOUS
 62
    21
100
AcDbText
 10
1093.4
 20
33.725
 30
0.0
 40
15.975
  1
FURUNO ELECTRIC CO., LTD.
 41
0.921829
 11
1093.4
 21
33.725
 31
0.0
100
AcDbText
 73
     1
  0
CIRCLE
  5
39
100
AcDbEntity
  8
1
  6
CONTINUOUS
 62
     4
100
AcDbCircle
 10
350.0
 20
830.0
 30
0.0
 40
108.15
  0
CIRCLE
  5
3A
100
AcDbEntity
  8
1
  6
CONTINUOUS
 62
     4
100
AcDbCircle
 10
350.0
 20
830.0
 30
0.0
 40
103.15
  0
CIRCLE
  5
3B
100
AcDbEntity
  8
1
  6
CONTINUOUS
 62
     4
100
AcDbCircle
 10
350.0
 20
830.0
 30
0.0
 40
15.0
  0
CIRCLE
  5
3C
100
AcDbEntity
  8
1
  6
CONTINUOUS
 62
     4
100
AcDbCircle
 10
350.0
 20
830.0
 30
0.0
 40
9.35
  0
INSERT
  5
46
100
AcDbEntity
  8
1
  6
CONTINUOUS
 62
     4
100
AcDbBlockReference
  2
*G0
 10
0.0
 20
0.0
 30
0.0
  0
LINE
  5
47
100
AcDbEntity
  8
1
  6
CONTINUOUS
 62
     4
100
AcDbLine
 10
446.15
 20
835.0
 30
0.0
 11
446.15
 21
825.0
 31
0.0
  0
LINE
  5
48
100
AcDbEntity
  8
1
  6
CONTINUOUS
 62
     4
100
AcDbLine
 10
416.15
 20
835.0
 30
0.0
 11
416.15
 21
825.0
 31
0.0
  0
LINE
  5
49
100
AcDbEntity
  8
1
  6
CONTINUOUS
 62
     4
100
AcDbLine
 10
253.85
 20
835.0
 30
0.0
 11
253.85
 21
825.0
 31
0.0
  0
LINE
  5
4A
100
AcDbEntity
  8
1
  6
CONTINUOUS
 62
     4
100
AcDbLine
 10
283.85
 20
835.0
 30
0.0
 11
283.85
 21
825.0
 31
0.0
  0
LINE
  5
4B
100
AcDbEntity
  8
1
  6
CENTER
 62
     4
100
AcDbLine
 10
350.0
 20
959.78
 30
0.0
 11
350.0
 21
700.22
 31
0.0
  0
LINE
  5
4C
100
AcDbEntity
  8
1
  6
CENTER
 62
     4
100
AcDbLine
 10
220.22
 20
830.0
 30
0.0
 11
479.78
 21
830.0
 31
0.0
  0
LINE
  5
4D
100
AcDbEntity
  8
1
  6
CONTINUOUS
 62
     4
100
AcDbLine
 10
517.73528
 20
830.0
 30
0.0
 11
584.011062
 21
830.0
 31
0.0
  0
LINE
  5
4E
100
AcDbEntity
  8
1
  6
CONTINUOUS
 62
     4
100
AcDbLine
 10
517.73528
 20
830.0
 30
0.0
 11
507.73528
 21
840.0
 31
0.0
  0
LINE
  5
4F
100
AcDbEntity
  8
1
  6
CONTINUOUS
 62
     4
100
AcDbLine
 10
522.73528
 20
830.0
 30
0.0
 11
512.73528
 21
840.0
 31
0.0
  0
LINE
  5
50
100
AcDbEntity
  8
1
  6
CONTINUOUS
 62
     4
100
AcDbLine
 10
527.73528
 20
830.0
 30
0.0
 11
517.73528
 21
840.0
 31
0.0
  0
LINE
  5
51
100
AcDbEntity
  8
1
  6
CONTINUOUS
 62
     4
100
AcDbLine
 10
532.73528
 20
830.0
 30
0.0
 11
522.73528
 21
840.0
 31
0.0
  0
LINE
  5
52
100
AcDbEntity
  8
1
  6
CONTINUOUS
 62
     4
100
AcDbLine
 10
537.73528
 20
830.0
 30
0.0
 11
527.73528
 21
840.0
 31
0.0
  0
LINE
  5
53
100
AcDbEntity
  8
1
  6
CONTINUOUS
 62
     4
100
AcDbLine
 10
507.73528
 20
840.0
 30
0.0
 11
527.73528
 21
840.0
 31
0.0
  0
TEXT
  5
54
100
AcDbEntity
  8
1
  6
CONTINUOUS
 62
     4
100
AcDbText
 10
517.73528
 20
795.0
 30
0.0
 40
15.0
  1
FORWARD
 41
0.5
 11
517.73528
 21
795.0
 31
0.0
100
AcDbText
 73
     1
  0
TEXT
  5
55
100
AcDbEntity
  8
1
  6
CONTINUOUS
 62
     4
100
AcDbText
 10
517.73528
 20
780.0
 30
0.0
 40
15.0
  1
DIRECTION
 41
0.5
 11
517.73528
 21
780.0
 31
0.0
100
AcDbText
 73
     1
  0
TEXT
  5
56
100
AcDbEntity
  8
1
  6
CONTINUOUS
 62
     4
100
AcDbText
 10
517.73528
 20
810.0
 30
0.0
 40
15.0
  1
船首方向
 41
0.833333
 11
517.73528
 21
810.0
 31
0.0
100
AcDbText
 73
     1
  0
LINE
  5
57
100
AcDbEntity
  8
1
  6
CONTINUOUS
 62
     4
100
AcDbLine
 10
584.011062
 20
830.0
 30
0.0
 11
564.163406
 21
834.961914
 31
0.0
  0
LINE
  5
58
100
AcDbEntity
  8
4
  6
CONTINUOUS
 62
    21
100
AcDbLine
 10
1306.4
 20
961.475
 30
0.0
 11
1306.4
 21
996.975
 31
0.0
  0
INSERT
  5
62
100
AcDbEntity
  8
4
  6
CONTINUOUS
 62
    21
100
AcDbBlockReference
  2
*G1
 10
0.0
 20
0.0
 30
0.0
  0
LINE
  5
63
100
AcDbEntity
  8
4
  6
CONTINUOUS
 62
    21
100
AcDbLine
 10
67.45
 20
989.52
 30
0.0
 11
103.21625
 21
989.52
 31
0.0
  0
LINE
  5
64
100
AcDbEntity
  8
4
  6
CONTINUOUS
 62
    21
100
AcDbLine
 10
67.45
 20
990.94
 30
0.0
 11
103.21625
 21
990.94
 31
0.0
  0
LINE
  5
65
100
AcDbEntity
  8
4
  6
CONTINUOUS
 62
    21
100
AcDbLine
 10
67.45
 20
992.36
 30
0.0
 11
103.21625
 21
992.36
 31
0.0
  0
LINE
  5
66
100
AcDbEntity
  8
4
  6
CONTINUOUS
 62
    21
100
AcDbLine
 10
67.45
 20
993.78
 30
0.0
 11
87.640625
 21
993.78
 31
0.0
  0
LINE
  5
67
100
AcDbEntity
  8
4
  6
CONTINUOUS
 62
    21
100
AcDbLine
 10
67.45
 20
995.2
 30
0.0
 11
87.640625
 21
995.2
 31
0.0
  0
LINE
  5
68
100
AcDbEntity
  8
4
  6
CONTINUOUS
 62
    21
100
AcDbLine
 10
67.45
 20
996.62
 30
0.0
 11
87.640625
 21
996.62
 31
0.0
  0
LINE
  5
69
100
AcDbEntity
  8
4
  6
CONTINUOUS
 62
    21
100
AcDbLine
 10
67.45
 20
998.04
 30
0.0
 11
108.408125
 21
998.04
 31
0.0
  0
LINE
  5
6A
100
AcDbEntity
  8
4
  6
CONTINUOUS
 62
    21
100
AcDbLine
 10
67.45
 20
999.46
 30
0.0
 11
108.408125
 21
999.46
 31
0.0
  0
LINE
  5
6B
100
AcDbEntity
  8
4
  6
CONTINUOUS
 62
    21
100
AcDbLine
 10
67.45
 20
1000.88
 30
0.0
 11
108.408125
 21
1000.88
 31
0.0
  0
LINE
  5
6C
100
AcDbEntity
  8
4
  6
CONTINUOUS
 62
    21
100
AcDbLine
 10
67.45
 20
988.1
 30
0.0
 11
103.21625
 21
988.1
 31
0.0
  0
LINE
  5
6D
100
AcDbEntity
  8
4
  6
CONTINUOUS
 62
    21
100
AcDbLine
 10
67.45
 20
986.68
 30
0.0
 11
87.640625
 21
986.68
 31
0.0
  0
LINE
  5
6E
100
AcDbEntity
  8
4
  6
CONTINUOUS
 62
    21
100
AcDbLine
 10
67.45
 20
985.26
 30
0.0
 11
87.640625
 21
985.26
 31
0.0
  0
LINE
  5
6F
100
AcDbEntity
  8
4
  6
CONTINUOUS
 62
    21
100
AcDbLine
 10
67.45
 20
983.84
 30
0.0
 11
87.640625
 21
983.84
 31
0.0
  0
LINE
  5
70
100
AcDbEntity
  8
4
  6
CONTINUOUS
 62
    21
100
AcDbLine
 10
67.45
 20
982.42
 30
0.0
 11
87.640625
 21
982.42
 31
0.0
  0
LINE
  5
71
100
AcDbEntity
  8
4
  6
CONTINUOUS
 62
    21
100
AcDbLine
 10
67.45
 20
981.0
 30
0.0
 11
87.640625
 21
981.0
 31
0.0
  0
LINE
  5
72
100
AcDbEntity
  8
4
  6
CONTINUOUS
 62
    21
100
AcDbLine
 10
67.45
 20
979.58
 30
0.0
 11
87.640625
 21
979.58
 31
0.0
  0
INSERT
  5
80
100
AcDbEntity
  8
4
  6
CONTINUOUS
 62
    21
100
AcDbBlockReference
  2
*G2
 10
0.0
 20
0.0
 30
0.0
  0
LINE
  5
81
100
AcDbEntity
  8
4
  6
CONTINUOUS
 62
    21
100
AcDbLine
 10
164.146927
 20
989.52
 30
0.0
 11
180.299427
 21
989.52
 31
0.0
  0
LINE
  5
82
100
AcDbEntity
  8
4
  6
CONTINUOUS
 62
    21
100
AcDbLine
 10
189.723367
 20
989.52
 30
0.0
 11
203.556574
 21
989.52
 31
0.0
  0
LINE
  5
83
100
AcDbEntity
  8
4
  6
CONTINUOUS
 62
    21
100
AcDbLine
 10
164.146927
 20
990.94
 30
0.0
 11
180.299427
 21
990.94
 31
0.0
  0
LINE
  5
84
100
AcDbEntity
  8
4
  6
CONTINUOUS
 62
    21
100
AcDbLine
 10
191.229479
 20
990.94
 30
0.0
 11
204.262097
 21
990.94
 31
0.0
  0
LINE
  5
85
100
AcDbEntity
  8
4
  6
CONTINUOUS
 62
    21
100
AcDbLine
 10
164.146927
 20
992.36
 30
0.0
 11
180.299427
 21
992.36
 31
0.0
  0
LINE
  5
86
100
AcDbEntity
  8
4
  6
CONTINUOUS
 62
    21
100
AcDbLine
 10
191.774021
 20
992.36
 30
0.0
 11
204.667078
 21
992.36
 31
0.0
  0
LINE
  5
87
100
AcDbEntity
  8
4
  6
CONTINUOUS
 62
    21
100
AcDbLine
 10
164.146927
 20
993.78
 30
0.0
 11
180.299427
 21
993.78
 31
0.0
  0
LINE
  5
88
100
AcDbEntity
  8
4
  6
CONTINUOUS
 62
    21
100
AcDbLine
 10
191.774021
 20
993.78
 30
0.0
 11
204.81529
 21
993.78
 31
0.0
  0
LINE
  5
89
100
AcDbEntity
  8
4
  6
CONTINUOUS
 62
    21
100
AcDbLine
 10
164.146927
 20
995.2
 30
0.0
 11
180.299427
 21
995.2
 31
0.0
  0
LINE
  5
8A
100
AcDbEntity
  8
4
  6
CONTINUOUS
 62
    21
100
AcDbLine
 10
191.229479
 20
995.2
 30
0.0
 11
204.720555
 21
995.2
 31
0.0
  0
LINE
  5
8B
100
AcDbEntity
  8
4
  6
CONTINUOUS
 62
    21
100
AcDbLine
 10
164.146927
 20
996.62
 30
0.0
 11
180.299427
 21
996.62
 31
0.0
  0
LINE
  5
8C
100
AcDbEntity
  8
4
  6
CONTINUOUS
 62
    21
100
AcDbLine
 10
189.723367
 20
996.62
 30
0.0
 11
204.37416
 21
996.62
 31
0.0
  0
LINE
  5
8D
100
AcDbEntity
  8
4
  6
CONTINUOUS
 62
    21
100
AcDbLine
 10
164.146927
 20
998.04
 30
0.0
 11
203.740311
 21
998.04
 31
0.0
  0
LINE
  5
8E
100
AcDbEntity
  8
4
  6
CONTINUOUS
 62
    21
100
AcDbLine
 10
164.146927
 20
999.46
 30
0.0
 11
202.732573
 21
999.46
 31
0.0
  0
LINE
  5
8F
100
AcDbEntity
  8
4
  6
CONTINUOUS
 62
    21
100
AcDbLine
 10
164.146927
 20
1000.88
 30
0.0
 11
201.114508
 21
1000.88
 31
0.0
  0
LINE
  5
90
100
AcDbEntity
  8
4
  6
CONTINUOUS
 62
    21
100
AcDbLine
 10
164.146927
 20
988.1
 30
0.0
 11
202.445293
 21
988.1
 31
0.0
  0
LINE
  5
91
100
AcDbEntity
  8
4
  6
CONTINUOUS
 62
    21
100
AcDbLine
 10
164.146927
 20
986.68
 30
0.0
 11
200.615111
 21
986.68
 31
0.0
  0
LINE
  5
92
100
AcDbEntity
  8
4
  6
CONTINUOUS
 62
    21
100
AcDbLine
 10
164.146927
 20
985.26
 30
0.0
 11
180.299427
 21
985.26
 31
0.0
  0
LINE
  5
93
100
AcDbEntity
  8
4
  6
CONTINUOUS
 62
    21
100
AcDbLine
 10
180.638292
 20
985.26
 30
0.0
 11
198.492964
 21
985.26
 31
0.0
  0
LINE
  5
94
100
AcDbEntity
  8
4
  6
CONTINUOUS
 62
    21
100
AcDbLine
 10
164.146927
 20
983.84
 30
0.0
 11
180.299427
 21
983.84
 31
0.0
  0
LINE
  5
95
100
AcDbEntity
  8
4
  6
CONTINUOUS
 62
    21
100
AcDbLine
 10
182.187381
 20
983.84
 30
0.0
 11
199.913014
 21
983.84
 31
0.0
  0
LINE
  5
96
100
AcDbEntity
  8
4
  6
CONTINUOUS
 62
    21
100
AcDbLine
 10
164.146927
 20
982.42
 30
0.0
 11
180.299427
 21
982.42
 31
0.0
  0
LINE
  5
97
100
AcDbEntity
  8
4
  6
CONTINUOUS
 62
    21
100
AcDbLine
 10
183.736473
 20
982.42
 30
0.0
 11
201.333063
 21
982.42
 31
0.0
  0
LINE
  5
98
100
AcDbEntity
  8
4
  6
CONTINUOUS
 62
    21
100
AcDbLine
 10
164.146927
 20
981.0
 30
0.0
 11
180.299427
 21
981.0
 31
0.0
  0
LINE
  5
99
100
AcDbEntity
  8
4
  6
CONTINUOUS
 62
    21
100
AcDbLine
 10
185.285562
 20
981.0
 30
0.0
 11
202.753113
 21
981.0
 31
0.0
  0
LINE
  5
9A
100
AcDbEntity
  8
4
  6
CONTINUOUS
 62
    21
100
AcDbLine
 10
164.146927
 20
979.58
 30
0.0
 11
180.299427
 21
979.58
 31
0.0
  0
LINE
  5
9B
100
AcDbEntity
  8
4
  6
CONTINUOUS
 62
    21
100
AcDbLine
 10
186.834654
 20
979.58
 30
0.0
 11
204.173163
 21
979.58
 31
0.0
  0
INSERT
  5
A6
100
AcDbEntity
  8
4
  6
CONTINUOUS
 62
    21
100
AcDbBlockReference
  2
*G3
 10
0.0
 20
0.0
 30
0.0
  0
ARC
  5
A7
100
AcDbEntity
  8
4
  6
CONTINUOUS
 62
    21
100
AcDbCircle
 10
196.451923
 20
993.935195
 30
0.0
 40
8.364805
100
AcDbArc
 50
-79.111847
 51
90.0
  0
INSERT
  5
AE
100
AcDbEntity
  8
4
  6
CONTINUOUS
 62
    21
100
AcDbBlockReference
  2
*G4
 10
0.0
 20
0.0
 30
0.0
  0
ARC
  5
AF
100
AcDbEntity
  8
4
  6
CONTINUOUS
 62
    21
100
AcDbCircle
 10
187.798802
 20
993.07
 30
0.0
 40
4.038125
100
AcDbArc
 50
-90.0
 51
90.0
  0
LINE
  5
B0
100
AcDbEntity
  8
4
  6
CONTINUOUS
 62
    21
100
AcDbLine
 10
115.288689
 20
989.52
 30
0.0
 11
131.38862
 21
989.52
 31
0.0
  0
LINE
  5
B1
100
AcDbEntity
  8
4
  6
CONTINUOUS
 62
    21
100
AcDbLine
 10
141.166435
 20
989.52
 30
0.0
 11
157.266367
 21
989.52
 31
0.0
  0
LINE
  5
B2
100
AcDbEntity
  8
4
  6
CONTINUOUS
 62
    21
100
AcDbLine
 10
115.22159
 20
990.94
 30
0.0
 11
131.37409
 21
990.94
 31
0.0
  0
LINE
  5
B3
100
AcDbEntity
  8
4
  6
CONTINUOUS
 62
    21
100
AcDbLine
 10
141.180965
 20
990.94
 30
0.0
 11
157.333465
 21
990.94
 31
0.0
  0
LINE
  5
B4
100
AcDbEntity
  8
4
  6
CONTINUOUS
 62
    21
100
AcDbLine
 10
115.22159
 20
992.36
 30
0.0
 11
131.37409
 21
992.36
 31
0.0
  0
LINE
  5
B5
100
AcDbEntity
  8
4
  6
CONTINUOUS
 62
    21
100
AcDbLine
 10
141.180965
 20
992.36
 30
0.0
 11
157.333465
 21
992.36
 31
0.0
  0
LINE
  5
B6
100
AcDbEntity
  8
4
  6
CONTINUOUS
 62
    21
100
AcDbLine
 10
115.22159
 20
993.78
 30
0.0
 11
131.37409
 21
993.78
 31
0.0
  0
LINE
  5
B7
100
AcDbEntity
  8
4
  6
CONTINUOUS
 62
    21
100
AcDbLine
 10
141.180965
 20
993.78
 30
0.0
 11
157.333465
 21
993.78
 31
0.0
  0
LINE
  5
B8
100
AcDbEntity
  8
4
  6
CONTINUOUS
 62
    21
100
AcDbLine
 10
115.22159
 20
995.2
 30
0.0
 11
131.37409
 21
995.2
 31
0.0
  0
LINE
  5
B9
100
AcDbEntity
  8
4
  6
CONTINUOUS
 62
    21
100
AcDbLine
 10
141.180965
 20
995.2
 30
0.0
 11
157.333465
 21
995.2
 31
0.0
  0
LINE
  5
BA
100
AcDbEntity
  8
4
  6
CONTINUOUS
 62
    21
100
AcDbLine
 10
115.22159
 20
996.62
 30
0.0
 11
131.37409
 21
996.62
 31
0.0
  0
LINE
  5
BB
100
AcDbEntity
  8
4
  6
CONTINUOUS
 62
    21
100
AcDbLine
 10
141.180965
 20
996.62
 30
0.0
 11
157.333465
 21
996.62
 31
0.0
  0
LINE
  5
BC
100
AcDbEntity
  8
4
  6
CONTINUOUS
 62
    21
100
AcDbLine
 10
115.22159
 20
998.04
 30
0.0
 11
131.37409
 21
998.04
 31
0.0
  0
LINE
  5
BD
100
AcDbEntity
  8
4
  6
CONTINUOUS
 62
    21
100
AcDbLine
 10
141.180965
 20
998.04
 30
0.0
 11
157.333465
 21
998.04
 31
0.0
  0
LINE
  5
BE
100
AcDbEntity
  8
4
  6
CONTINUOUS
 62
    21
100
AcDbLine
 10
115.22159
 20
999.46
 30
0.0
 11
131.37409
 21
999.46
 31
0.0
  0
LINE
  5
BF
100
AcDbEntity
  8
4
  6
CONTINUOUS
 62
    21
100
AcDbLine
 10
141.180965
 20
999.46
 30
0.0
 11
157.333465
 21
999.46
 31
0.0
  0
LINE
  5
C0
100
AcDbEntity
  8
4
  6
CONTINUOUS
 62
    21
100
AcDbLine
 10
115.22159
 20
1000.88
 30
0.0
 11
131.37409
 21
1000.88
 31
0.0
  0
LINE
  5
C1
100
AcDbEntity
  8
4
  6
CONTINUOUS
 62
    21
100
AcDbLine
 10
141.180965
 20
1000.88
 30
0.0
 11
157.333465
 21
1000.88
 31
0.0
  0
LINE
  5
C2
100
AcDbEntity
  8
4
  6
CONTINUOUS
 62
    21
100
AcDbLine
 10
115.533003
 20
988.1
 30
0.0
 11
131.715313
 21
988.1
 31
0.0
  0
LINE
  5
C3
100
AcDbEntity
  8
4
  6
CONTINUOUS
 62
    21
100
AcDbLine
 10
140.839743
 20
988.1
 30
0.0
 11
157.022052
 21
988.1
 31
0.0
  0
LINE
  5
C4
100
AcDbEntity
  8
4
  6
CONTINUOUS
 62
    21
100
AcDbLine
 10
115.968024
 20
986.68
 30
0.0
 11
132.577068
 21
986.68
 31
0.0
  0
LINE
  5
C5
100
AcDbEntity
  8
4
  6
CONTINUOUS
 62
    21
100
AcDbLine
 10
139.977987
 20
986.68
 30
0.0
 11
156.587032
 21
986.68
 31
0.0
  0
LINE
  5
C6
100
AcDbEntity
  8
4
  6
CONTINUOUS
 62
    21
100
AcDbLine
 10
116.618263
 20
985.26
 30
0.0
 11
134.68373
 21
985.26
 31
0.0
  0
LINE
  5
C7
100
AcDbEntity
  8
4
  6
CONTINUOUS
 62
    21
100
AcDbLine
 10
137.871325
 20
985.26
 30
0.0
 11
155.936792
 21
985.26
 31
0.0
  0
LINE
  5
C8
100
AcDbEntity
  8
4
  6
CONTINUOUS
 62
    21
100
AcDbLine
 10
117.52909
 20
983.84
 30
0.0
 11
155.025965
 21
983.84
 31
0.0
  0
LINE
  5
C9
100
AcDbEntity
  8
4
  6
CONTINUOUS
 62
    21
100
AcDbLine
 10
118.789362
 20
982.42
 30
0.0
 11
153.765694
 21
982.42
 31
0.0
  0
LINE
  5
CA
100
AcDbEntity
  8
4
  6
CONTINUOUS
 62
    21
100
AcDbLine
 10
120.610309
 20
981.0
 30
0.0
 11
151.944746
 21
981.0
 31
0.0
  0
LINE
  5
CB
100
AcDbEntity
  8
4
  6
CONTINUOUS
 62
    21
100
AcDbLine
 10
123.91909
 20
979.58
 30
0.0
 11
148.635965
 21
979.58
 31
0.0
  0
INSERT
  5
D1
100
AcDbEntity
  8
4
  6
CONTINUOUS
 62
    21
100
AcDbBlockReference
  2
*G5
 10
0.0
 20
0.0
 30
0.0
  0
ARC
  5
D2
100
AcDbEntity
  8
4
  6
CONTINUOUS
 62
    21
100
AcDbCircle
 10
136.277528
 20
989.897187
 30
0.0
 40
4.903438
100
AcDbArc
 50
180.0
 51
0.0
  0
INSERT
  5
D9
100
AcDbEntity
  8
4
  6
CONTINUOUS
 62
    21
100
AcDbBlockReference
  2
*G6
 10
0.0
 20
0.0
 30
0.0
  0
ARC
  5
DA
100
AcDbEntity
  8
4
  6
CONTINUOUS
 62
    21
100
AcDbCircle
 10
126.759082
 20
990.762491
 30
0.0
 40
11.537491
100
AcDbArc
 50
179.999957
 51
-90.0
  0
INSERT
  5
DF
100
AcDbEntity
  8
4
  6
CONTINUOUS
 62
    21
100
AcDbBlockReference
  2
*G7
 10
0.0
 20
0.0
 30
0.0
  0
ARC
  5
E0
100
AcDbEntity
  8
4
  6
CONTINUOUS
 62
    21
100
AcDbCircle
 10
145.795974
 20
990.762491
 30
0.0
 40
11.537491
100
AcDbArc
 50
-90.0
 51
0.000043
  0
INSERT
  5
E5
100
AcDbEntity
  8
4
  6
CONTINUOUS
 62
    21
100
AcDbBlockReference
  2
*G8
 10
0.0
 20
0.0
 30
0.0
  0
LINE
  5
E6
100
AcDbEntity
  8
4
  6
CONTINUOUS
 62
    21
100
AcDbLine
 10
237.286487
 20
989.52
 30
0.0
 11
253.386419
 21
989.52
 31
0.0
  0
LINE
  5
E7
100
AcDbEntity
  8
4
  6
CONTINUOUS
 62
    21
100
AcDbLine
 10
211.408741
 20
989.52
 30
0.0
 11
227.508672
 21
989.52
 31
0.0
  0
LINE
  5
E8
100
AcDbEntity
  8
4
  6
CONTINUOUS
 62
    21
100
AcDbLine
 10
237.301017
 20
990.94
 30
0.0
 11
253.453517
 21
990.94
 31
0.0
  0
LINE
  5
E9
100
AcDbEntity
  8
4
  6
CONTINUOUS
 62
    21
100
AcDbLine
 10
211.341642
 20
990.94
 30
0.0
 11
227.494142
 21
990.94
 31
0.0
  0
LINE
  5
EA
100
AcDbEntity
  8
4
  6
CONTINUOUS
 62
    21
100
AcDbLine
 10
237.301017
 20
992.36
 30
0.0
 11
253.453517
 21
992.36
 31
0.0
  0
LINE
  5
EB
100
AcDbEntity
  8
4
  6
CONTINUOUS
 62
    21
100
AcDbLine
 10
211.341642
 20
992.36
 30
0.0
 11
227.494142
 21
992.36
 31
0.0
  0
LINE
  5
EC
100
AcDbEntity
  8
4
  6
CONTINUOUS
 62
    21
100
AcDbLine
 10
237.301017
 20
993.78
 30
0.0
 11
253.453517
 21
993.78
 31
0.0
  0
LINE
  5
ED
100
AcDbEntity
  8
4
  6
CONTINUOUS
 62
    21
100
AcDbLine
 10
211.341642
 20
993.78
 30
0.0
 11
227.494142
 21
993.78
 31
0.0
  0
LINE
  5
EE
100
AcDbEntity
  8
4
  6
CONTINUOUS
 62
    21
100
AcDbLine
 10
237.301017
 20
995.2
 30
0.0
 11
253.453517
 21
995.2
 31
0.0
  0
LINE
  5
EF
100
AcDbEntity
  8
4
  6
CONTINUOUS
 62
    21
100
AcDbLine
 10
211.341642
 20
995.2
 30
0.0
 11
227.494142
 21
995.2
 31
0.0
  0
LINE
  5
F0
100
AcDbEntity
  8
4
  6
CONTINUOUS
 62
    21
100
AcDbLine
 10
237.301017
 20
996.62
 30
0.0
 11
253.453517
 21
996.62
 31
0.0
  0
LINE
  5
F1
100
AcDbEntity
  8
4
  6
CONTINUOUS
 62
    21
100
AcDbLine
 10
211.341642
 20
996.62
 30
0.0
 11
227.494142
 21
996.62
 31
0.0
  0
LINE
  5
F2
100
AcDbEntity
  8
4
  6
CONTINUOUS
 62
    21
100
AcDbLine
 10
211.341642
 20
998.04
 30
0.0
 11
227.494142
 21
998.04
 31
0.0
  0
LINE
  5
F3
100
AcDbEntity
  8
4
  6
CONTINUOUS
 62
    21
100
AcDbLine
 10
237.301017
 20
998.04
 30
0.0
 11
253.453517
 21
998.04
 31
0.0
  0
LINE
  5
F4
100
AcDbEntity
  8
4
  6
CONTINUOUS
 62
    21
100
AcDbLine
 10
237.301017
 20
999.46
 30
0.0
 11
253.453517
 21
999.46
 31
0.0
  0
LINE
  5
F5
100
AcDbEntity
  8
4
  6
CONTINUOUS
 62
    21
100
AcDbLine
 10
211.341642
 20
999.46
 30
0.0
 11
227.494142
 21
999.46
 31
0.0
  0
LINE
  5
F6
100
AcDbEntity
  8
4
  6
CONTINUOUS
 62
    21
100
AcDbLine
 10
237.301017
 20
1000.88
 30
0.0
 11
253.453517
 21
1000.88
 31
0.0
  0
LINE
  5
F7
100
AcDbEntity
  8
4
  6
CONTINUOUS
 62
    21
100
AcDbLine
 10
211.341642
 20
1000.88
 30
0.0
 11
227.494142
 21
1000.88
 31
0.0
  0
LINE
  5
F8
100
AcDbEntity
  8
4
  6
CONTINUOUS
 62
    21
100
AcDbLine
 10
236.959795
 20
988.1
 30
0.0
 11
253.142104
 21
988.1
 31
0.0
  0
LINE
  5
F9
100
AcDbEntity
  8
4
  6
CONTINUOUS
 62
    21
100
AcDbLine
 10
211.653055
 20
988.1
 30
0.0
 11
227.835365
 21
988.1
 31
0.0
  0
LINE
  5
FA
100
AcDbEntity
  8
4
  6
CONTINUOUS
 62
    21
100
AcDbLine
 10
212.088076
 20
986.68
 30
0.0
 11
228.69712
 21
986.68
 31
0.0
  0
LINE
  5
FB
100
AcDbEntity
  8
4
  6
CONTINUOUS
 62
    21
100
AcDbLine
 10
236.098039
 20
986.68
 30
0.0
 11
252.707084
 21
986.68
 31
0.0
  0
LINE
  5
FC
100
AcDbEntity
  8
4
  6
CONTINUOUS
 62
    21
100
AcDbLine
 10
233.991377
 20
985.26
 30
0.0
 11
252.056848
 21
985.26
 31
0.0
  0
LINE
  5
FD
100
AcDbEntity
  8
4
  6
CONTINUOUS
 62
    21
100
AcDbLine
 10
212.738315
 20
985.26
 30
0.0
 11
230.803783
 21
985.26
 31
0.0
  0
LINE
  5
FE
100
AcDbEntity
  8
4
  6
CONTINUOUS
 62
    21
100
AcDbLine
 10
213.649142
 20
983.84
 30
0.0
 11
251.146021
 21
983.84
 31
0.0
  0
LINE
  5
FF
100
AcDbEntity
  8
4
  6
CONTINUOUS
 62
    21
100
AcDbLine
 10
214.909414
 20
982.42
 30
0.0
 11
249.88575
 21
982.42
 31
0.0
  0
LINE
  5
100
100
AcDbEntity
  8
4
  6
CONTINUOUS
 62
    21
100
AcDbLine
 10
216.730361
 20
981.0
 30
0.0
 11
248.064802
 21
981.0
 31
0.0
  0
LINE
  5
101
100
AcDbEntity
  8
4
  6
CONTINUOUS
 62
    21
100
AcDbLine
 10
220.039142
 20
979.58
 30
0.0
 11
244.756021
 21
979.58
 31
0.0
  0
INSERT
  5
107
100
AcDbEntity
  8
4
  6
CONTINUOUS
 62
    21
100
AcDbBlockReference
  2
*G9
 10
0.0
 20
0.0
 30
0.0
  0
ARC
  5
108
100
AcDbEntity
  8
4
  6
CONTINUOUS
 62
    21
100
AcDbCircle
 10
232.39758
 20
989.897188
 30
0.0
 40
4.903437
100
AcDbArc
 50
-180.0
 51
0.0
  0
INSERT
  5
10F
100
AcDbEntity
  8
4
  6
CONTINUOUS
 62
    21
100
AcDbBlockReference
  2
*G10
 10
0.0
 20
0.0
 30
0.0
  0
ARC
  5
110
100
AcDbEntity
  8
4
  6
CONTINUOUS
 62
    21
100
AcDbCircle
 10
222.879134
 20
990.762491
 30
0.0
 40
11.537491
100
AcDbArc
 50
179.999957
 51
-90.0
  0
INSERT
  5
115
100
AcDbEntity
  8
4
  6
CONTINUOUS
 62
    21
100
AcDbBlockReference
  2
*G11
 10
0.0
 20
0.0
 30
0.0
  0
ARC
  5
116
100
AcDbEntity
  8
4
  6
CONTINUOUS
 62
    21
100
AcDbCircle
 10
241.91603
 20
990.762488
 30
0.0
 40
11.537488
100
AcDbArc
 50
-90.0
 51
0.000025
  0
INSERT
  5
11B
100
AcDbEntity
  8
4
  6
CONTINUOUS
 62
    21
100
AcDbBlockReference
  2
*G12
 10
0.0
 20
0.0
 30
0.0
  0
LINE
  5
11C
100
AcDbEntity
  8
4
  6
CONTINUOUS
 62
    21
100
AcDbLine
 10
260.266983
 20
989.52
 30
0.0
 11
300.071358
 21
989.52
 31
0.0
  0
LINE
  5
11D
100
AcDbEntity
  8
4
  6
CONTINUOUS
 62
    21
100
AcDbLine
 10
260.266983
 20
990.94
 30
0.0
 11
300.071358
 21
990.94
 31
0.0
  0
LINE
  5
11E
100
AcDbEntity
  8
4
  6
CONTINUOUS
 62
    21
100
AcDbLine
 10
260.266983
 20
992.36
 30
0.0
 11
300.071358
 21
992.36
 31
0.0
  0
LINE
  5
11F
100
AcDbEntity
  8
4
  6
CONTINUOUS
 62
    21
100
AcDbLine
 10
260.266983
 20
993.78
 30
0.0
 11
300.071358
 21
993.78
 31
0.0
  0
LINE
  5
120
100
AcDbEntity
  8
4
  6
CONTINUOUS
 62
    21
100
AcDbLine
 10
282.765108
 20
995.2
 30
0.0
 11
300.071358
 21
995.2
 31
0.0
  0
LINE
  5
121
100
AcDbEntity
  8
4
  6
CONTINUOUS
 62
    21
100
AcDbLine
 10
260.266983
 20
995.2
 30
0.0
 11
282.13739
 21
995.2
 31
0.0
  0
LINE
  5
122
100
AcDbEntity
  8
4
  6
CONTINUOUS
 62
    21
100
AcDbLine
 10
282.765108
 20
996.62
 30
0.0
 11
300.071358
 21
996.62
 31
0.0
  0
LINE
  5
123
100
AcDbEntity
  8
4
  6
CONTINUOUS
 62
    21
100
AcDbLine
 10
260.266983
 20
996.62
 30
0.0
 11
281.224557
 21
996.62
 31
0.0
  0
LINE
  5
124
100
AcDbEntity
  8
4
  6
CONTINUOUS
 62
    21
100
AcDbLine
 10
282.765108
 20
998.04
 30
0.0
 11
300.071358
 21
998.04
 31
0.0
  0
LINE
  5
125
100
AcDbEntity
  8
4
  6
CONTINUOUS
 62
    21
100
AcDbLine
 10
260.266983
 20
998.04
 30
0.0
 11
280.311727
 21
998.04
 31
0.0
  0
LINE
  5
126
100
AcDbEntity
  8
4
  6
CONTINUOUS
 62
    21
100
AcDbLine
 10
282.765108
 20
999.46
 30
0.0
 11
300.071358
 21
999.46
 31
0.0
  0
LINE
  5
127
100
AcDbEntity
  8
4
  6
CONTINUOUS
 62
    21
100
AcDbLine
 10
260.266983
 20
999.46
 30
0.0
 11
279.398895
 21
999.46
 31
0.0
  0
LINE
  5
128
100
AcDbEntity
  8
4
  6
CONTINUOUS
 62
    21
100
AcDbLine
 10
282.765108
 20
1000.88
 30
0.0
 11
300.071358
 21
1000.88
 31
0.0
  0
LINE
  5
129
100
AcDbEntity
  8
4
  6
CONTINUOUS
 62
    21
100
AcDbLine
 10
260.266983
 20
1000.88
 30
0.0
 11
278.486065
 21
1000.88
 31
0.0
  0
LINE
  5
12A
100
AcDbEntity
  8
4
  6
CONTINUOUS
 62
    21
100
AcDbLine
 10
260.266983
 20
988.1
 30
0.0
 11
300.071358
 21
988.1
 31
0.0
  0
LINE
  5
12B
100
AcDbEntity
  8
4
  6
CONTINUOUS
 62
    21
100
AcDbLine
 10
277.972608
 20
986.68
 30
0.0
 11
300.071358
 21
986.68
 31
0.0
  0
LINE
  5
12C
100
AcDbEntity
  8
4
  6
CONTINUOUS
 62
    21
100
AcDbLine
 10
260.266983
 20
986.68
 30
0.0
 11
277.573233
 21
986.68
 31
0.0
  0
LINE
  5
12D
100
AcDbEntity
  8
4
  6
CONTINUOUS
 62
    21
100
AcDbLine
 10
278.885465
 20
985.26
 30
0.0
 11
300.071358
 21
985.26
 31
0.0
  0
LINE
  5
12E
100
AcDbEntity
  8
4
  6
CONTINUOUS
 62
    21
100
AcDbLine
 10
260.266983
 20
985.26
 30
0.0
 11
277.573233
 21
985.26
 31
0.0
  0
LINE
  5
12F
100
AcDbEntity
  8
4
  6
CONTINUOUS
 62
    21
100
AcDbLine
 10
279.798323
 20
983.84
 30
0.0
 11
300.071358
 21
983.84
 31
0.0
  0
LINE
  5
130
100
AcDbEntity
  8
4
  6
CONTINUOUS
 62
    21
100
AcDbLine
 10
260.266983
 20
983.84
 30
0.0
 11
277.573233
 21
983.84
 31
0.0
  0
LINE
  5
131
100
AcDbEntity
  8
4
  6
CONTINUOUS
 62
    21
100
AcDbLine
 10
280.711181
 20
982.42
 30
0.0
 11
300.071358
 21
982.42
 31
0.0
  0
LINE
  5
132
100
AcDbEntity
  8
4
  6
CONTINUOUS
 62
    21
100
AcDbLine
 10
260.266983
 20
982.42
 30
0.0
 11
277.573233
 21
982.42
 31
0.0
  0
LINE
  5
133
100
AcDbEntity
  8
4
  6
CONTINUOUS
 62
    21
100
AcDbLine
 10
281.624035
 20
981.0
 30
0.0
 11
300.071358
 21
981.0
 31
0.0
  0
LINE
  5
134
100
AcDbEntity
  8
4
  6
CONTINUOUS
 62
    21
100
AcDbLine
 10
260.266983
 20
981.0
 30
0.0
 11
277.573233
 21
981.0
 31
0.0
  0
LINE
  5
135
100
AcDbEntity
  8
4
  6
CONTINUOUS
 62
    21
100
AcDbLine
 10
282.536892
 20
979.58
 30
0.0
 11
300.071358
 21
979.58
 31
0.0
  0
LINE
  5
136
100
AcDbEntity
  8
4
  6
CONTINUOUS
 62
    21
100
AcDbLine
 10
260.266983
 20
979.58
 30
0.0
 11
277.573233
 21
979.58
 31
0.0
  0
INSERT
  5
144
100
AcDbEntity
  8
4
  6
CONTINUOUS
 62
    21
100
AcDbBlockReference
  2
*G13
 10
0.0
 20
0.0
 30
0.0
  0
LINE
  5
145
100
AcDbEntity
  8
4
  6
CONTINUOUS
 62
    21
100
AcDbLine
 10
329.959823
 20
989.52
 30
0.0
 11
347.198974
 21
989.52
 31
0.0
  0
LINE
  5
146
100
AcDbEntity
  8
4
  6
CONTINUOUS
 62
    21
100
AcDbLine
 10
306.951921
 20
989.52
 30
0.0
 11
324.191073
 21
989.52
 31
0.0
  0
LINE
  5
147
100
AcDbEntity
  8
4
  6
CONTINUOUS
 62
    21
100
AcDbLine
 10
329.959823
 20
990.94
 30
0.0
 11
347.264706
 21
990.94
 31
0.0
  0
LINE
  5
148
100
AcDbEntity
  8
4
  6
CONTINUOUS
 62
    21
100
AcDbLine
 10
306.88619
 20
990.94
 30
0.0
 11
324.191073
 21
990.94
 31
0.0
  0
LINE
  5
149
100
AcDbEntity
  8
4
  6
CONTINUOUS
 62
    21
100
AcDbLine
 10
329.959823
 20
992.36
 30
0.0
 11
347.15494
 21
992.36
 31
0.0
  0
LINE
  5
14A
100
AcDbEntity
  8
4
  6
CONTINUOUS
 62
    21
100
AcDbLine
 10
306.995956
 20
992.36
 30
0.0
 11
324.191073
 21
992.36
 31
0.0
  0
LINE
  5
14B
100
AcDbEntity
  8
4
  6
CONTINUOUS
 62
    21
100
AcDbLine
 10
329.959823
 20
993.78
 30
0.0
 11
346.864486
 21
993.78
 31
0.0
  0
LINE
  5
14C
100
AcDbEntity
  8
4
  6
CONTINUOUS
 62
    21
100
AcDbLine
 10
307.28641
 20
993.78
 30
0.0
 11
324.191073
 21
993.78
 31
0.0
  0
LINE
  5
14D
100
AcDbEntity
  8
4
  6
CONTINUOUS
 62
    21
100
AcDbLine
 10
329.959823
 20
995.2
 30
0.0
 11
346.378573
 21
995.2
 31
0.0
  0
LINE
  5
14E
100
AcDbEntity
  8
4
  6
CONTINUOUS
 62
    21
100
AcDbLine
 10
307.772323
 20
995.2
 30
0.0
 11
324.191073
 21
995.2
 31
0.0
  0
LINE
  5
14F
100
AcDbEntity
  8
4
  6
CONTINUOUS
 62
    21
100
AcDbLine
 10
329.678485
 20
996.62
 30
0.0
 11
345.668573
 21
996.62
 31
0.0
  0
LINE
  5
150
100
AcDbEntity
  8
4
  6
CONTINUOUS
 62
    21
100
AcDbLine
 10
308.482323
 20
996.62
 30
0.0
 11
324.47241
 21
996.62
 31
0.0
  0
LINE
  5
151
100
AcDbEntity
  8
4
  6
CONTINUOUS
 62
    21
100
AcDbLine
 10
328.184823
 20
998.04
 30
0.0
 11
344.681332
 21
998.04
 31
0.0
  0
LINE
  5
152
100
AcDbEntity
  8
4
  6
CONTINUOUS
 62
    21
100
AcDbLine
 10
309.469564
 20
998.04
 30
0.0
 11
325.966073
 21
998.04
 31
0.0
  0
LINE
  5
153
100
AcDbEntity
  8
4
  6
CONTINUOUS
 62
    21
100
AcDbLine
 10
310.841596
 20
999.46
 30
0.0
 11
343.3093
 21
999.46
 31
0.0
  0
LINE
  5
154
100
AcDbEntity
  8
4
  6
CONTINUOUS
 62
    21
100
AcDbLine
 10
312.877045
 20
1000.88
 30
0.0
 11
341.27385
 21
1000.88
 31
0.0
  0
LINE
  5
155
100
AcDbEntity
  8
4
  6
CONTINUOUS
 62
    21
100
AcDbLine
 10
329.959823
 20
988.1
 30
0.0
 11
346.95466
 21
988.1
 31
0.0
  0
LINE
  5
156
100
AcDbEntity
  8
4
  6
CONTINUOUS
 62
    21
100
AcDbLine
 10
307.196236
 20
988.1
 30
0.0
 11
324.191073
 21
988.1
 31
0.0
  0
LINE
  5
157
100
AcDbEntity
  8
4
  6
CONTINUOUS
 62
    21
100
AcDbLine
 10
329.959823
 20
986.68
 30
0.0
 11
346.519639
 21
986.68
 31
0.0
  0
LINE
  5
158
100
AcDbEntity
  8
4
  6
CONTINUOUS
 62
    21
100
AcDbLine
 10
307.631257
 20
986.68
 30
0.0
 11
324.191073
 21
986.68
 31
0.0
  0
LINE
  5
159
100
AcDbEntity
  8
4
  6
CONTINUOUS
 62
    21
100
AcDbLine
 10
329.819889
 20
985.26
 30
0.0
 11
345.8694
 21
985.26
 31
0.0
  0
LINE
  5
15A
100
AcDbEntity
  8
4
  6
CONTINUOUS
 62
    21
100
AcDbLine
 10
308.281496
 20
985.26
 30
0.0
 11
324.331007
 21
985.26
 31
0.0
  0
LINE
  5
15B
100
AcDbEntity
  8
4
  6
CONTINUOUS
 62
    21
100
AcDbLine
 10
328.806073
 20
983.84
 30
0.0
 11
344.958573
 21
983.84
 31
0.0
  0
LINE
  5
15C
100
AcDbEntity
  8
4
  6
CONTINUOUS
 62
    21
100
AcDbLine
 10
309.192323
 20
983.84
 30
0.0
 11
325.344823
 21
983.84
 31
0.0
  0
LINE
  5
15D
100
AcDbEntity
  8
4
  6
CONTINUOUS
 62
    21
100
AcDbLine
 10
310.452594
 20
982.42
 30
0.0
 11
343.698302
 21
982.42
 31
0.0
  0
LINE
  5
15E
100
AcDbEntity
  8
4
  6
CONTINUOUS
 62
    21
100
AcDbLine
 10
312.273542
 20
981.0
 30
0.0
 11
341.877354
 21
981.0
 31
0.0
  0
LINE
  5
15F
100
AcDbEntity
  8
4
  6
CONTINUOUS
 62
    21
100
AcDbLine
 10
315.582323
 20
979.58
 30
0.0
 11
338.568573
 21
979.58
 31
0.0
  0
INSERT
  5
164
100
AcDbEntity
  8
4
  6
CONTINUOUS
 62
    21
100
AcDbBlockReference
  2
*G14
 10
0.0
 20
0.0
 30
0.0
  0
ARC
  5
165
100
AcDbEntity
  8
4
  6
CONTINUOUS
 62
    21
100
AcDbCircle
 10
335.728573
 20
990.7625
 30
0.0
 40
11.5375
100
AcDbArc
 50
-90.0
 51
90.0
  0
INSERT
  5
16A
100
AcDbEntity
  8
4
  6
CONTINUOUS
 62
    21
100
AcDbBlockReference
  2
*G15
 10
0.0
 20
0.0
 30
0.0
  0
ARC
  5
16B
100
AcDbEntity
  8
4
  6
CONTINUOUS
 62
    21
100
AcDbCircle
 10
318.422323
 20
990.7625
 30
0.0
 40
11.5375
100
AcDbArc
 50
90.0
 51
-90.0
  0
ARC
  5
16C
100
AcDbEntity
  8
4
  6
CONTINUOUS
 62
    21
100
AcDbCircle
 10
327.075448
 20
995.3775
 30
0.0
 40
2.884375
100
AcDbArc
 50
0.0
 51
180.0
  0
INSERT
  5
171
100
AcDbEntity
  8
4
  6
CONTINUOUS
 62
    21
100
AcDbBlockReference
  2
*G16
 10
0.0
 20
0.0
 30
0.0
  0
ARC
  5
172
100
AcDbEntity
  8
4
  6
CONTINUOUS
 62
    21
100
AcDbCircle
 10
327.075448
 20
986.1475
 30
0.0
 40
2.884375
100
AcDbArc
 50
-180.0
 51
0.0
  0
INSERT
  5
177
100
AcDbEntity
  8
4
  6
CONTINUOUS
 62
    21
100
AcDbBlockReference
  2
*G17
 10
0.0
 20
0.0
 30
0.0
  0
LINE
  5
178
100
AcDbEntity
  8
4
  6
CONTINUOUS
 62
    21
100
AcDbLine
 10
367.45
 20
961.475
 30
0.0
 11
367.45
 21
971.475
 31
0.0
  0
LINE
  5
179
100
AcDbEntity
  8
4
  6
CONTINUOUS
 62
    21
100
AcDbLine
 10
667.45
 20
961.475
 30
0.0
 11
667.45
 21
971.475
 31
0.0
  0
LINE
  5
17A
100
AcDbEntity
  8
4
  6
CONTINUOUS
 62
    21
100
AcDbLine
 10
967.45
 20
961.475
 30
0.0
 11
967.45
 21
971.475
 31
0.0
  0
TEXT
  5
17B
100
AcDbEntity
  8
4
  6
CONTINUOUS
 62
    21
100
AcDbText
 10
212.440009
 20
961.475
 30
0.0
 40
20.0
  1
1
 41
0.5
 11
212.440009
 21
961.475
 31
0.0
100
AcDbText
 73
     1
  0
TEXT
  5
17C
100
AcDbEntity
  8
4
  6
CONTINUOUS
 62
    21
100
AcDbText
 10
512.481247
 20
961.475
 30
0.0
 40
20.0
  1
2
 41
0.5
 11
512.481247
 21
961.475
 31
0.0
100
AcDbText
 73
     1
  0
TEXT
  5
17D
100
AcDbEntity
  8
4
  6
CONTINUOUS
 62
    21
100
AcDbText
 10
812.647241
 20
961.475
 30
0.0
 40
20.0
  1
3
 41
0.5
 11
812.647241
 21
961.475
 31
0.0
100
AcDbText
 73
     1
  0
TEXT
  5
17E
100
AcDbEntity
  8
4
  6
CONTINUOUS
 62
    21
100
AcDbText
 10
1112.647241
 20
961.475
 30
0.0
 40
20.0
  1
4
 41
0.5
 11
1112.647241
 21
961.475
 31
0.0
100
AcDbText
 73
     1
  0
LINE
  5
17F
100
AcDbEntity
  8
4
  6
CONTINUOUS
 62
    21
100
AcDbLine
 10
67.45
 20
361.475
 30
0.0
 11
57.45
 21
361.475
 31
0.0
  0
LINE
  5
180
100
AcDbEntity
  8
4
  6
CONTINUOUS
 62
    21
100
AcDbLine
 10
67.45
 20
661.475
 30
0.0
 11
57.45
 21
661.475
 31
0.0
  0
TEXT
  5
181
100
AcDbEntity
  8
4
  6
CONTINUOUS
 62
    21
100
AcDbText
 10
47.45
 20
801.475
 30
0.0
 40
20.0
  1
A
 41
0.5
 11
47.45
 21
801.475
 31
0.0
100
AcDbText
 73
     1
  0
TEXT
  5
182
100
AcDbEntity
  8
4
  6
CONTINUOUS
 62
    21
100
AcDbText
 10
47.45
 20
501.475
 30
0.0
 40
20.0
  1
B
 41
0.5
 11
47.45
 21
501.475
 31
0.0
100
AcDbText
 73
     1
  0
TEXT
  5
183
100
AcDbEntity
  8
4
  6
CONTINUOUS
 62
    21
100
AcDbText
 10
47.45
 20
201.475
 30
0.0
 40
20.0
  1
C
 41
0.5
 11
47.45
 21
201.475
 31
0.0
100
AcDbText
 73
     1
  0
TEXT
  5
184
100
AcDbEntity
  8
6
  6
CONTINUOUS
 62
    51
100
AcDbText
 10
697.061841
 20
931.253861
 30
0.0
 40
15.0
  1
注記
 41
0.833333
 11
697.061841
 21
931.253861
 31
0.0
100
AcDbText
 73
     1
  0
TEXT
  5
185
100
AcDbEntity
  8
6
  6
CONTINUOUS
 62
    51
100
AcDbText
 10
699.133975
 20
905.383256
 30
0.0
 40
15.0
  1
1.
 41
0.625
 11
699.133975
 21
905.383256
 31
0.0
100
AcDbText
 73
     1
  0
TEXT
  5
186
100
AcDbEntity
  8
6
  6
CONTINUOUS
 62
    51
100
AcDbText
 10
699.133975
 20
884.883256
 30
0.0
 40
15.0
  1
2.
 41
0.625
 11
699.133975
 21
884.883256
 31
0.0
100
AcDbText
 73
     1
  0
TEXT
  5
187
100
AcDbEntity
  8
6
  6
CONTINUOUS
 62
    51
100
AcDbText
 10
720.633975
 20
905.414985
 30
0.0
 40
15.0
  1
指定なき寸法公差は表１による。
 41
0.833333
 11
720.633975
 21
905.414985
 31
0.0
100
AcDbText
 73
     1
  0
TEXT
  5
188
100
AcDbEntity
  8
6
  6
CONTINUOUS
 62
    51
100
AcDbText
 10
720.633975
 20
884.883256
 30
0.0
 40
15.0
  1
船底タンク板厚は標準25mmです。これ以上の厚さが必要な場合は別途打合せ願います。
 41
0.805785
 11
720.633975
 21
884.883256
 31
0.0
100
AcDbText
 73
     1
  0
TEXT
  5
189
100
AcDbEntity
  8
6
  6
CONTINUOUS
 62
    51
100
AcDbText
 10
699.133975
 20
864.351527
 30
0.0
 40
15.0
  1
3.
 41
0.625
 11
699.133975
 21
864.351527
 31
0.0
100
AcDbText
 73
     1
  0
TEXT
  5
18A
100
AcDbEntity
  8
6
  6
CONTINUOUS
 62
    51
100
AcDbText
 10
699.133975
 20
843.819797
 30
0.0
 40
15.0
  1
4.
 41
0.625
 11
699.133975
 21
843.819797
 31
0.0
100
AcDbText
 73
     1
  0
TEXT
  5
18B
100
AcDbEntity
  8
6
  6
CONTINUOUS
 62
    51
100
AcDbText
 10
720.633975
 20
864.351527
 30
0.0
 40
15.0
  1
船底タンク材質はKSTPG370です。その化学成分を表２に示します。
 41
0.765306
 11
720.633975
 21
864.351527
 31
0.0
100
AcDbText
 73
     1
  0
TEXT
  5
18C
100
AcDbEntity
  8
6
  6
CONTINUOUS
 62
    51
100
AcDbText
 10
720.633975
 20
824.351527
 30
0.0
 40
15.0
  1
取付はタンクのフランジが吃水線と%%p１°以内の誤差で平行になるようにしてください。
 41
0.83682
 11
720.633975
 21
824.351527
 31
0.0
100
AcDbText
 73
     1
  0
TEXT
  5
18D
100
AcDbEntity
  8
6
  6
CONTINUOUS
 62
    51
100
AcDbText
 10
720.633975
 20
843.819797
 30
0.0
 40
15.0
  1
船底タンクを船底に溶接する際、船首船尾方向の据付誤差は%%p1°以内とする。また、水平方向の
 41
0.830153
 11
720.633975
 21
843.819797
 31
0.0
100
AcDbText
 73
     1
  0
TEXT
  5
18E
100
AcDbEntity
  8
6
  6
CONTINUOUS
 62
    51
100
AcDbText
 10
720.633975
 20
802.756339
 30
0.0
 40
15.0
  1
送受波器面にはマリンスター20を塗布しています。その他の船底用塗料を塗布しないでください。
 41
0.820896
 11
720.633975
 21
802.756339
 31
0.0
100
AcDbText
 73
     1
  0
TEXT
  5
18F
100
AcDbEntity
  8
6
  6
CONTINUOUS
 62
    51
100
AcDbText
 10
700.633975
 20
750.743557
 30
0.0
 40
15.0
  1
NOTES
 41
0.5
 11
700.633975
 21
750.743557
 31
0.0
100
AcDbText
 73
     1
  0
TEXT
  5
190
100
AcDbEntity
  8
6
  6
CONTINUOUS
 62
    51
100
AcDbText
 10
700.633975
 20
733.243557
 30
0.0
 40
15.0
  1
1. TABLE 1 INDICATES TOLERANCE OF DIMENSIONS.
 41
0.538278
 11
700.633975
 21
733.243557
 31
0.0
100
AcDbText
 73
     1
  0
TEXT
  5
191
100
AcDbEntity
  8
6
  6
CONTINUOUS
 62
    51
100
AcDbText
 10
700.633975
 20
712.743557
 30
0.0
 40
15.0
  1
2. NOMINAL THICKNESS OF THE CASING IS 25 mm. TO BE DISCUSSED FOR THICKER ONE.
 41
0.548433
 11
700.633975
 21
712.743557
 31
0.0
100
AcDbText
 73
     1
  0
TEXT
  5
192
100
AcDbEntity
  8
6
  6
CONTINUOUS
 62
    51
100
AcDbText
 10
700.633975
 20
632.743557
 30
0.0
 40
15.0
  1
5. THE TRANSDUCER BOTTOM FACE IS COATED WITH MARINE STAR 20. DO NOT APPLY OTHER TYPE OF PAINT.
 41
0.546512
 11
700.633975
 21
632.743557
 31
0.0
100
AcDbText
 73
     1
  0
TEXT
  5
193
100
AcDbEntity
  8
6
  6
CONTINUOUS
 62
    51
100
AcDbText
 10
699.133975
 20
802.756339
 30
0.0
 40
15.0
  1
5.
 41
0.625
 11
699.133975
 21
802.756339
 31
0.0
100
AcDbText
 73
     1
  0
TEXT
  5
194
100
AcDbEntity
  8
6
  6
CONTINUOUS
 62
    51
100
AcDbText
 10
700.633975
 20
693.243557
 30
0.0
 40
15.0
  1
3. CHEMICAL COMPOSITION OF THE CASING MATERIAL KSTPG370 IS AS TABLE 2.
 41
0.540123
 11
700.633975
 21
693.243557
 31
0.0
100
AcDbText
 73
     1
  0
TEXT
  5
195
100
AcDbEntity
  8
6
  6
CONTINUOUS
 62
    51
100
AcDbText
 10
723.133975
 20
653.743557
 30
0.0
 40
15.0
  1
OF THE CASING IN PARALLEL WITH WATER-LINE TO AN ACCURACY OF 1 DEGREE OR BETTER.
 41
0.541096
 11
723.133975
 21
653.743557
 31
0.0
100
AcDbText
 73
     1
  0
LINE
  5
196
100
AcDbEntity
  8
4
  6
CONTINUOUS
 62
    21
100
AcDbLine
 10
1412.9
 20
361.475
 30
0.0
 11
1422.9
 21
361.475
 31
0.0
  0
LINE
  5
197
100
AcDbEntity
  8
4
  6
CONTINUOUS
 62
    21
100
AcDbLine
 10
1412.9
 20
661.475
 30
0.0
 11
1422.9
 21
661.475
 31
0.0
  0
TEXT
  5
198
100
AcDbEntity
  8
2
  6
CONTINUOUS
 62
     3
100
AcDbText
 10
1054.197545
 20
157.302207
 30
0.0
 40
12.001199
  1
TITLE
 41
0.5
 11
1054.197545
 21
157.302207
 31
0.0
100
AcDbText
 73
     1
  0
TEXT
  5
199
100
AcDbEntity
  8
2
  6
CONTINUOUS
 62
     3
100
AcDbText
 10
1056.741499
 20
84.798945
 30
0.0
 40
12.001199
  1
NAME
 41
0.5
 11
1056.741499
 21
84.798945
 31
0.0
100
AcDbText
 73
     1
  0
TEXT
  5
19A
100
AcDbEntity
  8
2
  6
CONTINUOUS
 62
     3
100
AcDbText
 10
1057.377427
 20
131.86247
 30
0.0
 40
12.001199
  1
名称
 41
0.972222
 11
1057.377427
 21
131.86247
 31
0.0
100
AcDbText
 73
     1
  0
TEXT
  5
19B
100
AcDbEntity
  8
2
  6
CONTINUOUS
 62
     3
100
AcDbText
 10
694.225123
 20
157.302207
 30
0.0
 40
12.001199
  1
DRAWN
 41
0.5
 11
694.225123
 21
157.302207
 31
0.0
100
AcDbText
 73
     1
  0
TEXT
  5
19C
100
AcDbEntity
  8
2
  6
CONTINUOUS
 62
     3
100
AcDbText
 10
694.225123
 20
133.134457
 30
0.0
 40
12.001199
  1
CHECKED
 41
0.5
 11
694.225123
 21
133.134457
 31
0.0
100
AcDbText
 73
     1
  0
TEXT
  5
19D
100
AcDbEntity
  8
2
  6
CONTINUOUS
 62
     3
100
AcDbText
 10
694.225123
 20
108.330707
 30
0.0
 40
12.001199
  1
APPROVED
 41
0.5
 11
694.225123
 21
108.330707
 31
0.0
100
AcDbText
 73
     1
  0
TEXT
  5
19E
100
AcDbEntity
  8
2
  6
CONTINUOUS
 62
     3
100
AcDbText
 10
694.225123
 20
85.434936
 30
0.0
 40
12.001199
  1
SCALE
 41
0.5
 11
694.225123
 21
85.434936
 31
0.0
100
AcDbText
 73
     1
  0
TEXT
  5
19F
100
AcDbEntity
  8
2
  6
CONTINUOUS
 62
     3
100
AcDbText
 10
694.225123
 20
62.539169
 30
0.0
 40
12.001199
  1
DWG No.
 41
0.564516
 11
694.225123
 21
62.539169
 31
0.0
100
AcDbText
 73
     1
  0
TEXT
  5
1A0
100
AcDbEntity
  8
2
  6
CONTINUOUS
 62
     3
100
AcDbText
 10
790.260168
 20
86.070932
 30
0.0
 40
12.001199
  1
MASS
 41
0.5
 11
790.260168
 21
86.070932
 31
0.0
100
AcDbText
 73
     1
  0
TEXT
  5
1A1
100
AcDbEntity
  8
2
  6
CONTINUOUS
 62
     3
100
AcDbText
 10
853.540315
 20
75.477398
 30
0.0
 40
12.001199
  1
kg
 41
0.5
 11
853.540315
 21
75.477398
 31
0.0
100
AcDbText
 73
     1
  0
LINE
  5
1A2
100
AcDbEntity
  8
2
  6
HIDDEN
 62
     3
100
AcDbLine
 10
868.845654
 20
123.482193
 30
0.0
 11
1052.864036
 21
123.482193
 31
0.0
  0
LINE
  5
1A3
100
AcDbEntity
  8
2
  6
HIDDEN
 62
     3
100
AcDbLine
 10
980.856843
 20
171.486988
 30
0.0
 11
980.856843
 21
99.479795
 31
0.0
  0
LINE
  5
1A4
100
AcDbEntity
  8
2
  6
CONTINUOUS
 62
     3
100
AcDbLine
 10
1052.864036
 20
99.479795
 30
0.0
 11
1412.9
 21
99.479795
 31
0.0
  0
LINE
  5
1A5
100
AcDbEntity
  8
2
  6
CONTINUOUS
 62
     3
100
AcDbLine
 10
1052.864036
 20
147.48459
 30
0.0
 11
1412.9
 21
147.48459
 31
0.0
  0
LINE
  5
1A6
100
AcDbEntity
  8
2
  6
CONTINUOUS
 62
     3
100
AcDbLine
 10
1052.864036
 20
123.482193
 30
0.0
 11
1412.9
 21
123.482193
 31
0.0
  0
LINE
  5
1A7
100
AcDbEntity
  8
2
  6
CONTINUOUS
 62
     3
100
AcDbLine
 10
788.837662
 20
75.477398
 30
0.0
 11
788.837662
 21
99.479795
 31
0.0
  0
LINE
  5
1A8
100
AcDbEntity
  8
2
  6
CONTINUOUS
 62
     3
100
AcDbLine
 10
868.845654
 20
171.486988
 30
0.0
 11
868.845654
 21
51.475
 31
0.0
  0
LINE
  5
1A9
100
AcDbEntity
  8
2
  6
CONTINUOUS
 62
     3
100
AcDbLine
 10
1052.864036
 20
75.477398
 30
0.0
 11
1412.9
 21
75.477398
 31
0.0
  0
LINE
  5
1AA
100
AcDbEntity
  8
2
  6
CONTINUOUS
 62
     3
100
AcDbLine
 10
1052.864036
 20
171.486988
 30
0.0
 11
1052.864036
 21
51.475
 31
0.0
  0
TEXT
  5
1AB
100
AcDbEntity
  8
3
  6
CONTINUOUS
 62
     2
100
AcDbText
 10
1106.622946
 20
102.761039
 30
0.0
 40
16.001598
  1
外寸図
 41
0.833333
 11
1106.622946
 21
102.761039
 31
0.0
100
AcDbText
 73
     1
  0
LINE
  5
1AC
100
AcDbEntity
  8
2
  6
CONTINUOUS
 62
     3
100
AcDbLine
 10
1412.9
 20
171.486988
 30
0.0
 11
692.180948
 21
171.486988
 31
0.0
  0
LINE
  5
1AD
100
AcDbEntity
  8
2
  6
CONTINUOUS
 62
     3
100
AcDbLine
 10
692.180948
 20
51.475
 30
0.0
 11
692.180948
 21
171.486988
 31
0.0
  0
LINE
  5
1AE
100
AcDbEntity
  8
2
  6
CONTINUOUS
 62
     3
100
AcDbLine
 10
692.180948
 20
99.479795
 30
0.0
 11
1052.864036
 21
99.479795
 31
0.0
  0
LINE
  5
1AF
100
AcDbEntity
  8
2
  6
CONTINUOUS
 62
     3
100
AcDbLine
 10
692.180948
 20
75.477398
 30
0.0
 11
1052.864036
 21
75.477398
 31
0.0
  0
LINE
  5
1B0
100
AcDbEntity
  8
2
  6
CONTINUOUS
 62
     3
100
AcDbLine
 10
692.180948
 20
123.482193
 30
0.0
 11
868.845654
 21
123.482193
 31
0.0
  0
LINE
  5
1B1
100
AcDbEntity
  8
2
  6
HIDDEN
 62
     3
100
AcDbLine
 10
692.180948
 20
147.48459
 30
0.0
 11
1052.864036
 21
147.48459
 31
0.0
  0
TEXT
  5
1B2
100
AcDbEntity
  8
3
  6
CONTINUOUS
 62
     2
100
AcDbText
 10
742.754105
 20
75.477398
 30
0.0
 40
14.001399
  1
1/5
 41
0.5
 11
742.754105
 21
75.477398
 31
0.0
100
AcDbText
 73
     1
  0
TEXT
  5
1B3
100
AcDbEntity
  8
3
  6
CONTINUOUS
 62
     2
100
AcDbText
 10
1106.034631
 20
78.640982
 30
0.0
 40
16.0
  1
HULL BOTTOM UNIT
 41
0.526316
 11
1106.034631
 21
78.640982
 31
0.0
100
AcDbText
 73
     1
  0
TEXT
  5
1B4
100
AcDbEntity
  8
3
  6
CONTINUOUS
 62
     2
100
AcDbText
 10
1104.857998
 20
54.520924
 30
0.0
 40
16.0
  1
OUTLINE DRAWING
 41
0.513699
 11
1104.857998
 21
54.520924
 31
0.0
100
AcDbText
 73
     1
  0
TEXT
  5
1B5
100
AcDbEntity
  8
3
  6
CONTINUOUS
 62
     2
100
AcDbText
 10
1107.211261
 20
127.469383
 30
0.0
 40
16.0
  1
送受波器タンク
 41
0.833333
 11
1107.211261
 21
127.469383
 31
0.0
100
AcDbText
 73
     1
  0
TEXT
  5
1B6
100
AcDbEntity
  8
3
  6
CONTINUOUS
 62
     2
100
AcDbText
 10
877.326841
 20
99.479795
 30
0.0
 40
12.0
  1
DS-50
 41
0.5
 11
877.326841
 21
99.479795
 31
0.0
100
AcDbText
 73
     1
  0
TEXT
  5
1B7
100
AcDbEntity
  8
6
  6
CONTINUOUS
 62
    51
100
AcDbText
 10
1166.818559
 20
223.486988
 30
0.0
 40
15.0
  1
66-022-7001
 41
0.5
 11
1166.818559
 21
223.486988
 31
0.0
100
AcDbText
 73
     1
  0
TEXT
  5
1B8
100
AcDbEntity
  8
6
  6
CONTINUOUS
 62
    51
100
AcDbText
 10
797.091118
 20
318.986988
 30
0.0
 40
10.0
  1
HEX. BOLT
 41
0.54878
 11
797.091118
 21
318.986988
 31
0.0
100
AcDbText
 73
     1
  0
TEXT
  5
1B9
100
AcDbEntity
  8
6
  6
CONTINUOUS
 62
    51
100
AcDbText
 10
1166.818559
 20
248.486988
 30
0.0
 40
15.0
  1
VA-25
 41
0.5
 11
1166.818559
 21
248.486988
 31
0.0
100
AcDbText
 73
     1
  0
TEXT
  5
1BA
100
AcDbEntity
  8
6
  6
CONTINUOUS
 62
    51
100
AcDbText
 10
1166.818559
 20
198.486988
 30
0.0
 40
15.0
  1
DS-530
 41
0.5
 11
1166.818559
 21
198.486988
 31
0.0
100
AcDbText
 73
     1
  0
TEXT
  5
1BB
100
AcDbEntity
  8
6
  6
CONTINUOUS
 62
    51
100
AcDbText
 10
1001.232532
 20
272.736988
 30
0.0
 40
12.5
  1
SUS304
 41
0.5
 11
1001.232532
 21
272.736988
 31
0.0
100
AcDbText
 73
     1
  0
TEXT
  5
1BC
100
AcDbEntity
  8
6
  6
CONTINUOUS
 62
    51
100
AcDbText
 10
1121.466118
 20
197.736988
 30
0.0
 40
12.5
  1
1
 41
0.5
 11
1121.466118
 21
197.736988
 31
0.0
100
AcDbText
 73
     1
  0
TEXT
  5
1BD
100
AcDbEntity
  8
6
  6
CONTINUOUS
 62
    51
100
AcDbText
 10
1001.232532
 20
247.736988
 30
0.0
 40
12.5
  1
CR
 41
0.5
 11
1001.232532
 21
247.736988
 31
0.0
100
AcDbText
 73
     1
  0
TEXT
  5
1BE
100
AcDbEntity
  8
6
  6
CONTINUOUS
 62
    51
100
AcDbText
 10
1001.232532
 20
297.736988
 30
0.0
 40
12.5
  1
SUS304
 41
0.5
 11
1001.232532
 21
297.736988
 31
0.0
100
AcDbText
 73
     1
  0
TEXT
  5
1BF
100
AcDbEntity
  8
6
  6
CONTINUOUS
 62
    51
100
AcDbText
 10
1001.232532
 20
322.736988
 30
0.0
 40
12.5
  1
SUS304
 41
0.5
 11
1001.232532
 21
322.736988
 31
0.0
100
AcDbText
 73
     1
  0
TEXT
  5
1C0
100
AcDbEntity
  8
6
  6
CONTINUOUS
 62
    51
100
AcDbText
 10
1001.232532
 20
347.736988
 30
0.0
 40
12.5
  1
SUS304
 41
0.5
 11
1001.232532
 21
347.736988
 31
0.0
100
AcDbText
 73
     1
  0
TEXT
  5
1C1
100
AcDbEntity
  8
6
  6
CONTINUOUS
 62
    51
100
AcDbText
 10
1001.232532
 20
372.736988
 30
0.0
 40
12.5
  1
SUS304
 41
0.5
 11
1001.232532
 21
372.736988
 31
0.0
100
AcDbText
 73
     1
  0
TEXT
  5
1C2
100
AcDbEntity
  8
6
  6
CONTINUOUS
 62
    51
100
AcDbText
 10
1001.232532
 20
222.736988
 30
0.0
 40
12.5
  1
KSTPG370
 41
0.5
 11
1001.232532
 21
222.736988
 31
0.0
100
AcDbText
 73
     1
  0
TEXT
  5
1C3
100
AcDbEntity
  8
6
  6
CONTINUOUS
 62
    51
100
AcDbText
 10
914.873972
 20
322.04582
 30
0.0
 40
12.5
  1
M10×110
 41
0.555556
 11
914.873972
 21
322.04582
 31
0.0
100
AcDbText
 73
     1
  0
TEXT
  5
1C4
100
AcDbEntity
  8
6
  6
CONTINUOUS
 62
    51
100
AcDbText
 10
914.873972
 20
347.04582
 30
0.0
 40
12.5
  1
M10
 41
0.5
 11
914.873972
 21
347.04582
 31
0.0
100
AcDbText
 73
     1
  0
TEXT
  5
1C5
100
AcDbEntity
  8
6
  6
CONTINUOUS
 62
    51
100
AcDbText
 10
914.873972
 20
372.04582
 30
0.0
 40
12.5
  1
M10
 41
0.5
 11
914.873972
 21
372.04582
 31
0.0
100
AcDbText
 73
     1
  0
TEXT
  5
1C6
100
AcDbEntity
  8
6
  6
CONTINUOUS
 62
    51
100
AcDbText
 10
1121.466118
 20
247.736988
 30
0.0
 40
12.5
  1
1
 41
0.5
 11
1121.466118
 21
247.736988
 31
0.0
100
AcDbText
 73
     1
  0
TEXT
  5
1C7
100
AcDbEntity
  8
6
  6
CONTINUOUS
 62
    51
100
AcDbText
 10
1121.466118
 20
272.736988
 30
0.0
 40
12.5
  1
1
 41
0.5
 11
1121.466118
 21
272.736988
 31
0.0
100
AcDbText
 73
     1
  0
TEXT
  5
1C8
100
AcDbEntity
  8
6
  6
CONTINUOUS
 62
    51
100
AcDbText
 10
1121.466118
 20
297.736988
 30
0.0
 40
12.5
  1
1
 41
0.5
 11
1121.466118
 21
297.736988
 31
0.0
100
AcDbText
 73
     1
  0
TEXT
  5
1C9
100
AcDbEntity
  8
6
  6
CONTINUOUS
 62
    51
100
AcDbText
 10
1121.466118
 20
322.736988
 30
0.0
 40
12.5
  1
3
 41
0.5
 11
1121.466118
 21
322.736988
 31
0.0
100
AcDbText
 73
     1
  0
TEXT
  5
1CA
100
AcDbEntity
  8
6
  6
CONTINUOUS
 62
    51
100
AcDbText
 10
1121.466118
 20
347.736988
 30
0.0
 40
12.5
  1
3
 41
0.5
 11
1121.466118
 21
347.736988
 31
0.0
100
AcDbText
 73
     1
  0
TEXT
  5
1CB
100
AcDbEntity
  8
6
  6
CONTINUOUS
 62
    51
100
AcDbText
 10
1121.466118
 20
372.736988
 30
0.0
 40
12.5
  1
3
 41
0.5
 11
1121.466118
 21
372.736988
 31
0.0
100
AcDbText
 73
     1
  0
TEXT
  5
1CC
100
AcDbEntity
  8
6
  6
CONTINUOUS
 62
    51
100
AcDbText
 10
1121.466118
 20
222.736988
 30
0.0
 40
12.5
  1
1
 41
0.5
 11
1121.466118
 21
222.736988
 31
0.0
100
AcDbText
 73
     1
  0
TEXT
  5
1CD
100
AcDbEntity
  8
6
  6
CONTINUOUS
 62
    51
100
AcDbText
 10
797.091118
 20
253.986988
 30
0.0
 40
12.5
  1
VAパッキン
 41
0.735294
 11
797.091118
 21
253.986988
 31
0.0
100
AcDbText
 73
     1
  0
TEXT
  5
1CE
100
AcDbEntity
  8
6
  6
CONTINUOUS
 62
    51
100
AcDbText
 10
797.091118
 20
278.986988
 30
0.0
 40
12.5
  1
座金
 41
0.833333
 11
797.091118
 21
278.986988
 31
0.0
100
AcDbText
 73
     1
  0
TEXT
  5
1CF
100
AcDbEntity
  8
6
  6
CONTINUOUS
 62
    51
100
AcDbText
 10
797.091118
 20
303.986988
 30
0.0
 40
12.5
  1
締付グランド
 41
0.833333
 11
797.091118
 21
303.986988
 31
0.0
100
AcDbText
 73
     1
  0
TEXT
  5
1D0
100
AcDbEntity
  8
6
  6
CONTINUOUS
 62
    51
100
AcDbText
 10
797.091118
 20
328.986988
 30
0.0
 40
12.5
  1
六角ボルト
 41
0.833333
 11
797.091118
 21
328.986988
 31
0.0
100
AcDbText
 73
     1
  0
TEXT
  5
1D1
100
AcDbEntity
  8
6
  6
CONTINUOUS
 62
    51
100
AcDbText
 10
797.091118
 20
353.986988
 30
0.0
 40
12.5
  1
バネ座金
 41
0.833333
 11
797.091118
 21
353.986988
 31
0.0
100
AcDbText
 73
     1
  0
TEXT
  5
1D2
100
AcDbEntity
  8
6
  6
CONTINUOUS
 62
    51
100
AcDbText
 10
797.091118
 20
378.986988
 30
0.0
 40
12.5
  1
平座金
 41
0.833333
 11
797.091118
 21
378.986988
 31
0.0
100
AcDbText
 73
     1
  0
TEXT
  5
1D3
100
AcDbEntity
  8
6
  6
CONTINUOUS
 62
    51
100
AcDbText
 10
797.091118
 20
243.986988
 30
0.0
 40
10.0
  1
RUBBER GASKET
 41
0.515873
 11
797.091118
 21
243.986988
 31
0.0
100
AcDbText
 73
     1
  0
TEXT
  5
1D4
100
AcDbEntity
  8
6
  6
CONTINUOUS
 62
    51
100
AcDbText
 10
797.091118
 20
268.986988
 30
0.0
 40
10.0
  1
WASHER
 41
0.5
 11
797.091118
 21
268.986988
 31
0.0
100
AcDbText
 73
     1
  0
TEXT
  5
1D5
100
AcDbEntity
  8
6
  6
CONTINUOUS
 62
    51
100
AcDbText
 10
797.091118
 20
293.986988
 30
0.0
 40
10.0
  1
CABLE GRAND
 41
0.518868
 11
797.091118
 21
293.986988
 31
0.0
100
AcDbText
 73
     1
  0
TEXT
  5
1D6
100
AcDbEntity
  8
6
  6
CONTINUOUS
 62
    51
100
AcDbText
 10
797.091118
 20
343.986988
 30
0.0
 40
10.0
  1
SPRING WASHER
 41
0.515873
 11
797.091118
 21
343.986988
 31
0.0
100
AcDbText
 73
     1
  0
TEXT
  5
1D7
100
AcDbEntity
  8
6
  6
CONTINUOUS
 62
    51
100
AcDbText
 10
797.091118
 20
368.986988
 30
0.0
 40
10.0
  1
FLAT WASHER
 41
0.518868
 11
797.091118
 21
368.986988
 31
0.0
100
AcDbText
 73
     1
  0
TEXT
  5
1D8
100
AcDbEntity
  8
6
  6
CONTINUOUS
 62
    51
100
AcDbText
 10
758.341118
 20
246.486988
 30
0.0
 40
15.0
  1
3
 41
0.5
 11
758.341118
 21
246.486988
 31
0.0
100
AcDbText
 73
     1
  0
TEXT
  5
1D9
100
AcDbEntity
  8
6
  6
CONTINUOUS
 62
    51
100
AcDbText
 10
758.341118
 20
271.486988
 30
0.0
 40
15.0
  1
4
 41
0.5
 11
758.341118
 21
271.486988
 31
0.0
100
AcDbText
 73
     1
  0
TEXT
  5
1DA
100
AcDbEntity
  8
6
  6
CONTINUOUS
 62
    51
100
AcDbText
 10
758.341118
 20
296.486988
 30
0.0
 40
15.0
  1
5
 41
0.5
 11
758.341118
 21
296.486988
 31
0.0
100
AcDbText
 73
     1
  0
TEXT
  5
1DB
100
AcDbEntity
  8
6
  6
CONTINUOUS
 62
    51
100
AcDbText
 10
758.341118
 20
321.486988
 30
0.0
 40
15.0
  1
6
 41
0.5
 11
758.341118
 21
321.486988
 31
0.0
100
AcDbText
 73
     1
  0
TEXT
  5
1DC
100
AcDbEntity
  8
6
  6
CONTINUOUS
 62
    51
100
AcDbText
 10
758.341118
 20
346.486988
 30
0.0
 40
15.0
  1
7
 41
0.5
 11
758.341118
 21
346.486988
 31
0.0
100
AcDbText
 73
     1
  0
TEXT
  5
1DD
100
AcDbEntity
  8
6
  6
CONTINUOUS
 62
    51
100
AcDbText
 10
758.341118
 20
371.486988
 30
0.0
 40
15.0
  1
8
 41
0.5
 11
758.341118
 21
371.486988
 31
0.0
100
AcDbText
 73
     1
  0
LINE
  5
1DE
100
AcDbEntity
  8
6
  6
CONTINUOUS
 62
    51
100
AcDbLine
 10
737.091118
 20
268.986988
 30
0.0
 11
1412.091118
 21
268.986988
 31
0.0
  0
LINE
  5
1DF
100
AcDbEntity
  8
6
  6
CONTINUOUS
 62
    51
100
AcDbLine
 10
737.091118
 20
293.986988
 30
0.0
 11
1412.091118
 21
293.986988
 31
0.0
  0
LINE
  5
1E0
100
AcDbEntity
  8
6
  6
CONTINUOUS
 62
    51
100
AcDbLine
 10
737.091118
 20
318.986988
 30
0.0
 11
1412.091118
 21
318.986988
 31
0.0
  0
LINE
  5
1E1
100
AcDbEntity
  8
6
  6
CONTINUOUS
 62
    51
100
AcDbLine
 10
737.091118
 20
343.986988
 30
0.0
 11
1412.091118
 21
343.986988
 31
0.0
  0
LINE
  5
1E2
100
AcDbEntity
  8
6
  6
CONTINUOUS
 62
    51
100
AcDbLine
 10
737.091118
 20
368.986988
 30
0.0
 11
1412.091118
 21
368.986988
 31
0.0
  0
LINE
  5
1E3
100
AcDbEntity
  8
6
  6
CONTINUOUS
 62
    51
100
AcDbLine
 10
1287.091118
 20
171.486988
 30
0.0
 11
1287.091118
 21
393.986988
 31
0.0
  0
LINE
  5
1E4
100
AcDbEntity
  8
6
  6
CONTINUOUS
 62
    51
100
AcDbLine
 10
1162.091118
 20
171.486988
 30
0.0
 11
1162.091118
 21
393.986988
 31
0.0
  0
LINE
  5
1E5
100
AcDbEntity
  8
6
  6
CONTINUOUS
 62
    51
100
AcDbLine
 10
1087.091118
 20
171.486988
 30
0.0
 11
1087.091118
 21
393.986988
 31
0.0
  0
LINE
  5
1E6
100
AcDbEntity
  8
6
  6
CONTINUOUS
 62
    51
100
AcDbLine
 10
987.091118
 20
171.486988
 30
0.0
 11
987.091118
 21
393.986988
 31
0.0
  0
LINE
  5
1E7
100
AcDbEntity
  8
6
  6
CONTINUOUS
 62
    51
100
AcDbLine
 10
787.091118
 20
171.486988
 30
0.0
 11
787.091118
 21
393.986988
 31
0.0
  0
LINE
  5
1E8
100
AcDbEntity
  8
6
  6
CONTINUOUS
 62
    51
100
AcDbLine
 10
737.091118
 20
171.486988
 30
0.0
 11
737.091118
 21
393.986988
 31
0.0
  0
LINE
  5
1E9
100
AcDbEntity
  8
6
  6
CONTINUOUS
 62
    51
100
AcDbLine
 10
737.091118
 20
393.986988
 30
0.0
 11
1412.091118
 21
393.986988
 31
0.0
  0
TEXT
  5
1EA
100
AcDbEntity
  8
6
  6
CONTINUOUS
 62
    51
100
AcDbText
 10
758.341118
 20
221.486988
 30
0.0
 40
15.0
  1
2
 41
0.5
 11
758.341118
 21
221.486988
 31
0.0
100
AcDbText
 73
     1
  0
TEXT
  5
1EB
100
AcDbEntity
  8
6
  6
CONTINUOUS
 62
    51
100
AcDbText
 10
758.341118
 20
196.486988
 30
0.0
 40
15.0
  1
1
 41
0.5
 11
758.341118
 21
196.486988
 31
0.0
100
AcDbText
 73
     1
  0
TEXT
  5
1EC
100
AcDbEntity
  8
6
  6
CONTINUOUS
 62
    51
100
AcDbText
 10
797.091118
 20
203.986988
 30
0.0
 40
12.5
  1
送受波器
 41
0.833333
 11
797.091118
 21
203.986988
 31
0.0
100
AcDbText
 73
     1
  0
TEXT
  5
1ED
100
AcDbEntity
  8
6
  6
CONTINUOUS
 62
    51
100
AcDbText
 10
797.091118
 20
218.986988
 30
0.0
 40
10.0
  1
CASING
 41
0.5
 11
797.091118
 21
218.986988
 31
0.0
100
AcDbText
 73
     1
  0
LINE
  5
1EE
100
AcDbEntity
  8
6
  6
CONTINUOUS
 62
    51
100
AcDbLine
 10
737.091118
 20
218.986988
 30
0.0
 11
1412.091118
 21
218.986988
 31
0.0
  0
TEXT
  5
1EF
100
AcDbEntity
  8
6
  6
CONTINUOUS
 62
    51
100
AcDbText
 10
797.091118
 20
193.986988
 30
0.0
 40
10.0
  1
TRANSDUCER
 41
0.5
 11
797.091118
 21
193.986988
 31
0.0
100
AcDbText
 73
     1
  0
LINE
  5
1F0
100
AcDbEntity
  8
6
  6
CONTINUOUS
 62
    51
100
AcDbLine
 10
737.091118
 20
193.986988
 30
0.0
 11
1412.9
 21
193.986988
 31
0.0
  0
LINE
  5
1F1
100
AcDbEntity
  8
6
  6
CONTINUOUS
 62
    51
100
AcDbLine
 10
737.091118
 20
243.986988
 30
0.0
 11
1412.091118
 21
243.986988
 31
0.0
  0
TEXT
  5
1F2
100
AcDbEntity
  8
6
  6
CONTINUOUS
 62
    51
100
AcDbText
 10
1000.511445
 20
182.556927
 30
0.0
 40
10.0
  1
材     質
 41
0.833333
 11
1000.511445
 21
182.556927
 31
0.0
100
AcDbText
 73
     1
  0
TEXT
  5
1F3
100
AcDbEntity
  8
6
  6
CONTINUOUS
 62
    51
100
AcDbText
 10
1312.056082
 20
182.533224
 30
0.0
 40
10.0
  1
摘     要
 41
0.833333
 11
1312.056082
 21
182.533224
 31
0.0
100
AcDbText
 73
     1
  0
TEXT
  5
1F4
100
AcDbEntity
  8
6
  6
CONTINUOUS
 62
    51
100
AcDbText
 10
1190.275811
 20
182.533224
 30
0.0
 40
10.0
  1
図      番
 41
0.833333
 11
1190.275811
 21
182.533224
 31
0.0
100
AcDbText
 73
     1
  0
TEXT
  5
1F5
100
AcDbEntity
  8
6
  6
CONTINUOUS
 62
    51
100
AcDbText
 10
1102.014811
 20
182.071592
 30
0.0
 40
10.0
  1
数     量
 41
0.833333
 11
1102.014811
 21
182.071592
 31
0.0
100
AcDbText
 73
     1
  0
TEXT
  5
1F6
100
AcDbEntity
  8
6
  6
CONTINUOUS
 62
    51
100
AcDbText
 10
751.492394
 20
181.383472
 30
0.0
 40
10.0
  1
品番
 41
0.833333
 11
751.492394
 21
181.383472
 31
0.0
100
AcDbText
 73
     1
  0
TEXT
  5
1F7
100
AcDbEntity
  8
6
  6
CONTINUOUS
 62
    51
100
AcDbText
 10
840.418923
 20
181.383472
 30
0.0
 40
10.0
  1
品          名
 41
0.833333
 11
840.418923
 21
181.383472
 31
0.0
100
AcDbText
 73
     1
  0
TEXT
  5
1F8
100
AcDbEntity
  8
6
  6
CONTINUOUS
 62
    51
100
AcDbText
 10
866.690374
 20
171.265189
 30
0.0
 40
10.0
  1
NAME
 41
0.5
 11
866.690374
 21
171.265189
 31
0.0
100
AcDbText
 73
     1
  0
TEXT
  5
1F9
100
AcDbEntity
  8
6
  6
CONTINUOUS
 62
    51
100
AcDbText
 10
751.344725
 20
171.374612
 30
0.0
 40
10.0
  1
ITEM
 41
0.5
 11
751.344725
 21
171.374612
 31
0.0
100
AcDbText
 73
     1
  0
TEXT
  5
1FA
100
AcDbEntity
  8
6
  6
CONTINUOUS
 62
    51
100
AcDbText
 10
1001.257838
 20
171.99331
 30
0.0
 40
10.0
  1
MATERIAL
 41
0.5
 11
1001.257838
 21
171.99331
 31
0.0
100
AcDbText
 73
     1
  0
TEXT
  5
1FB
100
AcDbEntity
  8
6
  6
CONTINUOUS
 62
    51
100
AcDbText
 10
797.091118
 20
228.986988
 30
0.0
 40
12.5
  1
船底タンク
 41
0.833333
 11
797.091118
 21
228.986988
 31
0.0
100
AcDbText
 73
     1
  0
TEXT
  5
1FC
100
AcDbEntity
  8
6
  6
CONTINUOUS
 62
    51
100
AcDbText
 10
1108.247169
 20
171.486988
 30
0.0
 40
10.0
  1
Q'TY
 41
0.555556
 11
1108.247169
 21
171.486988
 31
0.0
100
AcDbText
 73
     1
  0
TEXT
  5
1FD
100
AcDbEntity
  8
6
  6
CONTINUOUS
 62
    51
100
AcDbText
 10
1199.796262
 20
171.486988
 30
0.0
 40
10.0
  1
DWG. NO.
 41
0.588235
 11
1199.796262
 21
171.486988
 31
0.0
100
AcDbText
 73
     1
  0
TEXT
  5
1FE
100
AcDbEntity
  8
6
  6
CONTINUOUS
 62
    51
100
AcDbText
 10
1321.576533
 20
171.486988
 30
0.0
 40
10.0
  1
REMARKS
 41
0.5
 11
1321.576533
 21
171.486988
 31
0.0
100
AcDbText
 73
     1
  0
TEXT
  5
1FF
100
AcDbEntity
  8
3
  6
CONTINUOUS
 62
     2
100
AcDbText
 10
1108.38777
 20
150.412863
 30
0.0
 40
16.0
  1
DS-531-A
 41
0.5
 11
1108.38777
 21
150.412863
 31
0.0
100
AcDbText
 73
     1
  0
TEXT
  5
200
100
AcDbEntity
  8
3
  6
CONTINUOUS
 62
     2
100
AcDbText
 10
765.035946
 20
55.01004
 30
0.0
 40
14.001399
  1
C7241-G09- B
 41
0.544335
 11
765.035946
 21
55.01004
 31
0.0
100
AcDbText
 73
     1
  0
TEXT
  5
201
100
AcDbEntity
  8
3
  6
CONTINUOUS
 62
     2
100
AcDbText
 10
908.989926
 20
53.757099
 30
0.0
 40
14.001399
  1
66-022-7200- 3
 41
0.542017
 11
908.989926
 21
53.757099
 31
0.0
100
AcDbText
 73
     1
  0
LINE
  5
202
100
AcDbEntity
  8
1
  6
CONTINUOUS
 62
     4
100
AcDbLine
 10
963.091118
 20
491.026582
 30
0.0
 11
1060.591118
 21
491.026582
 31
0.0
  0
TEXT
  5
203
100
AcDbEntity
  8
1
  6
CONTINUOUS
 62
     4
100
AcDbText
 10
963.091118
 20
491.026582
 30
0.0
 40
15.0
  1
表２　TABLE 2
 41
0.637255
 11
963.091118
 21
491.026582
 31
0.0
100
AcDbText
 73
     1
  0
TEXT
  5
204
100
AcDbEntity
  8
1
  6
CONTINUOUS
 62
     4
100
AcDbText
 10
874.604419
 20
435.486988
 30
0.0
 40
12.5
  1
含有量（％）
 41
0.833333
 11
874.604419
 21
435.486988
 31
0.0
100
AcDbText
 73
     1
  0
TEXT
  5
205
100
AcDbEntity
  8
1
  6
CONTINUOUS
 62
     4
100
AcDbText
 10
1354.604419
 20
425.486988
 30
0.0
 40
10.0
  1
NIL
 41
0.5
 11
1354.604419
 21
425.486988
 31
0.0
100
AcDbText
 73
     1
  0
TEXT
  5
206
100
AcDbEntity
  8
1
  6
CONTINUOUS
 62
     4
100
AcDbText
 10
1299.604419
 20
425.486988
 30
0.0
 40
10.0
  1
NIL
 41
0.5
 11
1299.604419
 21
425.486988
 31
0.0
100
AcDbText
 73
     1
  0
TEXT
  5
207
100
AcDbEntity
  8
1
  6
CONTINUOUS
 62
     4
100
AcDbText
 10
1234.604419
 20
425.486988
 30
0.0
 40
10.0
  1
OR LESS
 41
0.530303
 11
1234.604419
 21
425.486988
 31
0.0
100
AcDbText
 73
     1
  0
TEXT
  5
208
100
AcDbEntity
  8
1
  6
CONTINUOUS
 62
     4
100
AcDbText
 10
1169.604419
 20
425.486988
 30
0.0
 40
10.0
  1
OR LESS
 41
0.530303
 11
1169.604419
 21
425.486988
 31
0.0
100
AcDbText
 73
     1
  0
TEXT
  5
209
100
AcDbEntity
  8
1
  6
CONTINUOUS
 62
     4
100
AcDbText
 10
1039.604419
 20
425.486988
 30
0.0
 40
10.0
  1
OR LESS
 41
0.530303
 11
1039.604419
 21
425.486988
 31
0.0
100
AcDbText
 73
     1
  0
TEXT
  5
20A
100
AcDbEntity
  8
1
  6
CONTINUOUS
 62
     4
100
AcDbText
 10
974.604419
 20
425.486988
 30
0.0
 40
10.0
  1
OR LESS
 41
0.530303
 11
974.604419
 21
425.486988
 31
0.0
100
AcDbText
 73
     1
  0
TEXT
  5
20B
100
AcDbEntity
  8
1
  6
CONTINUOUS
 62
     4
100
AcDbText
 10
874.604419
 20
425.486988
 30
0.0
 40
10.0
  1
CONTENT
 41
0.375
 11
874.604419
 21
425.486988
 31
0.0
100
AcDbText
 73
     1
  0
TEXT
  5
20C
100
AcDbEntity
  8
1
  6
CONTINUOUS
 62
     4
100
AcDbText
 10
1348.091118
 20
434.486988
 30
0.0
 40
12.5
  1
なし
 41
0.833333
 11
1348.091118
 21
434.486988
 31
0.0
100
AcDbText
 73
     1
  0
TEXT
  5
20D
100
AcDbEntity
  8
1
  6
CONTINUOUS
 62
     4
100
AcDbText
 10
1293.091118
 20
434.486988
 30
0.0
 40
12.5
  1
なし
 41
0.833333
 11
1293.091118
 21
434.486988
 31
0.0
100
AcDbText
 73
     1
  0
TEXT
  5
20E
100
AcDbEntity
  8
1
  6
CONTINUOUS
 62
     4
100
AcDbText
 10
1228.091118
 20
434.486988
 30
0.0
 40
12.5
  1
0.040以下
 41
0.642857
 11
1228.091118
 21
434.486988
 31
0.0
100
AcDbText
 73
     1
  0
TEXT
  5
20F
100
AcDbEntity
  8
1
  6
CONTINUOUS
 62
     4
100
AcDbText
 10
1163.091118
 20
434.486988
 30
0.0
 40
12.5
  1
0.040以下
 41
0.642857
 11
1163.091118
 21
434.486988
 31
0.0
100
AcDbText
 73
     1
  0
TEXT
  5
210
100
AcDbEntity
  8
1
  6
CONTINUOUS
 62
     4
100
AcDbText
 10
1098.091118
 20
434.486988
 30
0.0
 40
12.5
  1
0.30-0.90
 41
0.54878
 11
1098.091118
 21
434.486988
 31
0.0
100
AcDbText
 73
     1
  0
TEXT
  5
211
100
AcDbEntity
  8
1
  6
CONTINUOUS
 62
     4
100
AcDbText
 10
1038.091118
 20
434.486988
 30
0.0
 40
12.5
  1
0.35以下
 41
0.666667
 11
1038.091118
 21
434.486988
 31
0.0
100
AcDbText
 73
     1
  0
TEXT
  5
212
100
AcDbEntity
  8
1
  6
CONTINUOUS
 62
     4
100
AcDbText
 10
973.091118
 20
434.486988
 30
0.0
 40
12.5
  1
0.25以下
 41
0.666667
 11
973.091118
 21
434.486988
 31
0.0
100
AcDbText
 73
     1
  0
TEXT
  5
213
100
AcDbEntity
  8
1
  6
CONTINUOUS
 62
     4
100
AcDbText
 10
874.604419
 20
462.486988
 30
0.0
 40
12.5
  1
化学成分
 41
0.833333
 11
874.604419
 21
462.486988
 31
0.0
100
AcDbText
 73
     1
  0
LINE
  5
214
100
AcDbEntity
  8
1
  6
CONTINUOUS
 62
     4
100
AcDbLine
 10
1343.091118
 20
476.986988
 30
0.0
 11
1343.091118
 21
423.986988
 31
0.0
  0
LINE
  5
215
100
AcDbEntity
  8
1
  6
CONTINUOUS
 62
     4
100
AcDbLine
 10
1288.091118
 20
476.986988
 30
0.0
 11
1288.091118
 21
423.986988
 31
0.0
  0
LINE
  5
216
100
AcDbEntity
  8
1
  6
CONTINUOUS
 62
     4
100
AcDbLine
 10
1223.091118
 20
476.986988
 30
0.0
 11
1223.091118
 21
423.986988
 31
0.0
  0
LINE
  5
217
100
AcDbEntity
  8
1
  6
CONTINUOUS
 62
     4
100
AcDbLine
 10
1158.091118
 20
476.986988
 30
0.0
 11
1158.091118
 21
423.986988
 31
0.0
  0
LINE
  5
218
100
AcDbEntity
  8
1
  6
CONTINUOUS
 62
     4
100
AcDbLine
 10
1093.091118
 20
476.986988
 30
0.0
 11
1093.091118
 21
423.986988
 31
0.0
  0
LINE
  5
219
100
AcDbEntity
  8
1
  6
CONTINUOUS
 62
     4
100
AcDbLine
 10
1028.091118
 20
476.986988
 30
0.0
 11
1028.091118
 21
423.986988
 31
0.0
  0
LINE
  5
21A
100
AcDbEntity
  8
1
  6
CONTINUOUS
 62
     4
100
AcDbLine
 10
963.091118
 20
476.986988
 30
0.0
 11
963.091118
 21
423.986988
 31
0.0
  0
LINE
  5
21B
100
AcDbEntity
  8
1
  6
CONTINUOUS
 62
     4
100
AcDbLine
 10
1392.091118
 20
476.986988
 30
0.0
 11
1392.091118
 21
423.986988
 31
0.0
  0
LINE
  5
21C
100
AcDbEntity
  8
1
  6
CONTINUOUS
 62
     4
100
AcDbLine
 10
863.091118
 20
476.986988
 30
0.0
 11
863.091118
 21
423.986988
 31
0.0
  0
LINE
  5
21D
100
AcDbEntity
  8
1
  6
CONTINUOUS
 62
     4
100
AcDbLine
 10
863.091118
 20
423.986988
 30
0.0
 11
1392.091118
 21
423.986988
 31
0.0
  0
TEXT
  5
21E
100
AcDbEntity
  8
1
  6
CONTINUOUS
 62
     4
100
AcDbText
 10
874.604419
 20
452.486988
 30
0.0
 40
10.0
  1
CHEMICAL COMPOSITION
 41
0.382653
 11
874.604419
 21
452.486988
 31
0.0
100
AcDbText
 73
     1
  0
TEXT
  5
21F
100
AcDbEntity
  8
1
  6
CONTINUOUS
 62
     4
100
AcDbText
 10
1353.091118
 20
458.986988
 30
0.0
 40
12.5
  1
Mo
 41
0.5
 11
1353.091118
 21
458.986988
 31
0.0
100
AcDbText
 73
     1
  0
TEXT
  5
220
100
AcDbEntity
  8
1
  6
CONTINUOUS
 62
     4
100
AcDbText
 10
1298.091118
 20
458.986988
 30
0.0
 40
12.5
  1
Cr
 41
0.5
 11
1298.091118
 21
458.986988
 31
0.0
100
AcDbText
 73
     1
  0
TEXT
  5
221
100
AcDbEntity
  8
1
  6
CONTINUOUS
 62
     4
100
AcDbText
 10
1233.091118
 20
458.986988
 30
0.0
 40
12.5
  1
S
 41
0.5
 11
1233.091118
 21
458.986988
 31
0.0
100
AcDbText
 73
     1
  0
TEXT
  5
222
100
AcDbEntity
  8
1
  6
CONTINUOUS
 62
     4
100
AcDbText
 10
1168.091118
 20
458.986988
 30
0.0
 40
12.5
  1
P
 41
0.5
 11
1168.091118
 21
458.986988
 31
0.0
100
AcDbText
 73
     1
  0
TEXT
  5
223
100
AcDbEntity
  8
1
  6
CONTINUOUS
 62
     4
100
AcDbText
 10
1103.091118
 20
458.986988
 30
0.0
 40
12.5
  1
Mn
 41
0.5
 11
1103.091118
 21
458.986988
 31
0.0
100
AcDbText
 73
     1
  0
TEXT
  5
224
100
AcDbEntity
  8
1
  6
CONTINUOUS
 62
     4
100
AcDbText
 10
1038.091118
 20
458.986988
 30
0.0
 40
12.5
  1
Si
 41
0.5
 11
1038.091118
 21
458.986988
 31
0.0
100
AcDbText
 73
     1
  0
TEXT
  5
225
100
AcDbEntity
  8
1
  6
CONTINUOUS
 62
     4
100
AcDbText
 10
973.091118
 20
458.986988
 30
0.0
 40
12.5
  1
C
 41
0.5
 11
973.091118
 21
458.986988
 31
0.0
100
AcDbText
 73
     1
  0
LINE
  5
226
100
AcDbEntity
  8
1
  6
CONTINUOUS
 62
     4
100
AcDbLine
 10
863.091118
 20
476.986988
 30
0.0
 11
1392.091118
 21
476.986988
 31
0.0
  0
LINE
  5
227
100
AcDbEntity
  8
1
  6
CONTINUOUS
 62
     4
100
AcDbLine
 10
863.091118
 20
452.986988
 30
0.0
 11
1392.091118
 21
452.986988
 31
0.0
  0
LINE
  5
228
100
AcDbEntity
  8
6
  6
CONTINUOUS
 62
    51
100
AcDbLine
 10
1162.091118
 20
516.986988
 30
0.0
 11
1392.091118
 21
516.986988
 31
0.0
  0
LINE
  5
229
100
AcDbEntity
  8
6
  6
CONTINUOUS
 62
    51
100
AcDbLine
 10
1162.091118
 20
536.986988
 30
0.0
 11
1392.091118
 21
536.986988
 31
0.0
  0
LINE
  5
22A
100
AcDbEntity
  8
6
  6
CONTINUOUS
 62
    51
100
AcDbLine
 10
1162.091118
 20
556.986988
 30
0.0
 11
1392.091118
 21
556.986988
 31
0.0
  0
TEXT
  5
22B
100
AcDbEntity
  8
6
  6
CONTINUOUS
 62
    51
100
AcDbText
 10
1358.348055
 20
497.672248
 30
0.0
 40
15.0
  1
%%p3
 41
0.75
 11
1358.348055
 21
497.672248
 31
0.0
100
AcDbText
 73
     1
  0
TEXT
  5
22C
100
AcDbEntity
  8
6
  6
CONTINUOUS
 62
    51
100
AcDbText
 10
1343.348055
 20
517.672248
 30
0.0
 40
15.0
  1
%%p2.5
 41
0.694444
 11
1343.348055
 21
517.672248
 31
0.0
100
AcDbText
 73
     1
  0
TEXT
  5
22D
100
AcDbEntity
  8
6
  6
CONTINUOUS
 62
    51
100
AcDbText
 10
1343.348055
 20
537.672248
 30
0.0
 40
15.0
  1
%%p1.5
 41
0.694444
 11
1343.348055
 21
537.672248
 31
0.0
100
AcDbText
 73
     1
  0
TEXT
  5
22E
100
AcDbEntity
  8
6
  6
CONTINUOUS
 62
    51
100
AcDbText
 10
1319.33334
 20
556.986988
 30
0.0
 40
15.0
  1
TOLERANCE
 41
0.5
 11
1319.33334
 21
556.986988
 31
0.0
100
AcDbText
 73
     1
  0
TEXT
  5
22F
100
AcDbEntity
  8
6
  6
CONTINUOUS
 62
    51
100
AcDbText
 10
1319.33334
 20
571.986988
 30
0.0
 40
15.0
  1
公差 (mm)
 41
0.642857
 11
1319.33334
 21
571.986988
 31
0.0
100
AcDbText
 73
     1
  0
TEXT
  5
230
100
AcDbEntity
  8
6
  6
CONTINUOUS
 62
    51
100
AcDbText
 10
1197.45872
 20
538.560687
 30
0.0
 40
15.0
  1
0 ＜ L ≦   50
 41
0.7
 11
1197.45872
 21
538.560687
 31
0.0
100
AcDbText
 73
     1
  0
TEXT
  5
231
100
AcDbEntity
  8
6
  6
CONTINUOUS
 62
    51
100
AcDbText
 10
1184.743458
 20
556.986988
 30
0.0
 40
15.0
  1
DIMENSION
 41
0.5
 11
1184.743458
 21
556.986988
 31
0.0
100
AcDbText
 73
     1
  0
TEXT
  5
232
100
AcDbEntity
  8
6
  6
CONTINUOUS
 62
    51
100
AcDbText
 10
1184.743458
 20
571.986988
 30
0.0
 40
15.0
  1
寸法範囲 (mm)
 41
0.691489
 11
1184.743458
 21
571.986988
 31
0.0
100
AcDbText
 73
     1
  0
TEXT
  5
233
100
AcDbEntity
  8
6
  6
CONTINUOUS
 62
    51
100
AcDbText
 10
1189.95872
 20
518.560687
 30
0.0
 40
15.0
  1
50 ＜ L ≦  100
 41
0.657895
 11
1189.95872
 21
518.560687
 31
0.0
100
AcDbText
 73
     1
  0
TEXT
  5
234
100
AcDbEntity
  8
6
  6
CONTINUOUS
 62
    51
100
AcDbText
 10
1182.45872
 20
498.560687
 30
0.0
 40
15.0
  1
100 ＜ L ≦  500
 41
0.645161
 11
1182.45872
 21
498.560687
 31
0.0
100
AcDbText
 73
     1
  0
LINE
  5
235
100
AcDbEntity
  8
6
  6
CONTINUOUS
 62
    51
100
AcDbLine
 10
1223.591118
 20
600.486988
 30
0.0
 11
1337.341118
 21
600.486988
 31
0.0
  0
TEXT
  5
236
100
AcDbEntity
  8
6
  6
CONTINUOUS
 62
    51
100
AcDbText
 10
1223.591118
 20
600.486988
 30
0.0
 40
17.5
  1
表１  TABLE 1
 41
0.637255
 11
1223.591118
 21
600.486988
 31
0.0
100
AcDbText
 73
     1
  0
INSERT
  5
23E
100
AcDbEntity
  8
6
  6
CONTINUOUS
 62
    51
100
AcDbBlockReference
  2
*G18
 10
0.0
 20
0.0
 30
0.0
  0
LINE
  5
23F
100
AcDbEntity
  8
6
  6
CONTINUOUS
 62
    51
100
AcDbLine
 10
1312.091118
 20
591.986988
 30
0.0
 11
1312.091118
 21
496.986988
 31
0.0
  0
LINE
  5
240
100
AcDbEntity
  8
1
  6
CONTINUOUS
 62
     4
100
AcDbLine
 10
320.0
 20
530.0
 30
0.0
 11
322.5
 21
530.0
 31
0.0
  0
LINE
  5
241
100
AcDbEntity
  8
1
  6
CONTINUOUS
 62
     4
100
AcDbLine
 10
322.5
 20
530.0
 30
0.0
 11
322.5
 21
505.0
 31
0.0
  0
INSERT
  5
249
100
AcDbEntity
  8
1
  6
CONTINUOUS
 62
     4
100
AcDbBlockReference
  2
*G19
 10
0.0
 20
0.0
 30
0.0
  0
LINE
  5
24A
100
AcDbEntity
  8
1
  6
PHANTOM
 62
     4
100
AcDbLine
 10
181.85
 20
230.0
 30
0.0
 11
241.85
 21
230.0
 31
0.0
  0
LINE
  5
24B
100
AcDbEntity
  8
1
  6
PHANTOM
 62
     4
100
AcDbLine
 10
181.85
 20
253.989985
 30
0.0
 11
241.85
 21
253.989985
 31
0.0
  0
INSERT
  5
256
100
AcDbEntity
  8
8
  6
CONTINUOUS
 62
     6
100
AcDbBlockReference
  2
*G20
 10
0.0
 20
0.0
 30
0.0
  0
INSERT
  5
261
100
AcDbEntity
  8
8
  6
CONTINUOUS
 62
     6
100
AcDbBlockReference
  2
*G21
 10
0.0
 20
0.0
 30
0.0
  0
LINE
  5
262
100
AcDbEntity
  8
1
  6
CONTINUOUS
 62
     4
100
AcDbLine
 10
380.0
 20
530.0
 30
0.0
 11
377.5
 21
530.0
 31
0.0
  0
LINE
  5
263
100
AcDbEntity
  8
1
  6
CONTINUOUS
 62
     4
100
AcDbLine
 10
377.5
 20
530.0
 30
0.0
 11
377.5
 21
505.0
 31
0.0
  0
LINE
  5
264
100
AcDbEntity
  8
1
  6
PHANTOM
 62
     4
100
AcDbLine
 10
518.15
 20
230.0
 30
0.0
 11
458.15
 21
230.0
 31
0.0
  0
LINE
  5
265
100
AcDbEntity
  8
1
  6
PHANTOM
 62
     4
100
AcDbLine
 10
518.15
 20
253.989985
 30
0.0
 11
458.15
 21
253.989985
 31
0.0
  0
INSERT
  5
270
100
AcDbEntity
  8
8
  6
CONTINUOUS
 62
     6
100
AcDbBlockReference
  2
*G22
 10
0.0
 20
0.0
 30
0.0
  0
INSERT
  5
27B
100
AcDbEntity
  8
8
  6
CONTINUOUS
 62
     6
100
AcDbBlockReference
  2
*G23
 10
0.0
 20
0.0
 30
0.0
  0
LINE
  5
27C
100
AcDbEntity
  8
1
  6
CONTINUOUS
 62
     4
100
AcDbLine
 10
320.0
 20
320.0
 30
0.0
 11
330.347525
 21
326.528669
 31
0.0
  0
ARC
  5
27D
100
AcDbEntity
  8
1
  6
CONTINUOUS
 62
     4
100
AcDbCircle
 10
327.679492
 20
330.757333
 30
0.0
 40
5.0
100
AcDbArc
 50
-57.750529
 51
0.0
  0
LINE
  5
27E
100
AcDbEntity
  8
1
  6
CONTINUOUS
 62
     4
100
AcDbLine
 10
380.0
 20
320.0
 30
0.0
 11
369.652475
 21
326.528669
 31
0.0
  0
ARC
  5
27F
100
AcDbEntity
  8
1
  6
CONTINUOUS
 62
     4
100
AcDbCircle
 10
372.320508
 20
330.757333
 30
0.0
 40
5.0
100
AcDbArc
 50
180.0
 51
-122.249471
  0
LINE
  5
280
100
AcDbEntity
  8
1
  6
CONTINUOUS
 62
     4
100
AcDbLine
 10
332.679492
 20
330.757333
 30
0.0
 11
332.679492
 21
375.0
 31
0.0
  0
ARC
  5
281
100
AcDbEntity
  8
1
  6
CONTINUOUS
 62
     4
100
AcDbCircle
 10
337.679492
 20
375.0
 30
0.0
 40
5.0
100
AcDbArc
 50
90.0
 51
-180.0
  0
LINE
  5
282
100
AcDbEntity
  8
1
  6
CONTINUOUS
 62
     4
100
AcDbLine
 10
337.679492
 20
380.0
 30
0.0
 11
362.320508
 21
380.0
 31
0.0
  0
LINE
  5
283
100
AcDbEntity
  8
1
  6
CONTINUOUS
 62
     4
100
AcDbLine
 10
367.320508
 20
330.757333
 30
0.0
 11
367.320508
 21
375.0
 31
0.0
  0
ARC
  5
284
100
AcDbEntity
  8
1
  6
CONTINUOUS
 62
     4
100
AcDbCircle
 10
362.320508
 20
375.0
 30
0.0
 40
5.0
100
AcDbArc
 50
0.0
 51
90.0
  0
LINE
  5
285
100
AcDbEntity
  8
1
  6
CONTINUOUS
 62
     4
100
AcDbLine
 10
332.679492
 20
360.0
 30
0.0
 11
367.320508
 21
360.0
 31
0.0
  0
LINE
  5
286
100
AcDbEntity
  8
1
  6
CONTINUOUS
 62
     4
100
AcDbLine
 10
332.621804
 20
344.0
 30
0.0
 11
367.378196
 21
344.0
 31
0.0
  0
CIRCLE
  5
287
100
AcDbEntity
  8
1
  6
CONTINUOUS
 62
     4
100
AcDbCircle
 10
372.320508
 20
352.0
 30
0.0
 40
5.0
  0
INSERT
  5
291
100
AcDbEntity
  8
1
  6
CONTINUOUS
 62
     4
100
AcDbBlockReference
  2
*G24
 10
0.0
 20
0.0
 30
0.0
  0
LINE
  5
292
100
AcDbEntity
  8
1
  6
CONTINUOUS
 62
     4
100
AcDbLine
 10
371.820508
 20
356.330127
 30
0.0
 11
371.820508
 21
347.669873
 31
0.0
  0
LINE
  5
293
100
AcDbEntity
  8
1
  6
CONTINUOUS
 62
     4
100
AcDbLine
 10
372.820508
 20
356.330127
 30
0.0
 11
372.820508
 21
347.669873
 31
0.0
  0
LINE
  5
294
100
AcDbEntity
  8
1
  6
CONTINUOUS
 62
     4
100
AcDbLine
 10
372.320508
 20
357.0
 30
0.0
 11
367.320508
 21
357.0
 31
0.0
  0
LINE
  5
295
100
AcDbEntity
  8
1
  6
CONTINUOUS
 62
     4
100
AcDbLine
 10
372.320508
 20
347.0
 30
0.0
 11
367.320508
 21
347.0
 31
0.0
  0
LINE
  5
296
100
AcDbEntity
  8
1
  6
CONTINUOUS
 62
     4
100
AcDbLine
 10
274.871014
 20
448.986832
 30
0.0
 11
377.268979
 21
426.811251
 31
0.0
  0
LINE
  5
297
100
AcDbEntity
  8
1
  6
CONTINUOUS
 62
     4
100
AcDbLine
 10
321.315888
 20
458.062089
 30
0.0
 11
423.128986
 21
436.013168
 31
0.0
  0
ARC
  5
298
100
AcDbEntity
  8
1
  6
CONTINUOUS
 62
     4
100
AcDbCircle
 10
421.15
 20
426.875
 30
0.0
 40
9.35
100
AcDbArc
 50
-77.61409
 51
102.385915
  0
ARC
  5
299
100
AcDbEntity
  8
1
  6
CONTINUOUS
 62
     4
100
AcDbCircle
 10
276.85
 20
458.125
 30
0.0
 40
9.35
100
AcDbArc
 50
102.057308
 51
-77.942683
  0
LINE
  5
29A
100
AcDbEntity
  8
1
  6
CONTINUOUS
 62
     4
100
AcDbLine
 10
359.35
 20
401.036367
 30
0.0
 11
359.35
 21
380.0
 31
0.0
  0
LINE
  5
29B
100
AcDbEntity
  8
1
  6
CONTINUOUS
 62
     4
100
AcDbLine
 10
423.15553
 20
417.742621
 30
0.0
 11
361.981441
 21
404.308395
 31
0.0
  0
ARC
  5
29C
100
AcDbEntity
  8
1
  6
CONTINUOUS
 62
     4
100
AcDbCircle
 10
362.7
 20
401.036367
 30
0.0
 40
3.35
100
AcDbArc
 50
102.38591
 51
180.0
  0
LINE
  5
29D
100
AcDbEntity
  8
1
  6
CONTINUOUS
 62
     4
100
AcDbLine
 10
337.999781
 20
480.747649
 30
0.0
 11
274.896879
 21
467.268731
 31
0.0
  0
ARC
  5
29E
100
AcDbEntity
  8
1
  6
CONTINUOUS
 62
     4
100
AcDbCircle
 10
337.3
 20
484.023745
 30
0.0
 40
3.35
100
AcDbArc
 50
-77.942692
 51
0.0
  0
LINE
  5
29F
100
AcDbEntity
  8
1
  6
CONTINUOUS
 62
     4
100
AcDbLine
 10
340.65
 20
408.837331
 30
0.0
 11
340.65
 21
380.0
 31
0.0
  0
LINE
  5
2A0
100
AcDbEntity
  8
1
  6
CONTINUOUS
 62
     4
100
AcDbLine
 10
419.14447
 20
436.007379
 30
0.0
 11
350.350985
 21
420.899885
 31
0.0
  0
ARC
  5
2A1
100
AcDbEntity
  8
1
  6
CONTINUOUS
 62
     4
100
AcDbCircle
 10
353.0
 20
408.837331
 30
0.0
 40
12.35
100
AcDbArc
 50
102.38591
 51
180.0
  0
LINE
  5
2A2
100
AcDbEntity
  8
1
  6
CONTINUOUS
 62
     4
100
AcDbLine
 10
349.579791
 20
464.09932
 30
0.0
 11
278.803122
 21
448.981269
 31
0.0
  0
ARC
  5
2A3
100
AcDbEntity
  8
1
  6
CONTINUOUS
 62
     4
100
AcDbCircle
 10
347.0
 20
476.176869
 30
0.0
 40
12.35
100
AcDbArc
 50
-77.942692
 51
0.0
  0
LINE
  5
2A4
100
AcDbEntity
  8
7
  6
CENTER
 62
     4
100
AcDbLine
 10
405.15
 20
224.61257
 30
0.0
 11
405.15
 21
354.375742
 31
0.0
  0
ARC
  5
2A5
100
AcDbEntity
  8
7
  6
CONTINUOUS
 62
     4
100
AcDbCircle
 10
405.15
 20
239.875
 30
0.0
 40
9.875
100
AcDbArc
 50
-116.007824
 51
-63.992176
  0
ARC
  5
2A6
100
AcDbEntity
  8
7
  6
CONTINUOUS
 62
     4
100
AcDbCircle
 10
398.654809
 20
232.84375
 30
0.0
 40
2.84375
100
AcDbArc
 50
-139.582562
 51
-40.417438
  0
ARC
  5
2A7
100
AcDbEntity
  8
7
  6
CONTINUOUS
 62
     4
100
AcDbCircle
 10
411.645191
 20
232.84375
 30
0.0
 40
2.84375
100
AcDbArc
 50
-139.582562
 51
-40.417438
  0
INSERT
  5
2AF
100
AcDbEntity
  8
7
  6
CONTINUOUS
 62
     4
100
AcDbBlockReference
  2
*G25
 10
0.0
 20
0.0
 30
0.0
  0
INSERT
  5
2B7
100
AcDbEntity
  8
7
  6
CONTINUOUS
 62
     4
100
AcDbBlockReference
  2
*G26
 10
0.0
 20
0.0
 30
0.0
  0
LINE
  5
2B8
100
AcDbEntity
  8
7
  6
CONTINUOUS
 62
     4
100
AcDbLine
 10
396.489746
 20
231.0
 30
0.0
 11
396.489746
 21
239.0
 31
0.0
  0
LINE
  5
2B9
100
AcDbEntity
  8
7
  6
CONTINUOUS
 62
     4
100
AcDbLine
 10
400.819873
 20
231.0
 30
0.0
 11
400.819873
 21
239.0
 31
0.0
  0
LINE
  5
2BA
100
AcDbEntity
  8
7
  6
CONTINUOUS
 62
     4
100
AcDbLine
 10
409.480127
 20
231.0
 30
0.0
 11
409.480127
 21
239.0
 31
0.0
  0
LINE
  5
2BB
100
AcDbEntity
  8
7
  6
CONTINUOUS
 62
     4
100
AcDbLine
 10
413.810254
 20
231.0
 30
0.0
 11
413.810254
 21
239.0
 31
0.0
  0
LINE
  5
2BC
100
AcDbEntity
  8
7
  6
CONTINUOUS
 62
     4
100
AcDbLine
 10
394.15
 20
230.0
 30
0.0
 11
394.15
 21
241.0
 31
0.0
  0
LINE
  5
2BD
100
AcDbEntity
  8
7
  6
CONTINUOUS
 62
     4
100
AcDbLine
 10
394.15
 20
241.0
 30
0.0
 11
416.15
 21
241.0
 31
0.0
  0
LINE
  5
2BE
100
AcDbEntity
  8
7
  6
CONTINUOUS
 62
     4
100
AcDbLine
 10
416.15
 20
241.0
 30
0.0
 11
416.15
 21
230.0
 31
0.0
  0
LINE
  5
2BF
100
AcDbEntity
  8
7
  6
CONTINUOUS
 62
     4
100
AcDbLine
 10
396.489746
 20
348.0
 30
0.0
 11
396.489746
 21
340.0
 31
0.0
  0
LINE
  5
2C0
100
AcDbEntity
  8
7
  6
CONTINUOUS
 62
     4
100
AcDbLine
 10
413.810254
 20
348.0
 30
0.0
 11
413.810254
 21
340.0
 31
0.0
  0
LINE
  5
2C1
100
AcDbEntity
  8
7
  6
CONTINUOUS
 62
     4
100
AcDbLine
 10
398.654809
 20
349.0
 30
0.0
 11
411.645191
 21
349.0
 31
0.0
  0
ARC
  5
2C2
100
AcDbEntity
  8
7
  6
CONTINUOUS
 62
     4
100
AcDbCircle
 10
411.645191
 20
346.15625
 30
0.0
 40
2.84375
100
AcDbArc
 50
40.417438
 51
90.0
  0
ARC
  5
2C3
100
AcDbEntity
  8
7
  6
CONTINUOUS
 62
     4
100
AcDbCircle
 10
398.654809
 20
346.15625
 30
0.0
 40
2.84375
100
AcDbArc
 50
90.0
 51
139.582562
  0
LINE
  5
2C4
100
AcDbEntity
  8
7
  6
CONTINUOUS
 62
     4
100
AcDbLine
 10
400.15
 20
241.0
 30
0.0
 11
400.15
 21
349.0
 31
0.0
  0
LINE
  5
2C5
100
AcDbEntity
  8
7
  6
CONTINUOUS
 62
     4
100
AcDbLine
 10
410.15
 20
241.0
 30
0.0
 11
410.15
 21
349.0
 31
0.0
  0
LINE
  5
2C6
100
AcDbEntity
  8
7
  6
CONTINUOUS
 62
     4
100
AcDbLine
 10
400.65
 20
241.0
 30
0.0
 11
400.65
 21
349.0
 31
0.0
  0
LINE
  5
2C7
100
AcDbEntity
  8
7
  6
CONTINUOUS
 62
     4
100
AcDbLine
 10
409.65
 20
241.0
 30
0.0
 11
409.65
 21
349.0
 31
0.0
  0
INSERT
  5
2D2
100
AcDbEntity
  8
1
  6
CONTINUOUS
 62
     4
100
AcDbBlockReference
  2
*G27
 10
0.0
 20
0.0
 30
0.0
  0
INSERT
  5
2DC
100
AcDbEntity
  8
1
  6
CONTINUOUS
 62
     4
100
AcDbBlockReference
  2
*G28
 10
0.0
 20
0.0
 30
0.0
  0
POLYLINE
  5
2DD
100
AcDbEntity
  8
7
  6
CONTINUOUS
 62
     4
100
AcDb2dPolyline
 66
     1
 10
0.0
 20
0.0
 30
0.0
 70
     2
  0
VERTEX
  5
2DE
100
AcDbEntity
  8
7
  6
CONTINUOUS
 62
     4
100
AcDbVertex
100
AcDb2dVertex
 10
398.654809
 20
320.0
 30
0.0
  0
VERTEX
  5
2DF
100
AcDbEntity
  8
7
  6
CONTINUOUS
 62
     4
100
AcDbVertex
100
AcDb2dVertex
 10
398.63409
 20
319.637208
 30
0.0
  0
VERTEX
  5
2E0
100
AcDbEntity
  8
7
  6
CONTINUOUS
 62
     4
100
AcDbVertex
100
AcDb2dVertex
 10
398.572488
 20
318.558803
 30
0.0
  0
VERTEX
  5
2E1
100
AcDbEntity
  8
7
  6
CONTINUOUS
 62
     4
100
AcDbVertex
100
AcDb2dVertex
 10
398.471609
 20
316.794834
 30
0.0
  0
VERTEX
  5
2E2
100
AcDbEntity
  8
7
  6
CONTINUOUS
 62
     4
100
AcDbVertex
100
AcDb2dVertex
 10
398.333934
 20
314.395711
 30
0.0
  0
VERTEX
  5
2E3
100
AcDbEntity
  8
7
  6
CONTINUOUS
 62
     4
100
AcDbVertex
100
AcDb2dVertex
 10
398.162589
 20
311.4322
 30
0.0
  0
VERTEX
  5
2E4
100
AcDbEntity
  8
7
  6
CONTINUOUS
 62
     4
100
AcDbVertex
100
AcDb2dVertex
 10
397.961129
 20
307.994617
 30
0.0
  0
VERTEX
  5
2E5
100
AcDbEntity
  8
7
  6
CONTINUOUS
 62
     4
100
AcDbVertex
100
AcDb2dVertex
 10
397.733401
 20
304.190693
 30
0.0
  0
VERTEX
  5
2E6
100
AcDbEntity
  8
7
  6
CONTINUOUS
 62
     4
100
AcDbVertex
100
AcDb2dVertex
 10
397.483535
 20
300.141809
 30
0.0
  0
VERTEX
  5
2E7
100
AcDbEntity
  8
7
  6
CONTINUOUS
 62
     4
100
AcDbVertex
100
AcDb2dVertex
 10
397.216076
 20
295.977638
 30
0.0
  0
VERTEX
  5
2E8
100
AcDbEntity
  8
7
  6
CONTINUOUS
 62
     4
100
AcDbVertex
100
AcDb2dVertex
 10
396.936216
 20
291.829583
 30
0.0
  0
VERTEX
  5
2E9
100
AcDbEntity
  8
7
  6
CONTINUOUS
 62
     4
100
AcDbVertex
100
AcDb2dVertex
 10
396.650059
 20
287.823747
 30
0.0
  0
VERTEX
  5
2EA
100
AcDbEntity
  8
7
  6
CONTINUOUS
 62
     4
100
AcDbVertex
100
AcDb2dVertex
 10
396.364823
 20
284.074375
 30
0.0
  0
VERTEX
  5
2EB
100
AcDbEntity
  8
7
  6
CONTINUOUS
 62
     4
100
AcDbVertex
100
AcDb2dVertex
 10
396.088885
 20
280.678684
 30
0.0
  0
VERTEX
  5
2EC
100
AcDbEntity
  8
7
  6
CONTINUOUS
 62
     4
100
AcDbVertex
100
AcDb2dVertex
 10
395.831601
 20
277.713816
 30
0.0
  0
VERTEX
  5
2ED
100
AcDbEntity
  8
7
  6
CONTINUOUS
 62
     4
100
AcDbVertex
100
AcDb2dVertex
 10
395.602866
 20
275.236275
 30
0.0
  0
VERTEX
  5
2EE
100
AcDbEntity
  8
7
  6
CONTINUOUS
 62
     4
100
AcDbVertex
100
AcDb2dVertex
 10
395.412455
 20
273.283716
 30
0.0
  0
VERTEX
  5
2EF
100
AcDbEntity
  8
7
  6
CONTINUOUS
 62
     4
100
AcDbVertex
100
AcDb2dVertex
 10
395.269208
 20
271.878513
 30
0.0
  0
VERTEX
  5
2F0
100
AcDbEntity
  8
7
  6
CONTINUOUS
 62
     4
100
AcDbVertex
100
AcDb2dVertex
 10
395.180198
 20
271.032197
 30
0.0
  0
VERTEX
  5
2F1
100
AcDbEntity
  8
7
  6
CONTINUOUS
 62
     4
100
AcDbVertex
100
AcDb2dVertex
 10
395.15
 20
270.749667
 30
0.0
  0
VERTEX
  5
2F2
100
AcDbEntity
  8
7
  6
CONTINUOUS
 62
     4
100
AcDbVertex
100
AcDb2dVertex
 10
395.119673
 20
270.468239
 30
0.0
  0
VERTEX
  5
2F3
100
AcDbEntity
  8
7
  6
CONTINUOUS
 62
     4
100
AcDbVertex
100
AcDb2dVertex
 10
395.028779
 20
269.638133
 30
0.0
  0
VERTEX
  5
2F4
100
AcDbEntity
  8
7
  6
CONTINUOUS
 62
     4
100
AcDbVertex
100
AcDb2dVertex
 10
394.87784
 20
268.300773
 30
0.0
  0
VERTEX
  5
2F5
100
AcDbEntity
  8
7
  6
CONTINUOUS
 62
     4
100
AcDbVertex
100
AcDb2dVertex
 10
394.668484
 20
266.521585
 30
0.0
  0
VERTEX
  5
2F6
100
AcDbEntity
  8
7
  6
CONTINUOUS
 62
     4
100
AcDbVertex
100
AcDb2dVertex
 10
394.404348
 20
264.384974
 30
0.0
  0
VERTEX
  5
2F7
100
AcDbEntity
  8
7
  6
CONTINUOUS
 62
     4
100
AcDbVertex
100
AcDb2dVertex
 10
394.091905
 20
261.988027
 30
0.0
  0
VERTEX
  5
2F8
100
AcDbEntity
  8
7
  6
CONTINUOUS
 62
     4
100
AcDbVertex
100
AcDb2dVertex
 10
393.740926
 20
259.433573
 30
0.0
  0
VERTEX
  5
2F9
100
AcDbEntity
  8
7
  6
CONTINUOUS
 62
     4
100
AcDbVertex
100
AcDb2dVertex
 10
393.364363
 20
256.823277
 30
0.0
  0
VERTEX
  5
2FA
100
AcDbEntity
  8
7
  6
CONTINUOUS
 62
     4
100
AcDbVertex
100
AcDb2dVertex
 10
392.977576
 20
254.251409
 30
0.0
  0
VERTEX
  5
2FB
100
AcDbEntity
  8
7
  6
CONTINUOUS
 62
     4
100
AcDbVertex
100
AcDb2dVertex
 10
392.596966
 20
251.799834
 30
0.0
  0
VERTEX
  5
2FC
100
AcDbEntity
  8
7
  6
CONTINUOUS
 62
     4
100
AcDbVertex
100
AcDb2dVertex
 10
392.238274
 20
249.534603
 30
0.0
  0
VERTEX
  5
2FD
100
AcDbEntity
  8
7
  6
CONTINUOUS
 62
     4
100
AcDbVertex
100
AcDb2dVertex
 10
391.91486
 20
247.504351
 30
0.0
  0
VERTEX
  5
2FE
100
AcDbEntity
  8
7
  6
CONTINUOUS
 62
     4
100
AcDbVertex
100
AcDb2dVertex
 10
391.636322
 20
245.740491
 30
0.0
  0
VERTEX
  5
2FF
100
AcDbEntity
  8
7
  6
CONTINUOUS
 62
     4
100
AcDbVertex
100
AcDb2dVertex
 10
391.407762
 20
244.259016
 30
0.0
  0
VERTEX
  5
300
100
AcDbEntity
  8
7
  6
CONTINUOUS
 62
     4
100
AcDbVertex
100
AcDb2dVertex
 10
391.229862
 20
243.063549
 30
0.0
  0
VERTEX
  5
301
100
AcDbEntity
  8
7
  6
CONTINUOUS
 62
     4
100
AcDbVertex
100
AcDb2dVertex
 10
391.099748
 20
242.14919
 30
0.0
  0
VERTEX
  5
302
100
AcDbEntity
  8
7
  6
CONTINUOUS
 62
     4
100
AcDbVertex
100
AcDb2dVertex
 10
391.012472
 20
241.506626
 30
0.0
  0
VERTEX
  5
303
100
AcDbEntity
  8
7
  6
CONTINUOUS
 62
     4
100
AcDbVertex
100
AcDb2dVertex
 10
390.962763
 20
241.12599
 30
0.0
  0
VERTEX
  5
304
100
AcDbEntity
  8
7
  6
CONTINUOUS
 62
     4
100
AcDbVertex
100
AcDb2dVertex
 10
390.946678
 20
241.0
 30
0.0
  0
VERTEX
  5
305
100
AcDbEntity
  8
7
  6
CONTINUOUS
 62
     4
100
AcDbVertex
100
AcDb2dVertex
 10
390.930918
 20
240.875041
 30
0.0
  0
VERTEX
  5
306
100
AcDbEntity
  8
7
  6
CONTINUOUS
 62
     4
100
AcDbVertex
100
AcDb2dVertex
 10
390.885969
 20
240.509599
 30
0.0
  0
VERTEX
  5
307
100
AcDbEntity
  8
7
  6
CONTINUOUS
 62
     4
100
AcDbVertex
100
AcDb2dVertex
 10
390.818433
 20
239.930675
 30
0.0
  0
VERTEX
  5
308
100
AcDbEntity
  8
7
  6
CONTINUOUS
 62
     4
100
AcDbVertex
100
AcDb2dVertex
 10
390.738071
 20
239.179162
 30
0.0
  0
VERTEX
  5
309
100
AcDbEntity
  8
7
  6
CONTINUOUS
 62
     4
100
AcDbVertex
100
AcDb2dVertex
 10
390.656204
 20
238.304487
 30
0.0
  0
VERTEX
  5
30A
100
AcDbEntity
  8
7
  6
CONTINUOUS
 62
     4
100
AcDbVertex
100
AcDb2dVertex
 10
390.58391
 20
237.358541
 30
0.0
  0
VERTEX
  5
30B
100
AcDbEntity
  8
7
  6
CONTINUOUS
 62
     4
100
AcDbVertex
100
AcDb2dVertex
 10
390.530364
 20
236.389952
 30
0.0
  0
VERTEX
  5
30C
100
AcDbEntity
  8
7
  6
CONTINUOUS
 62
     4
100
AcDbVertex
100
AcDb2dVertex
 10
390.5016
 20
235.439641
 30
0.0
  0
VERTEX
  5
30D
100
AcDbEntity
  8
7
  6
CONTINUOUS
 62
     4
100
AcDbVertex
100
AcDb2dVertex
 10
390.499899
 20
234.538267
 30
0.0
  0
VERTEX
  5
30E
100
AcDbEntity
  8
7
  6
CONTINUOUS
 62
     4
100
AcDbVertex
100
AcDb2dVertex
 10
390.523837
 20
233.705756
 30
0.0
  0
VERTEX
  5
30F
100
AcDbEntity
  8
7
  6
CONTINUOUS
 62
     4
100
AcDbVertex
100
AcDb2dVertex
 10
390.568931
 20
232.952683
 30
0.0
  0
VERTEX
  5
310
100
AcDbEntity
  8
7
  6
CONTINUOUS
 62
     4
100
AcDbVertex
100
AcDb2dVertex
 10
390.628686
 20
232.282903
 30
0.0
  0
VERTEX
  5
311
100
AcDbEntity
  8
7
  6
CONTINUOUS
 62
     4
100
AcDbVertex
100
AcDb2dVertex
 10
390.69579
 20
231.696676
 30
0.0
  0
VERTEX
  5
312
100
AcDbEntity
  8
7
  6
CONTINUOUS
 62
     4
100
AcDbVertex
100
AcDb2dVertex
 10
390.763203
 20
231.193488
 30
0.0
  0
VERTEX
  5
313
100
AcDbEntity
  8
7
  6
CONTINUOUS
 62
     4
100
AcDbVertex
100
AcDb2dVertex
 10
390.824961
 20
230.773987
 30
0.0
  0
VERTEX
  5
314
100
AcDbEntity
  8
7
  6
CONTINUOUS
 62
     4
100
AcDbVertex
100
AcDb2dVertex
 10
390.876579
 20
230.440739
 30
0.0
  0
VERTEX
  5
315
100
AcDbEntity
  8
7
  6
CONTINUOUS
 62
     4
100
AcDbVertex
100
AcDb2dVertex
 10
390.915073
 20
230.197844
 30
0.0
  0
VERTEX
  5
316
100
AcDbEntity
  8
7
  6
CONTINUOUS
 62
     4
100
AcDbVertex
100
AcDb2dVertex
 10
390.938717
 20
230.049783
 30
0.0
  0
VERTEX
  5
317
100
AcDbEntity
  8
7
  6
CONTINUOUS
 62
     4
100
AcDbVertex
100
AcDb2dVertex
 10
390.946678
 20
230.0
 30
0.0
  0
SEQEND
  5
318
100
AcDbEntity
  8
7
  6
CONTINUOUS
 62
     4
  0
POLYLINE
  5
319
100
AcDbEntity
  8
7
  6
CONTINUOUS
 62
     4
100
AcDb2dPolyline
 66
     1
 10
0.0
 20
0.0
 30
0.0
 70
     2
  0
VERTEX
  5
31A
100
AcDbEntity
  8
7
  6
CONTINUOUS
 62
     4
100
AcDbVertex
100
AcDb2dVertex
 10
411.645191
 20
320.0
 30
0.0
  0
VERTEX
  5
31B
100
AcDbEntity
  8
7
  6
CONTINUOUS
 62
     4
100
AcDbVertex
100
AcDb2dVertex
 10
411.66591
 20
319.637208
 30
0.0
  0
VERTEX
  5
31C
100
AcDbEntity
  8
7
  6
CONTINUOUS
 62
     4
100
AcDbVertex
100
AcDb2dVertex
 10
411.727512
 20
318.558803
 30
0.0
  0
VERTEX
  5
31D
100
AcDbEntity
  8
7
  6
CONTINUOUS
 62
     4
100
AcDbVertex
100
AcDb2dVertex
 10
411.828391
 20
316.794834
 30
0.0
  0
VERTEX
  5
31E
100
AcDbEntity
  8
7
  6
CONTINUOUS
 62
     4
100
AcDbVertex
100
AcDb2dVertex
 10
411.966066
 20
314.395711
 30
0.0
  0
VERTEX
  5
31F
100
AcDbEntity
  8
7
  6
CONTINUOUS
 62
     4
100
AcDbVertex
100
AcDb2dVertex
 10
412.137411
 20
311.4322
 30
0.0
  0
VERTEX
  5
320
100
AcDbEntity
  8
7
  6
CONTINUOUS
 62
     4
100
AcDbVertex
100
AcDb2dVertex
 10
412.338871
 20
307.994617
 30
0.0
  0
VERTEX
  5
321
100
AcDbEntity
  8
7
  6
CONTINUOUS
 62
     4
100
AcDbVertex
100
AcDb2dVertex
 10
412.566599
 20
304.190693
 30
0.0
  0
VERTEX
  5
322
100
AcDbEntity
  8
7
  6
CONTINUOUS
 62
     4
100
AcDbVertex
100
AcDb2dVertex
 10
412.816465
 20
300.141809
 30
0.0
  0
VERTEX
  5
323
100
AcDbEntity
  8
7
  6
CONTINUOUS
 62
     4
100
AcDbVertex
100
AcDb2dVertex
 10
413.083924
 20
295.977638
 30
0.0
  0
VERTEX
  5
324
100
AcDbEntity
  8
7
  6
CONTINUOUS
 62
     4
100
AcDbVertex
100
AcDb2dVertex
 10
413.363784
 20
291.829583
 30
0.0
  0
VERTEX
  5
325
100
AcDbEntity
  8
7
  6
CONTINUOUS
 62
     4
100
AcDbVertex
100
AcDb2dVertex
 10
413.649941
 20
287.823747
 30
0.0
  0
VERTEX
  5
326
100
AcDbEntity
  8
7
  6
CONTINUOUS
 62
     4
100
AcDbVertex
100
AcDb2dVertex
 10
413.935177
 20
284.074375
 30
0.0
  0
VERTEX
  5
327
100
AcDbEntity
  8
7
  6
CONTINUOUS
 62
     4
100
AcDbVertex
100
AcDb2dVertex
 10
414.211115
 20
280.678684
 30
0.0
  0
VERTEX
  5
328
100
AcDbEntity
  8
7
  6
CONTINUOUS
 62
     4
100
AcDbVertex
100
AcDb2dVertex
 10
414.468399
 20
277.713816
 30
0.0
  0
VERTEX
  5
329
100
AcDbEntity
  8
7
  6
CONTINUOUS
 62
     4
100
AcDbVertex
100
AcDb2dVertex
 10
414.697134
 20
275.236275
 30
0.0
  0
VERTEX
  5
32A
100
AcDbEntity
  8
7
  6
CONTINUOUS
 62
     4
100
AcDbVertex
100
AcDb2dVertex
 10
414.887545
 20
273.283716
 30
0.0
  0
VERTEX
  5
32B
100
AcDbEntity
  8
7
  6
CONTINUOUS
 62
     4
100
AcDbVertex
100
AcDb2dVertex
 10
415.030792
 20
271.878513
 30
0.0
  0
VERTEX
  5
32C
100
AcDbEntity
  8
7
  6
CONTINUOUS
 62
     4
100
AcDbVertex
100
AcDb2dVertex
 10
415.119802
 20
271.032197
 30
0.0
  0
VERTEX
  5
32D
100
AcDbEntity
  8
7
  6
CONTINUOUS
 62
     4
100
AcDbVertex
100
AcDb2dVertex
 10
415.15
 20
270.749667
 30
0.0
  0
VERTEX
  5
32E
100
AcDbEntity
  8
7
  6
CONTINUOUS
 62
     4
100
AcDbVertex
100
AcDb2dVertex
 10
415.180327
 20
270.468239
 30
0.0
  0
VERTEX
  5
32F
100
AcDbEntity
  8
7
  6
CONTINUOUS
 62
     4
100
AcDbVertex
100
AcDb2dVertex
 10
415.271221
 20
269.638133
 30
0.0
  0
VERTEX
  5
330
100
AcDbEntity
  8
7
  6
CONTINUOUS
 62
     4
100
AcDbVertex
100
AcDb2dVertex
 10
415.42216
 20
268.300773
 30
0.0
  0
VERTEX
  5
331
100
AcDbEntity
  8
7
  6
CONTINUOUS
 62
     4
100
AcDbVertex
100
AcDb2dVertex
 10
415.631516
 20
266.521585
 30
0.0
  0
VERTEX
  5
332
100
AcDbEntity
  8
7
  6
CONTINUOUS
 62
     4
100
AcDbVertex
100
AcDb2dVertex
 10
415.895652
 20
264.384974
 30
0.0
  0
VERTEX
  5
333
100
AcDbEntity
  8
7
  6
CONTINUOUS
 62
     4
100
AcDbVertex
100
AcDb2dVertex
 10
416.208095
 20
261.988027
 30
0.0
  0
VERTEX
  5
334
100
AcDbEntity
  8
7
  6
CONTINUOUS
 62
     4
100
AcDbVertex
100
AcDb2dVertex
 10
416.559074
 20
259.433573
 30
0.0
  0
VERTEX
  5
335
100
AcDbEntity
  8
7
  6
CONTINUOUS
 62
     4
100
AcDbVertex
100
AcDb2dVertex
 10
416.935637
 20
256.823277
 30
0.0
  0
VERTEX
  5
336
100
AcDbEntity
  8
7
  6
CONTINUOUS
 62
     4
100
AcDbVertex
100
AcDb2dVertex
 10
417.322424
 20
254.251409
 30
0.0
  0
VERTEX
  5
337
100
AcDbEntity
  8
7
  6
CONTINUOUS
 62
     4
100
AcDbVertex
100
AcDb2dVertex
 10
417.703034
 20
251.799834
 30
0.0
  0
VERTEX
  5
338
100
AcDbEntity
  8
7
  6
CONTINUOUS
 62
     4
100
AcDbVertex
100
AcDb2dVertex
 10
418.061726
 20
249.534603
 30
0.0
  0
VERTEX
  5
339
100
AcDbEntity
  8
7
  6
CONTINUOUS
 62
     4
100
AcDbVertex
100
AcDb2dVertex
 10
418.38514
 20
247.504351
 30
0.0
  0
VERTEX
  5
33A
100
AcDbEntity
  8
7
  6
CONTINUOUS
 62
     4
100
AcDbVertex
100
AcDb2dVertex
 10
418.663678
 20
245.740491
 30
0.0
  0
VERTEX
  5
33B
100
AcDbEntity
  8
7
  6
CONTINUOUS
 62
     4
100
AcDbVertex
100
AcDb2dVertex
 10
418.892238
 20
244.259016
 30
0.0
  0
VERTEX
  5
33C
100
AcDbEntity
  8
7
  6
CONTINUOUS
 62
     4
100
AcDbVertex
100
AcDb2dVertex
 10
419.070138
 20
243.063549
 30
0.0
  0
VERTEX
  5
33D
100
AcDbEntity
  8
7
  6
CONTINUOUS
 62
     4
100
AcDbVertex
100
AcDb2dVertex
 10
419.200252
 20
242.14919
 30
0.0
  0
VERTEX
  5
33E
100
AcDbEntity
  8
7
  6
CONTINUOUS
 62
     4
100
AcDbVertex
100
AcDb2dVertex
 10
419.287528
 20
241.506626
 30
0.0
  0
VERTEX
  5
33F
100
AcDbEntity
  8
7
  6
CONTINUOUS
 62
     4
100
AcDbVertex
100
AcDb2dVertex
 10
419.337237
 20
241.12599
 30
0.0
  0
VERTEX
  5
340
100
AcDbEntity
  8
7
  6
CONTINUOUS
 62
     4
100
AcDbVertex
100
AcDb2dVertex
 10
419.353322
 20
241.0
 30
0.0
  0
VERTEX
  5
341
100
AcDbEntity
  8
7
  6
CONTINUOUS
 62
     4
100
AcDbVertex
100
AcDb2dVertex
 10
419.369082
 20
240.875041
 30
0.0
  0
VERTEX
  5
342
100
AcDbEntity
  8
7
  6
CONTINUOUS
 62
     4
100
AcDbVertex
100
AcDb2dVertex
 10
419.414031
 20
240.509599
 30
0.0
  0
VERTEX
  5
343
100
AcDbEntity
  8
7
  6
CONTINUOUS
 62
     4
100
AcDbVertex
100
AcDb2dVertex
 10
419.481567
 20
239.930675
 30
0.0
  0
VERTEX
  5
344
100
AcDbEntity
  8
7
  6
CONTINUOUS
 62
     4
100
AcDbVertex
100
AcDb2dVertex
 10
419.561929
 20
239.179162
 30
0.0
  0
VERTEX
  5
345
100
AcDbEntity
  8
7
  6
CONTINUOUS
 62
     4
100
AcDbVertex
100
AcDb2dVertex
 10
419.643796
 20
238.304487
 30
0.0
  0
VERTEX
  5
346
100
AcDbEntity
  8
7
  6
CONTINUOUS
 62
     4
100
AcDbVertex
100
AcDb2dVertex
 10
419.71609
 20
237.358541
 30
0.0
  0
VERTEX
  5
347
100
AcDbEntity
  8
7
  6
CONTINUOUS
 62
     4
100
AcDbVertex
100
AcDb2dVertex
 10
419.769636
 20
236.389952
 30
0.0
  0
VERTEX
  5
348
100
AcDbEntity
  8
7
  6
CONTINUOUS
 62
     4
100
AcDbVertex
100
AcDb2dVertex
 10
419.7984
 20
235.439641
 30
0.0
  0
VERTEX
  5
349
100
AcDbEntity
  8
7
  6
CONTINUOUS
 62
     4
100
AcDbVertex
100
AcDb2dVertex
 10
419.800101
 20
234.538267
 30
0.0
  0
VERTEX
  5
34A
100
AcDbEntity
  8
7
  6
CONTINUOUS
 62
     4
100
AcDbVertex
100
AcDb2dVertex
 10
419.776163
 20
233.705756
 30
0.0
  0
VERTEX
  5
34B
100
AcDbEntity
  8
7
  6
CONTINUOUS
 62
     4
100
AcDbVertex
100
AcDb2dVertex
 10
419.731069
 20
232.952683
 30
0.0
  0
VERTEX
  5
34C
100
AcDbEntity
  8
7
  6
CONTINUOUS
 62
     4
100
AcDbVertex
100
AcDb2dVertex
 10
419.671314
 20
232.282903
 30
0.0
  0
VERTEX
  5
34D
100
AcDbEntity
  8
7
  6
CONTINUOUS
 62
     4
100
AcDbVertex
100
AcDb2dVertex
 10
419.60421
 20
231.696676
 30
0.0
  0
VERTEX
  5
34E
100
AcDbEntity
  8
7
  6
CONTINUOUS
 62
     4
100
AcDbVertex
100
AcDb2dVertex
 10
419.536797
 20
231.193488
 30
0.0
  0
VERTEX
  5
34F
100
AcDbEntity
  8
7
  6
CONTINUOUS
 62
     4
100
AcDbVertex
100
AcDb2dVertex
 10
419.475039
 20
230.773987
 30
0.0
  0
VERTEX
  5
350
100
AcDbEntity
  8
7
  6
CONTINUOUS
 62
     4
100
AcDbVertex
100
AcDb2dVertex
 10
419.423421
 20
230.440739
 30
0.0
  0
VERTEX
  5
351
100
AcDbEntity
  8
7
  6
CONTINUOUS
 62
     4
100
AcDbVertex
100
AcDb2dVertex
 10
419.384927
 20
230.197844
 30
0.0
  0
VERTEX
  5
352
100
AcDbEntity
  8
7
  6
CONTINUOUS
 62
     4
100
AcDbVertex
100
AcDb2dVertex
 10
419.361283
 20
230.049783
 30
0.0
  0
VERTEX
  5
353
100
AcDbEntity
  8
7
  6
CONTINUOUS
 62
     4
100
AcDbVertex
100
AcDb2dVertex
 10
419.353322
 20
230.0
 30
0.0
  0
SEQEND
  5
354
100
AcDbEntity
  8
7
  6
CONTINUOUS
 62
     4
  0
INSERT
  5
371
100
AcDbEntity
  8
8
  6
CONTINUOUS
 62
     6
100
AcDbBlockReference
  2
*G29
 10
0.0
 20
0.0
 30
0.0
  0
INSERT
  5
391
100
AcDbEntity
  8
8
  6
CONTINUOUS
 62
     6
100
AcDbBlockReference
  2
*G30
 10
0.0
 20
0.0
 30
0.0
  0
ARC
  5
392
100
AcDbEntity
  8
1
  6
CONTINUOUS
 62
     4
100
AcDbCircle
 10
182.946996
 20
247.992489
 30
0.0
 40
6.096996
100
AcDbArc
 50
100.365335
 51
-100.365335
  0
ARC
  5
393
100
AcDbEntity
  8
1
  6
CONTINUOUS
 62
     4
100
AcDbCircle
 10
180.753004
 20
235.997496
 30
0.0
 40
6.096996
100
AcDbArc
 50
-79.634665
 51
79.634665
  0
ARC
  5
394
100
AcDbEntity
  8
1
  6
CONTINUOUS
 62
     4
100
AcDbCircle
 10
519.246996
 20
247.992489
 30
0.0
 40
6.096996
100
AcDbArc
 50
100.365335
 51
-100.365335
  0
ARC
  5
395
100
AcDbEntity
  8
1
  6
CONTINUOUS
 62
     4
100
AcDbCircle
 10
517.053004
 20
235.997496
 30
0.0
 40
6.096996
100
AcDbArc
 50
-79.634665
 51
79.634665
  0
CIRCLE
  5
396
100
AcDbEntity
  8
1
  6
CONTINUOUS
 62
     4
100
AcDbCircle
 10
486.778094
 20
400.0
 30
0.0
 40
15.0
  0
LINE
  5
397
100
AcDbEntity
  8
1
  6
CONTINUOUS
 62
     4
100
AcDbLine
 10
446.15
 20
360.0
 30
0.0
 11
451.21731
 21
368.621042
 31
0.0
  0
LINE
  5
398
100
AcDbEntity
  8
1
  6
CONTINUOUS
 62
     4
100
AcDbLine
 10
446.15
 20
360.0
 30
0.0
 11
454.84894
 21
364.932387
 31
0.0
  0
POLYLINE
  5
399
100
AcDbEntity
  8
1
  6
CONTINUOUS
 62
     4
100
AcDb2dPolyline
 66
     1
 10
0.0
 20
0.0
 30
0.0
  0
VERTEX
  5
39A
100
AcDbEntity
  8
1
  6
CONTINUOUS
 62
     4
100
AcDbVertex
100
AcDb2dVertex
 10
446.15
 20
360.0
 30
0.0
  0
VERTEX
  5
39B
100
AcDbEntity
  8
1
  6
CONTINUOUS
 62
     4
100
AcDbVertex
100
AcDb2dVertex
 10
476.089191
 20
389.476343
 30
0.0
  0
SEQEND
  5
39C
100
AcDbEntity
  8
1
  6
CONTINUOUS
 62
     4
  0
TEXT
  5
39D
100
AcDbEntity
  8
1
  6
CONTINUOUS
 62
     4
100
AcDbText
 10
483.028094
 20
392.5
 30
0.0
 40
15.0
  1
2
 41
0.5
 11
483.028094
 21
392.5
 31
0.0
100
AcDbText
 73
     1
  0
CIRCLE
  5
39E
100
AcDbEntity
  8
1
  6
CONTINUOUS
 62
     4
100
AcDbCircle
 10
433.15
 20
145.319295
 30
0.0
 40
15.0
  0
LINE
  5
39F
100
AcDbEntity
  8
1
  6
CONTINUOUS
 62
     4
100
AcDbLine
 10
406.489746
 20
230.0
 30
0.0
 11
411.859165
 21
221.563808
 31
0.0
  0
LINE
  5
3A0
100
AcDbEntity
  8
1
  6
CONTINUOUS
 62
     4
100
AcDbLine
 10
406.489746
 20
230.0
 30
0.0
 11
406.921704
 21
220.009334
 31
0.0
  0
POLYLINE
  5
3A1
100
AcDbEntity
  8
1
  6
CONTINUOUS
 62
     4
100
AcDb2dPolyline
 66
     1
 10
0.0
 20
0.0
 30
0.0
  0
VERTEX
  5
3A2
100
AcDbEntity
  8
1
  6
CONTINUOUS
 62
     4
100
AcDbVertex
100
AcDb2dVertex
 10
406.489746
 20
230.0
 30
0.0
  0
VERTEX
  5
3A3
100
AcDbEntity
  8
1
  6
CONTINUOUS
 62
     4
100
AcDbVertex
100
AcDb2dVertex
 10
428.645479
 20
159.62696
 30
0.0
  0
SEQEND
  5
3A4
100
AcDbEntity
  8
1
  6
CONTINUOUS
 62
     4
  0
TEXT
  5
3A5
100
AcDbEntity
  8
1
  6
CONTINUOUS
 62
     4
100
AcDbText
 10
429.4
 20
137.819295
 30
0.0
 40
15.0
  1
6
 41
0.5
 11
429.4
 21
137.819295
 31
0.0
100
AcDbText
 73
     1
  0
CIRCLE
  5
3A6
100
AcDbEntity
  8
1
  6
CONTINUOUS
 62
     4
100
AcDbCircle
 10
463.15
 20
145.319295
 30
0.0
 40
15.0
  0
CIRCLE
  5
3A7
100
AcDbEntity
  8
1
  6
CONTINUOUS
 62
     4
100
AcDbCircle
 10
493.15
 20
145.319295
 30
0.0
 40
15.0
  0
TEXT
  5
3A8
100
AcDbEntity
  8
1
  6
CONTINUOUS
 62
     4
100
AcDbText
 10
459.4
 20
137.819295
 30
0.0
 40
15.0
  1
7
 41
0.5
 11
459.4
 21
137.819295
 31
0.0
100
AcDbText
 73
     1
  0
TEXT
  5
3A9
100
AcDbEntity
  8
1
  6
CONTINUOUS
 62
     4
100
AcDbText
 10
489.4
 20
137.819295
 30
0.0
 40
15.0
  1
8
 41
0.5
 11
489.4
 21
137.819295
 31
0.0
100
AcDbText
 73
     1
  0
LINE
  5
3AA
100
AcDbEntity
  8
1
  6
CONTINUOUS
 62
     4
100
AcDbLine
 10
204.546405
 20
230.0
 30
0.0
 11
198.071743
 21
222.379058
 31
0.0
  0
LINE
  5
3AB
100
AcDbEntity
  8
1
  6
CONTINUOUS
 62
     4
100
AcDbLine
 10
204.546405
 20
230.0
 30
0.0
 11
195.128712
 21
226.637401
 31
0.0
  0
POLYLINE
  5
3AC
100
AcDbEntity
  8
1
  6
CONTINUOUS
 62
     4
100
AcDb2dPolyline
 66
     1
 10
0.0
 20
0.0
 30
0.0
  0
VERTEX
  5
3AD
100
AcDbEntity
  8
1
  6
CONTINUOUS
 62
     4
100
AcDbVertex
100
AcDb2dVertex
 10
204.546405
 20
230.0
 30
0.0
  0
VERTEX
  5
3AE
100
AcDbEntity
  8
1
  6
CONTINUOUS
 62
     4
100
AcDbVertex
100
AcDb2dVertex
 10
161.13867
 20
200.0
 30
0.0
  0
VERTEX
  5
3AF
100
AcDbEntity
  8
1
  6
CONTINUOUS
 62
     4
100
AcDbVertex
100
AcDb2dVertex
 10
86.13867
 20
200.0
 30
0.0
  0
SEQEND
  5
3B0
100
AcDbEntity
  8
1
  6
CONTINUOUS
 62
     4
  0
TEXT
  5
3B1
100
AcDbEntity
  8
1
  6
CONTINUOUS
 62
     4
100
AcDbText
 10
86.13867
 20
200.0
 30
0.0
 40
15.0
  1
HULL PLATE
 41
0.520833
 11
86.13867
 21
200.0
 31
0.0
100
AcDbText
 73
     1
  0
CIRCLE
  5
3B2
100
AcDbEntity
  8
1
  6
CONTINUOUS
 62
     4
100
AcDbCircle
 10
201.85
 20
184.884424
 30
0.0
 40
15.0
  0
LINE
  5
3B3
100
AcDbEntity
  8
1
  6
CONTINUOUS
 62
     4
100
AcDbLine
 10
293.646617
 20
230.0
 30
0.0
 11
286.11935
 21
223.416668
 31
0.0
  0
LINE
  5
3B4
100
AcDbEntity
  8
1
  6
CONTINUOUS
 62
     4
100
AcDbLine
 10
293.646617
 20
230.0
 30
0.0
 11
283.836147
 21
228.0623
 31
0.0
  0
POLYLINE
  5
3B5
100
AcDbEntity
  8
1
  6
CONTINUOUS
 62
     4
100
AcDb2dPolyline
 66
     1
 10
0.0
 20
0.0
 30
0.0
  0
VERTEX
  5
3B6
100
AcDbEntity
  8
1
  6
CONTINUOUS
 62
     4
100
AcDbVertex
100
AcDb2dVertex
 10
293.646617
 20
230.0
 30
0.0
  0
VERTEX
  5
3B7
100
AcDbEntity
  8
1
  6
CONTINUOUS
 62
     4
100
AcDbVertex
100
AcDb2dVertex
 10
215.312009
 20
191.50064
 30
0.0
  0
SEQEND
  5
3B8
100
AcDbEntity
  8
1
  6
CONTINUOUS
 62
     4
  0
TEXT
  5
3B9
100
AcDbEntity
  8
1
  6
CONTINUOUS
 62
     4
100
AcDbText
 10
198.1
 20
177.384424
 30
0.0
 40
15.0
  1
1
 41
0.5
 11
198.1
 21
177.384424
 31
0.0
100
AcDbText
 73
     1
  0
LINE
  5
3BA
100
AcDbEntity
  8
1
  6
CONTINUOUS
 62
     4
100
AcDbLine
 10
463.184159
 20
230.0
 30
0.0
 11
470.734513
 21
223.443159
 31
0.0
  0
LINE
  5
3BB
100
AcDbEntity
  8
1
  6
CONTINUOUS
 62
     4
100
AcDbLine
 10
463.184159
 20
230.0
 30
0.0
 11
466.444537
 21
220.546432
 31
0.0
  0
POLYLINE
  5
3BC
100
AcDbEntity
  8
1
  6
CONTINUOUS
 62
     4
100
AcDb2dPolyline
 66
     1
 10
0.0
 20
0.0
 30
0.0
  0
VERTEX
  5
3BD
100
AcDbEntity
  8
1
  6
CONTINUOUS
 62
     4
100
AcDbVertex
100
AcDb2dVertex
 10
463.184159
 20
230.0
 30
0.0
  0
VERTEX
  5
3BE
100
AcDbEntity
  8
1
  6
CONTINUOUS
 62
     4
100
AcDbVertex
100
AcDb2dVertex
 10
483.441102
 20
200.0
 30
0.0
  0
VERTEX
  5
3BF
100
AcDbEntity
  8
1
  6
CONTINUOUS
 62
     4
100
AcDbVertex
100
AcDb2dVertex
 10
633.441102
 20
200.0
 30
0.0
  0
SEQEND
  5
3C0
100
AcDbEntity
  8
1
  6
CONTINUOUS
 62
     4
  0
TEXT
  5
3C1
100
AcDbEntity
  8
1
  6
CONTINUOUS
 62
     4
100
AcDbText
 10
483.441102
 20
200.0
 30
0.0
 40
15.0
  1
開先寸法は造船所一任
 41
0.833333
 11
483.441102
 21
200.0
 31
0.0
100
AcDbText
 73
     1
  0
TEXT
  5
3C2
100
AcDbEntity
  8
1
  6
CONTINUOUS
 62
     4
100
AcDbText
 10
86.13867
 20
215.0
 30
0.0
 40
15.0
  1
船底板
 41
0.833333
 11
86.13867
 21
215.0
 31
0.0
100
AcDbText
 73
     1
  0
TEXT
  5
3C3
100
AcDbEntity
  8
1
  6
CONTINUOUS
 62
     4
100
AcDbText
 10
484.888027
 20
177.363841
 30
0.0
 40
15.0
  1
SOLDERING DIMMENSIONS
 41
0.509709
 11
484.888027
 21
177.363841
 31
0.0
100
AcDbText
 73
     1
  0
TEXT
  5
3C4
100
AcDbEntity
  8
1
  6
CONTINUOUS
 62
     4
100
AcDbText
 10
484.888027
 20
162.363841
 30
0.0
 40
15.0
  1
DECIDED BY SHIPYARD.
 41
0.531915
 11
484.888027
 21
162.363841
 31
0.0
100
AcDbText
 73
     1
  0
INSERT
  5
3CE
100
AcDbEntity
  8
1
  6
CONTINUOUS
 62
     4
100
AcDbBlockReference
  2
*G31
 10
0.0
 20
0.0
 30
0.0
  0
CIRCLE
  5
3CF
100
AcDbEntity
  8
1
  6
CONTINUOUS
 62
     4
100
AcDbCircle
 10
268.85
 20
552.5
 30
0.0
 40
7.5
  0
INSERT
  5
3D9
100
AcDbEntity
  8
1
  6
CONTINUOUS
 62
     4
100
AcDbBlockReference
  2
*G32
 10
0.0
 20
0.0
 30
0.0
  0
CIRCLE
  5
3DA
100
AcDbEntity
  8
1
  6
CONTINUOUS
 62
     4
100
AcDbCircle
 10
431.15
 20
552.5
 30
0.0
 40
7.5
  0
LINE
  5
3DB
100
AcDbEntity
  8
1
  6
CONTINUOUS
 62
     4
100
AcDbLine
 10
435.977579
 20
558.239728
 30
0.0
 11
436.877899
 21
568.199117
 31
0.0
  0
LINE
  5
3DC
100
AcDbEntity
  8
1
  6
CONTINUOUS
 62
     4
100
AcDbLine
 10
435.977579
 20
558.239728
 30
0.0
 11
441.736974
 21
566.414652
 31
0.0
  0
POLYLINE
  5
3DD
100
AcDbEntity
  8
1
  6
CONTINUOUS
 62
     4
100
AcDb2dPolyline
 66
     1
 10
0.0
 20
0.0
 30
0.0
  0
VERTEX
  5
3DE
100
AcDbEntity
  8
1
  6
CONTINUOUS
 62
     4
100
AcDbVertex
100
AcDb2dVertex
 10
435.977579
 20
558.239728
 30
0.0
  0
VERTEX
  5
3DF
100
AcDbEntity
  8
1
  6
CONTINUOUS
 62
     4
100
AcDbVertex
100
AcDb2dVertex
 10
453.15
 20
605.0
 30
0.0
  0
VERTEX
  5
3E0
100
AcDbEntity
  8
1
  6
CONTINUOUS
 62
     4
100
AcDbVertex
100
AcDb2dVertex
 10
498.15
 20
605.0
 30
0.0
  0
SEQEND
  5
3E1
100
AcDbEntity
  8
1
  6
CONTINUOUS
 62
     4
  0
TEXT
  5
3E2
100
AcDbEntity
  8
1
  6
CONTINUOUS
 62
     4
100
AcDbText
 10
453.15
 20
605.0
 30
0.0
 40
15.0
  1
2-%%c15
 41
0.6
 11
453.15
 21
605.0
 31
0.0
100
AcDbText
 73
     1
  0
DIMENSION
  5
3EE
100
AcDbEntity
  8
1
  6
CONTINUOUS
 62
     4
100
AcDbDimension
  2
*D33
 10
528.15
 20
530.0
 30
0.0
 11
520.65
 21
550.0
 31
0.0
  1
(40)
100
AcDbAlignedDimension
 13
458.15
 23
530.0
 33
0.0
 14
451.15
 24
570.0
 34
0.0
 50
90.0
100
AcDbRotatedDimension
  0
LINE
  5
3EF
100
AcDbEntity
  8
1
  6
CONTINUOUS
 62
     4
100
AcDbLine
 10
332.679492
 20
605.0
 30
0.0
 11
340.65
 21
605.0
 31
0.0
  0
LINE
  5
3F0
100
AcDbEntity
  8
1
  6
CONTINUOUS
 62
     4
100
AcDbLine
 10
332.679492
 20
600.0
 30
0.0
 11
340.65
 21
600.0
 31
0.0
  0
LINE
  5
3F1
100
AcDbEntity
  8
1
  6
CONTINUOUS
 62
     4
100
AcDbLine
 10
339.65
 20
590.0
 30
0.0
 11
332.679492
 21
590.0
 31
0.0
  0
LINE
  5
3F2
100
AcDbEntity
  8
1
  6
CONTINUOUS
 62
     4
100
AcDbLine
 10
332.679492
 20
590.0
 30
0.0
 11
340.65
 21
590.0
 31
0.0
  0
LINE
  5
3F3
100
AcDbEntity
  8
1
  6
CONTINUOUS
 62
     4
100
AcDbLine
 10
367.320508
 20
605.0
 30
0.0
 11
359.35
 21
605.0
 31
0.0
  0
LINE
  5
3F4
100
AcDbEntity
  8
1
  6
CONTINUOUS
 62
     4
100
AcDbLine
 10
367.320508
 20
600.0
 30
0.0
 11
359.35
 21
600.0
 31
0.0
  0
LINE
  5
3F5
100
AcDbEntity
  8
1
  6
CONTINUOUS
 62
     4
100
AcDbLine
 10
360.35
 20
590.0
 30
0.0
 11
367.320508
 21
590.0
 31
0.0
  0
LINE
  5
3F6
100
AcDbEntity
  8
1
  6
CONTINUOUS
 62
     4
100
AcDbLine
 10
367.320508
 20
590.0
 30
0.0
 11
359.35
 21
590.0
 31
0.0
  0
LINE
  5
3F7
100
AcDbEntity
  8
1
  6
CENTER
 62
     4
100
AcDbLine
 10
350.0
 20
685.22
 30
0.0
 11
350.0
 21
220.0
 31
0.0
  0
LINE
  5
3F8
100
AcDbEntity
  8
1
  6
CONTINUOUS
 62
     4
100
AcDbLine
 10
340.65
 20
672.0
 30
0.0
 11
340.65
 21
484.023745
 31
0.0
  0
LINE
  5
3F9
100
AcDbEntity
  8
1
  6
CONTINUOUS
 62
     4
100
AcDbLine
 10
359.35
 20
672.0
 30
0.0
 11
359.35
 21
476.176869
 31
0.0
  0
ARC
  5
3FA
100
AcDbEntity
  8
1
  6
CONTINUOUS
 62
     4
100
AcDbCircle
 10
345.325
 20
667.536094
 30
0.0
 40
6.463906
100
AcDbArc
 50
43.676797
 51
136.323203
  0
ARC
  5
3FB
100
AcDbEntity
  8
1
  6
CONTINUOUS
 62
     4
100
AcDbCircle
 10
354.675
 20
676.463906
 30
0.0
 40
6.463906
100
AcDbArc
 50
-136.323203
 51
-43.676797
  0
ARC
  5
3FC
100
AcDbEntity
  8
1
  6
CONTINUOUS
 62
     4
100
AcDbCircle
 10
354.675
 20
667.536094
 30
0.0
 40
6.463906
100
AcDbArc
 50
43.676797
 51
136.323203
  0
DIMENSION
  5
406
100
AcDbEntity
  8
1
  6
CONTINUOUS
 62
     4
100
AcDbDimension
  2
*D34
 10
340.65
 20
660.0
 30
0.0
 11
388.784093
 21
667.5
 31
0.0
  1
φ18.7
100
AcDbAlignedDimension
 13
340.65
 23
660.0
 33
0.0
 14
359.35
 24
660.0
 34
0.0
100
AcDbRotatedDimension
  0
LINE
  5
407
100
AcDbEntity
  8
1
  6
CONTINUOUS
 62
     4
100
AcDbLine
 10
332.679492
 20
590.0
 30
0.0
 11
332.679492
 21
630.0
 31
0.0
  0
LINE
  5
408
100
AcDbEntity
  8
1
  6
CONTINUOUS
 62
     4
100
AcDbLine
 10
325.0
 20
645.0
 30
0.0
 11
325.0
 21
635.0
 31
0.0
  0
LINE
  5
409
100
AcDbEntity
  8
1
  6
CONTINUOUS
 62
     4
100
AcDbLine
 10
325.0
 20
635.0
 30
0.0
 11
332.679492
 21
635.0
 31
0.0
  0
LINE
  5
40A
100
AcDbEntity
  8
1
  6
CONTINUOUS
 62
     4
100
AcDbLine
 10
332.679492
 20
635.0
 30
0.0
 11
332.679492
 21
605.0
 31
0.0
  0
LINE
  5
40B
100
AcDbEntity
  8
1
  6
CONTINUOUS
 62
     4
100
AcDbLine
 10
340.65
 20
645.0
 30
0.0
 11
325.0
 21
645.0
 31
0.0
  0
LINE
  5
40C
100
AcDbEntity
  8
1
  6
CONTINUOUS
 62
     4
100
AcDbLine
 10
339.65
 20
605.0
 30
0.0
 11
339.65
 21
644.0
 31
0.0
  0
LINE
  5
40D
100
AcDbEntity
  8
1
  6
CONTINUOUS
 62
     4
100
AcDbLine
 10
338.65
 20
645.0
 30
0.0
 11
339.65
 21
644.0
 31
0.0
  0
LINE
  5
40E
100
AcDbEntity
  8
1
  6
CONTINUOUS
 62
     4
100
AcDbLine
 10
367.320508
 20
590.0
 30
0.0
 11
367.320508
 21
630.0
 31
0.0
  0
LINE
  5
40F
100
AcDbEntity
  8
1
  6
CONTINUOUS
 62
     4
100
AcDbLine
 10
375.0
 20
645.0
 30
0.0
 11
375.0
 21
635.0
 31
0.0
  0
LINE
  5
410
100
AcDbEntity
  8
1
  6
CONTINUOUS
 62
     4
100
AcDbLine
 10
375.0
 20
635.0
 30
0.0
 11
367.320508
 21
635.0
 31
0.0
  0
LINE
  5
411
100
AcDbEntity
  8
1
  6
CONTINUOUS
 62
     4
100
AcDbLine
 10
367.320508
 20
635.0
 30
0.0
 11
367.320508
 21
605.0
 31
0.0
  0
LINE
  5
412
100
AcDbEntity
  8
1
  6
CONTINUOUS
 62
     4
100
AcDbLine
 10
359.35
 20
645.0
 30
0.0
 11
375.0
 21
645.0
 31
0.0
  0
LINE
  5
413
100
AcDbEntity
  8
1
  6
CONTINUOUS
 62
     4
100
AcDbLine
 10
360.35
 20
605.0
 30
0.0
 11
360.35
 21
644.0
 31
0.0
  0
LINE
  5
414
100
AcDbEntity
  8
1
  6
CONTINUOUS
 62
     4
100
AcDbLine
 10
361.35
 20
645.0
 30
0.0
 11
360.35
 21
644.0
 31
0.0
  0
CIRCLE
  5
415
100
AcDbEntity
  8
1
  6
CONTINUOUS
 62
     4
100
AcDbCircle
 10
201.85
 20
668.383713
 30
0.0
 40
15.0
  0
LINE
  5
416
100
AcDbEntity
  8
1
  6
CONTINUOUS
 62
     4
100
AcDbLine
 10
325.0
 20
645.0
 30
0.0
 11
315.027481
 21
644.259146
 31
0.0
  0
LINE
  5
417
100
AcDbEntity
  8
1
  6
CONTINUOUS
 62
     4
100
AcDbLine
 10
325.0
 20
645.0
 30
0.0
 11
315.993118
 21
649.344661
 31
0.0
  0
POLYLINE
  5
418
100
AcDbEntity
  8
1
  6
CONTINUOUS
 62
     4
100
AcDb2dPolyline
 66
     1
 10
0.0
 20
0.0
 30
0.0
  0
VERTEX
  5
419
100
AcDbEntity
  8
1
  6
CONTINUOUS
 62
     4
100
AcDbVertex
100
AcDb2dVertex
 10
325.0
 20
645.0
 30
0.0
  0
VERTEX
  5
41A
100
AcDbEntity
  8
1
  6
CONTINUOUS
 62
     4
100
AcDbVertex
100
AcDb2dVertex
 10
216.586691
 20
665.585511
 30
0.0
  0
SEQEND
  5
41B
100
AcDbEntity
  8
1
  6
CONTINUOUS
 62
     4
  0
TEXT
  5
41C
100
AcDbEntity
  8
1
  6
CONTINUOUS
 62
     4
100
AcDbText
 10
198.1
 20
660.883713
 30
0.0
 40
15.0
  1
5
 41
0.5
 11
198.1
 21
660.883713
 31
0.0
100
AcDbText
 73
     1
  0
CIRCLE
  5
41D
100
AcDbEntity
  8
1
  6
CONTINUOUS
 62
     4
100
AcDbCircle
 10
201.85
 20
622.783225
 30
0.0
 40
15.0
  0
LINE
  5
41E
100
AcDbEntity
  8
1
  6
CONTINUOUS
 62
     4
100
AcDbLine
 10
332.679492
 20
605.0
 30
0.0
 11
322.75965
 21
603.736381
 31
0.0
  0
LINE
  5
41F
100
AcDbEntity
  8
1
  6
CONTINUOUS
 62
     4
100
AcDbLine
 10
332.679492
 20
605.0
 30
0.0
 11
323.456847
 21
608.865595
 31
0.0
  0
POLYLINE
  5
420
100
AcDbEntity
  8
1
  6
CONTINUOUS
 62
     4
100
AcDb2dPolyline
 66
     1
 10
0.0
 20
0.0
 30
0.0
  0
VERTEX
  5
421
100
AcDbEntity
  8
1
  6
CONTINUOUS
 62
     4
100
AcDbVertex
100
AcDb2dVertex
 10
332.679492
 20
605.0
 30
0.0
  0
VERTEX
  5
422
100
AcDbEntity
  8
1
  6
CONTINUOUS
 62
     4
100
AcDbVertex
100
AcDb2dVertex
 10
216.713321
 20
620.762902
 30
0.0
  0
SEQEND
  5
423
100
AcDbEntity
  8
1
  6
CONTINUOUS
 62
     4
  0
TEXT
  5
424
100
AcDbEntity
  8
1
  6
CONTINUOUS
 62
     4
100
AcDbText
 10
198.1
 20
615.283225
 30
0.0
 40
15.0
  1
4
 41
0.5
 11
198.1
 21
615.283225
 31
0.0
100
AcDbText
 73
     1
  0
CIRCLE
  5
425
100
AcDbEntity
  8
1
  6
CONTINUOUS
 62
     4
100
AcDbCircle
 10
201.85
 20
585.0
 30
0.0
 40
15.0
  0
LINE
  5
426
100
AcDbEntity
  8
1
  6
CONTINUOUS
 62
     4
100
AcDbLine
 10
332.679492
 20
593.853373
 30
0.0
 11
323.217021
 21
590.618928
 31
0.0
  0
LINE
  5
427
100
AcDbEntity
  8
1
  6
CONTINUOUS
 62
     4
100
AcDbLine
 10
332.679492
 20
593.853373
 30
0.0
 11
322.867529
 21
595.783497
 31
0.0
  0
POLYLINE
  5
428
100
AcDbEntity
  8
1
  6
CONTINUOUS
 62
     4
100
AcDb2dPolyline
 66
     1
 10
0.0
 20
0.0
 30
0.0
  0
VERTEX
  5
429
100
AcDbEntity
  8
1
  6
CONTINUOUS
 62
     4
100
AcDbVertex
100
AcDb2dVertex
 10
332.679492
 20
593.853373
 30
0.0
  0
VERTEX
  5
42A
100
AcDbEntity
  8
1
  6
CONTINUOUS
 62
     4
100
AcDbVertex
100
AcDb2dVertex
 10
216.815772
 20
586.01275
 30
0.0
  0
SEQEND
  5
42B
100
AcDbEntity
  8
1
  6
CONTINUOUS
 62
     4
  0
TEXT
  5
42C
100
AcDbEntity
  8
1
  6
CONTINUOUS
 62
     4
100
AcDbText
 10
198.1
 20
577.5
 30
0.0
 40
15.0
  1
3
 41
0.5
 11
198.1
 21
577.5
 31
0.0
100
AcDbText
 73
     1
  0
LINE
  5
42D
100
AcDbEntity
  8
1
  6
CONTINUOUS
 62
     4
100
AcDbLine
 10
338.65
 20
510.0
 30
0.0
 11
339.65
 21
511.0
 31
0.0
  0
LINE
  5
42E
100
AcDbEntity
  8
1
  6
CONTINUOUS
 62
     4
100
AcDbLine
 10
361.35
 20
510.0
 30
0.0
 11
360.35
 21
511.0
 31
0.0
  0
LINE
  5
42F
100
AcDbEntity
  8
1
  6
CONTINUOUS
 62
     4
100
AcDbLine
 10
332.679492
 20
630.0
 30
0.0
 11
318.0
 21
630.0
 31
0.0
  0
INSERT
  5
43A
100
AcDbEntity
  8
7
  6
CONTINUOUS
 62
     4
100
AcDbBlockReference
  2
*G35
 10
0.0
 20
0.0
 30
0.0
  0
LINE
  5
43B
100
AcDbEntity
  8
1
  6
CONTINUOUS
 62
     4
100
AcDbLine
 10
367.320508
 20
630.0
 30
0.0
 11
382.0
 21
630.0
 31
0.0
  0
INSERT
  5
446
100
AcDbEntity
  8
7
  6
CONTINUOUS
 62
     4
100
AcDbBlockReference
  2
*G36
 10
0.0
 20
0.0
 30
0.0
  0
CIRCLE
  5
447
100
AcDbEntity
  8
7
  6
CONTINUOUS
 62
     4
100
AcDbCircle
 10
350.0
 20
830.0
 30
0.0
 40
77.5
  0
CIRCLE
  5
448
100
AcDbEntity
  8
7
  6
CENTER
 62
     4
100
AcDbCircle
 10
350.0
 20
830.0
 30
0.0
 40
60.0
  0
CIRCLE
  5
449
100
AcDbEntity
  8
1
  6
CONTINUOUS
 62
     4
100
AcDbCircle
 10
350.0
 20
770.0
 30
0.0
 40
9.5
  0
CIRCLE
  5
44A
100
AcDbEntity
  8
1
  6
CONTINUOUS
 62
     4
100
AcDbCircle
 10
290.0
 20
830.0
 30
0.0
 40
9.5
  0
CIRCLE
  5
44B
100
AcDbEntity
  8
1
  6
CONTINUOUS
 62
     4
100
AcDbCircle
 10
410.0
 20
830.0
 30
0.0
 40
9.5
  0
CIRCLE
  5
44C
100
AcDbEntity
  8
1
  6
CONTINUOUS
 62
     4
100
AcDbCircle
 10
350.0
 20
890.0
 30
0.0
 40
9.5
  0
INSERT
  5
456
100
AcDbEntity
  8
1
  6
CONTINUOUS
 62
     4
100
AcDbBlockReference
  2
*G37
 10
0.0
 20
0.0
 30
0.0
  0
INSERT
  5
460
100
AcDbEntity
  8
1
  6
CONTINUOUS
 62
     4
100
AcDbBlockReference
  2
*G38
 10
0.0
 20
0.0
 30
0.0
  0
LINE
  5
461
100
AcDbEntity
  8
1
  6
CONTINUOUS
 62
     4
100
AcDbLine
 10
280.5
 20
630.0
 30
0.0
 11
280.5
 21
615.0
 31
0.0
  0
LINE
  5
462
100
AcDbEntity
  8
1
  6
CONTINUOUS
 62
     4
100
AcDbLine
 10
299.5
 20
630.0
 30
0.0
 11
299.5
 21
615.0
 31
0.0
  0
LINE
  5
463
100
AcDbEntity
  8
1
  6
CENTER
 62
     4
100
AcDbLine
 10
290.0
 20
632.5
 30
0.0
 11
290.0
 21
612.5
 31
0.0
  0
LINE
  5
464
100
AcDbEntity
  8
1
  6
CONTINUOUS
 62
     4
100
AcDbLine
 10
400.5
 20
630.0
 30
0.0
 11
400.5
 21
615.0
 31
0.0
  0
LINE
  5
465
100
AcDbEntity
  8
1
  6
CONTINUOUS
 62
     4
100
AcDbLine
 10
419.5
 20
630.0
 30
0.0
 11
419.5
 21
615.0
 31
0.0
  0
LINE
  5
466
100
AcDbEntity
  8
1
  6
CENTER
 62
     4
100
AcDbLine
 10
410.0
 20
632.5
 30
0.0
 11
410.0
 21
612.5
 31
0.0
  0
INSERT
  5
46F
100
AcDbEntity
  8
8
  6
CONTINUOUS
 62
     6
100
AcDbBlockReference
  2
*G39
 10
0.0
 20
0.0
 30
0.0
  0
INSERT
  5
478
100
AcDbEntity
  8
8
  6
CONTINUOUS
 62
     6
100
AcDbBlockReference
  2
*G40
 10
0.0
 20
0.0
 30
0.0
  0
INSERT
  5
481
100
AcDbEntity
  8
8
  6
CONTINUOUS
 62
     6
100
AcDbBlockReference
  2
*G41
 10
0.0
 20
0.0
 30
0.0
  0
INSERT
  5
48A
100
AcDbEntity
  8
8
  6
CONTINUOUS
 62
     6
100
AcDbBlockReference
  2
*G42
 10
0.0
 20
0.0
 30
0.0
  0
LINE
  5
48B
100
AcDbEntity
  8
1
  6
CONTINUOUS
 62
     4
100
AcDbLine
 10
320.0
 20
530.0
 30
0.0
 11
320.0
 21
615.0
 31
0.0
  0
INSERT
  5
496
100
AcDbEntity
  8
1
  6
CONTINUOUS
 62
     4
100
AcDbBlockReference
  2
*G43
 10
0.0
 20
0.0
 30
0.0
  0
LINE
  5
497
100
AcDbEntity
  8
1
  6
CONTINUOUS
 62
     4
100
AcDbLine
 10
322.5
 20
510.0
 30
0.0
 11
338.65
 21
510.0
 31
0.0
  0
LINE
  5
498
100
AcDbEntity
  8
1
  6
CONTINUOUS
 62
     4
100
AcDbLine
 10
377.5
 20
510.0
 30
0.0
 11
361.35
 21
510.0
 31
0.0
  0
LINE
  5
499
100
AcDbEntity
  8
1
  6
CONTINUOUS
 62
     4
100
AcDbLine
 10
372.5
 20
510.0
 30
0.0
 11
377.5
 21
505.0
 31
0.0
  0
LINE
  5
49A
100
AcDbEntity
  8
1
  6
CONTINUOUS
 62
     4
100
AcDbLine
 10
380.0
 20
530.0
 30
0.0
 11
380.0
 21
615.0
 31
0.0
  0
INSERT
  5
4A3
100
AcDbEntity
  8
1
  6
CONTINUOUS
 62
     4
100
AcDbBlockReference
  2
*G44
 10
0.0
 20
0.0
 30
0.0
  0
LINE
  5
4A4
100
AcDbEntity
  8
1
  6
CONTINUOUS
 62
     4
100
AcDbLine
 10
380.0
 20
535.0
 30
0.0
 11
385.0
 21
530.0
 31
0.0
  0
INSERT
  5
4AD
100
AcDbEntity
  8
8
  6
CONTINUOUS
 62
     6
100
AcDbBlockReference
  2
*G45
 10
0.0
 20
0.0
 30
0.0
  0
INSERT
  5
4B6
100
AcDbEntity
  8
8
  6
CONTINUOUS
 62
     6
100
AcDbBlockReference
  2
*G46
 10
0.0
 20
0.0
 30
0.0
  0
INSERT
  5
4BF
100
AcDbEntity
  8
8
  6
CONTINUOUS
 62
     6
100
AcDbBlockReference
  2
*G47
 10
0.0
 20
0.0
 30
0.0
  0
INSERT
  5
4C8
100
AcDbEntity
  8
8
  6
CONTINUOUS
 62
     6
100
AcDbBlockReference
  2
*G48
 10
0.0
 20
0.0
 30
0.0
  0
LINE
  5
4C9
100
AcDbEntity
  8
1
  6
CONTINUOUS
 62
     4
100
AcDbLine
 10
339.65
 20
590.0
 30
0.0
 11
339.65
 21
511.0
 31
0.0
  0
LINE
  5
4CA
100
AcDbEntity
  8
1
  6
CONTINUOUS
 62
     4
100
AcDbLine
 10
360.35
 20
590.0
 30
0.0
 11
360.35
 21
511.0
 31
0.0
  0
DIMENSION
  5
4D6
100
AcDbEntity
  8
7
  6
CONTINUOUS
 62
     4
100
AcDbDimension
  2
*D49
 10
272.5
 20
686.22
 30
0.0
 11
350.0
 21
693.72
 31
0.0
  1
φ155
100
AcDbAlignedDimension
 13
272.5
 23
635.0
 33
0.0
 14
427.5
 24
635.0
 34
0.0
100
AcDbRotatedDimension
  0
DIMENSION
  5
4E0
100
AcDbEntity
  8
7
  6
CONTINUOUS
 62
     4
100
AcDbDimension
  2
*D50
 10
307.465319
 20
787.682144
 30
0.0
 11
369.959938
 21
860.437792
 31
0.0
 70
     3
  1
φ120
100
AcDbDiametricDimension
 15
392.534681
 25
872.317856
 35
0.0
 40
0.0
 50
44.853591
  0
LINE
  5
4E1
100
AcDbEntity
  8
7
  6
CONTINUOUS
 62
     4
100
AcDbLine
 10
356.281573
 20
897.126839
 30
0.0
 11
363.237783
 21
904.310929
 31
0.0
  0
LINE
  5
4E2
100
AcDbEntity
  8
7
  6
CONTINUOUS
 62
     4
100
AcDbLine
 10
356.281573
 20
897.126839
 30
0.0
 11
365.897873
 21
899.870338
 31
0.0
  0
POLYLINE
  5
4E3
100
AcDbEntity
  8
7
  6
CONTINUOUS
 62
     4
100
AcDb2dPolyline
 66
     1
 10
0.0
 20
0.0
 30
0.0
  0
VERTEX
  5
4E4
100
AcDbEntity
  8
7
  6
CONTINUOUS
 62
     4
100
AcDbVertex
100
AcDb2dVertex
 10
356.281573
 20
897.126839
 30
0.0
  0
VERTEX
  5
4E5
100
AcDbEntity
  8
7
  6
CONTINUOUS
 62
     4
100
AcDbVertex
100
AcDb2dVertex
 10
419.5
 20
934.997178
 30
0.0
  0
VERTEX
  5
4E6
100
AcDbEntity
  8
7
  6
CONTINUOUS
 62
     4
100
AcDbVertex
100
AcDb2dVertex
 10
464.5
 20
934.997178
 30
0.0
  0
SEQEND
  5
4E7
100
AcDbEntity
  8
7
  6
CONTINUOUS
 62
     4
  0
TEXT
  5
4E8
100
AcDbEntity
  8
7
  6
CONTINUOUS
 62
     4
100
AcDbText
 10
419.5
 20
934.997178
 30
0.0
 40
15.0
  1
4-%%c19
 41
0.6
 11
419.5
 21
934.997178
 31
0.0
100
AcDbText
 73
     1
  0
LINE
  5
4E9
100
AcDbEntity
  8
1
  6
CONTINUOUS
 62
     4
100
AcDbLine
 10
241.85
 20
520.0
 30
0.0
 11
261.85
 21
505.0
 31
0.0
  0
LINE
  5
4EA
100
AcDbEntity
  8
1
  6
CONTINUOUS
 62
     4
100
AcDbLine
 10
261.85
 20
505.0
 30
0.0
 11
241.85
 21
490.0
 31
0.0
  0
INSERT
  5
50B
100
AcDbEntity
  8
8
  6
CONTINUOUS
 62
     6
100
AcDbBlockReference
  2
*G51
 10
0.0
 20
0.0
 30
0.0
  0
LINE
  5
50C
100
AcDbEntity
  8
1
  6
CONTINUOUS
 62
     4
100
AcDbLine
 10
458.279447
 20
518.999402
 30
0.0
 11
438.141609
 21
504.184967
 31
0.0
  0
LINE
  5
50D
100
AcDbEntity
  8
1
  6
CONTINUOUS
 62
     4
100
AcDbLine
 10
438.141609
 20
504.184967
 30
0.0
 11
458.00206
 21
489.000684
 31
0.0
  0
INSERT
  5
52E
100
AcDbEntity
  8
8
  6
CONTINUOUS
 62
     6
100
AcDbBlockReference
  2
*G52
 10
0.0
 20
0.0
 30
0.0
  0
INSERT
  5
537
100
AcDbEntity
  8
1
  6
CONTINUOUS
 62
     4
100
AcDbBlockReference
  2
*G53
 10
0.0
 20
0.0
 30
0.0
  0
INSERT
  5
540
100
AcDbEntity
  8
1
  6
CONTINUOUS
 62
     4
100
AcDbBlockReference
  2
*G54
 10
0.0
 20
0.0
 30
0.0
  0
INSERT
  5
549
100
AcDbEntity
  8
8
  6
CONTINUOUS
 62
     6
100
AcDbBlockReference
  2
*G55
 10
0.0
 20
0.0
 30
0.0
  0
INSERT
  5
552
100
AcDbEntity
  8
8
  6
CONTINUOUS
 62
     6
100
AcDbBlockReference
  2
*G56
 10
0.0
 20
0.0
 30
0.0
  0
INSERT
  5
55B
100
AcDbEntity
  8
1
  6
CONTINUOUS
 62
     4
100
AcDbBlockReference
  2
*G57
 10
0.0
 20
0.0
 30
0.0
  0
INSERT
  5
564
100
AcDbEntity
  8
1
  6
CONTINUOUS
 62
     4
100
AcDbBlockReference
  2
*G58
 10
0.0
 20
0.0
 30
0.0
  0
LINE
  5
565
100
AcDbEntity
  8
1
  6
CONTINUOUS
 62
     4
100
AcDbLine
 10
231.85
 20
230.0
 30
0.0
 11
241.85
 21
240.0
 31
0.0
  0
LINE
  5
566
100
AcDbEntity
  8
1
  6
CONTINUOUS
 62
     4
100
AcDbLine
 10
231.85
 20
253.989985
 30
0.0
 11
241.85
 21
263.989985
 31
0.0
  0
LINE
  5
567
100
AcDbEntity
  8
1
  6
CONTINUOUS
 62
     4
100
AcDbLine
 10
468.15
 20
230.0
 30
0.0
 11
458.15
 21
240.0
 31
0.0
  0
LINE
  5
568
100
AcDbEntity
  8
1
  6
CONTINUOUS
 62
     4
100
AcDbLine
 10
468.15
 20
253.989985
 30
0.0
 11
458.15
 21
263.989985
 31
0.0
  0
INSERT
  5
56F
100
AcDbEntity
  8
8
  6
CONTINUOUS
 62
     6
100
AcDbBlockReference
  2
*G59
 10
0.0
 20
0.0
 30
0.0
  0
INSERT
  5
578
100
AcDbEntity
  8
8
  6
CONTINUOUS
 62
     6
100
AcDbBlockReference
  2
*G60
 10
0.0
 20
0.0
 30
0.0
  0
INSERT
  5
583
100
AcDbEntity
  8
8
  6
CONTINUOUS
 62
     6
100
AcDbBlockReference
  2
*G61
 10
0.0
 20
0.0
 30
0.0
  0
INSERT
  5
5D3
100
AcDbEntity
  8
8
  6
CONTINUOUS
 62
     6
100
AcDbBlockReference
  2
*G62
 10
0.0
 20
0.0
 30
0.0
  0
INSERT
  5
5DA
100
AcDbEntity
  8
8
  6
CONTINUOUS
 62
     6
100
AcDbBlockReference
  2
*G63
 10
0.0
 20
0.0
 30
0.0
  0
INSERT
  5
5E3
100
AcDbEntity
  8
8
  6
CONTINUOUS
 62
     6
100
AcDbBlockReference
  2
*G64
 10
0.0
 20
0.0
 30
0.0
  0
INSERT
  5
5EE
100
AcDbEntity
  8
8
  6
CONTINUOUS
 62
     6
100
AcDbBlockReference
  2
*G65
 10
0.0
 20
0.0
 30
0.0
  0
INSERT
  5
63E
100
AcDbEntity
  8
8
  6
CONTINUOUS
 62
     6
100
AcDbBlockReference
  2
*G66
 10
0.0
 20
0.0
 30
0.0
  0
INSERT
  5
647
100
AcDbEntity
  8
8
  6
CONTINUOUS
 62
     6
100
AcDbBlockReference
  2
*G67
 10
0.0
 20
0.0
 30
0.0
  0
DIMENSION
  5
653
100
AcDbEntity
  8
7
  6
CONTINUOUS
 62
     4
100
AcDbDimension
  2
*D68
 10
241.85
 20
177.363841
 30
0.0
 11
350.0
 21
184.863841
 31
0.0
  1
φ216.3
100
AcDbAlignedDimension
 13
241.85
 23
225.0
 33
0.0
 14
458.15
 24
225.0
 34
0.0
100
AcDbRotatedDimension
  0
DIMENSION
  5
65F
100
AcDbEntity
  8
7
  6
CONTINUOUS
 62
     4
100
AcDbDimension
  2
*D69
 10
275.0
 20
200.0
 30
0.0
 11
350.0
 21
207.5
 31
0.0
  1
φ150
100
AcDbAlignedDimension
 13
275.0
 23
225.0
 33
0.0
 14
425.0
 24
225.0
 34
0.0
100
AcDbRotatedDimension
  0
DIMENSION
  5
66B
100
AcDbEntity
  8
7
  6
CONTINUOUS
 62
     4
100
AcDbDimension
  2
*D70
 10
528.15
 20
230.0
 30
0.0
 11
520.65
 21
380.0
 31
0.0
  1
300
100
AcDbAlignedDimension
 13
523.15
 23
230.0
 33
0.0
 14
458.15
 24
530.0
 34
0.0
 50
90.0
100
AcDbRotatedDimension
  0
DIMENSION
  5
677
100
AcDbEntity
  8
7
  6
CONTINUOUS
 62
     4
100
AcDbDimension
  2
*D71
 10
221.85
 20
505.0
 30
0.0
 11
214.35
 21
517.5
 31
0.0
  1
25
100
AcDbAlignedDimension
 13
236.85
 23
505.0
 33
0.0
 14
241.85
 24
530.0
 34
0.0
 50
90.0
100
AcDbRotatedDimension
  0
DIMENSION
  5
681
100
AcDbEntity
  8
7
  6
CONTINUOUS
 62
     4
100
AcDbDimension
  2
*D72
 10
266.85
 20
400.0
 30
0.0
 11
220.6
 21
407.5
 31
0.0
  1
25
100
AcDbAlignedDimension
 13
266.85
 23
400.0
 33
0.0
 14
241.85
 24
400.0
 34
0.0
100
AcDbRotatedDimension
  0
DIMENSION
  5
68D
100
AcDbEntity
  8
7
  6
CONTINUOUS
 62
     4
100
AcDbDimension
  2
*D73
 10
558.15
 20
230.0
 30
0.0
 11
550.65
 21
430.0
 31
0.0
  1
400
100
AcDbAlignedDimension
 13
523.15
 23
230.0
 33
0.0
 14
432.5
 24
630.0
 34
0.0
 50
90.0
100
AcDbRotatedDimension
  0
TEXT
  5
68E
100
AcDbEntity
  8
6
  6
CONTINUOUS
 62
    51
100
AcDbText
 10
700.633975
 20
672.743557
 30
0.0
 40
15.0
  1
4. ORIENT BOW MARK OF THE CASING IN PARALLEL WITH SHIP'S FORE-AFT LINE AND THE TOP
 41
0.545213
 11
700.633975
 21
672.743557
 31
0.0
100
AcDbText
 73
     1
  0
TEXT
  5
68F
100
AcDbEntity
  8
6
  6
CONTINUOUS
 62
    51
100
AcDbText
 10
1166.818559
 20
298.486988
 30
0.0
 40
15.0
  1
66-017-1404
 41
0.5
 11
1166.818559
 21
298.486988
 31
0.0
100
AcDbText
 73
     1
  0
TEXT
  5
690
100
AcDbEntity
  8
6
  6
CONTINUOUS
 62
    51
100
AcDbText
 10
1166.818559
 20
273.486988
 30
0.0
 40
15.0
  1
66-017-1402
 41
0.5
 11
1166.818559
 21
273.486988
 31
0.0
100
AcDbText
 73
     1
  0
TEXT
  5
691
100
AcDbEntity
  8
3
  6
CONTINUOUS
 62
     2
100
AcDbText
 10
815.136602
 20
75.477398
 30
0.0
 40
14.001399
  1
50%%p5
 41
0.625
 11
815.136602
 21
75.477398
 31
0.0
100
AcDbText
 73
     1
  0
ENDSEC
  0
SECTION
  2
OBJECTS
  0
DICTIONARY
  5
19
100
AcDbDictionary
  3
ACAD_GROUP
350
1A
  3
ACAD_MLINESTYLE
350
1B
  0
DICTIONARY
  5
1A
102
{ACAD_REACTORS
330
19
102
}
100
AcDbDictionary
  0
DICTIONARY
  5
1B
102
{ACAD_REACTORS
330
19
102
}
100
AcDbDictionary
  3
STANDARD
350
1C
  0
MLINESTYLE
  5
1C
102
{ACAD_REACTORS
330
1B
102
}
100
AcDbMlineStyle
  2
STANDARD
 70
     0
  3

 62
     0
 51
90.0
 52
90.0
 71
     2
 49
0.5
 62
   256
  6
BYLAYER
 49
-0.5
 62
   256
  6
BYLAYER
  0
ENDSEC
  0
EOF
