  0
SECTION
  2
HEADER
  9
$ACADVER
  1
AC1014
  9
$ACADMAINTVER
 70
     0
  9
$DWGCODEPAGE
  3
DOS932
  9
$INSBASE
 10
0.0
 20
0.0
 30
0.0
  9
$EXTMIN
 10
0.0
 20
0.0
 30
0.0
  9
$EXTMAX
 10
420.0
 20
594.0
 30
0.0
  9
$LIMMIN
 10
0.0
 20
0.0
  9
$LIMMAX
 10
420.0
 20
594.0
  9
$ORTHOMODE
 70
     0
  9
$REGENMODE
 70
     1
  9
$FILLMODE
 70
     1
  9
$QTEXTMODE
 70
     0
  9
$MIRRTEXT
 70
     1
  9
$DRAGMODE
 70
     2
  9
$LTSCALE
 40
0.5
  9
$OSMODE
 70
     0
  9
$ATTMODE
 70
     1
  9
$TEXTSIZE
 40
6.0
  9
$TRACEWID
 40
0.05
  9
$TEXTSTYLE
  7
STANDARD
  9
$CLAYER
  8
0
  9
$CELTYPE
  6
CONTINUOUS
  9
$CECOLOR
 62
   256
  9
$CELTSCALE
 40
1.0
  9
$DELOBJ
 70
     1
  9
$DISPSILH
 70
     0
  9
$DIMSCALE
 40
2.0
  9
$DIMASZ
 40
2.0
  9
$DIMEXO
 40
1.0
  9
$DIMDLI
 40
5.0
  9
$DIMRND
 40
0.0
  9
$DIMDLE
 40
0.0
  9
$DIMEXE
 40
1.0
  9
$DIMTP
 40
0.0
  9
$DIMTM
 40
0.0
  9
$DIMTXT
 40
3.0
  9
$DIMCEN
 40
0.09
  9
$DIMTSZ
 40
0.0
  9
$DIMTOL
 70
     0
  9
$DIMLIM
 70
     0
  9
$DIMTIH
 70
     0
  9
$DIMTOH
 70
     0
  9
$DIMSE1
 70
     0
  9
$DIMSE2
 70
     0
  9
$DIMTAD
 70
     3
  9
$DIMZIN
 70
     0
  9
$DIMBLK
  1
_OPEN
  9
$DIMASO
 70
     1
  9
$DIMSHO
 70
     1
  9
$DIMPOST
  1

  9
$DIMAPOST
  1

  9
$DIMALT
 70
     0
  9
$DIMALTD
 70
     2
  9
$DIMALTF
 40
25.4
  9
$DIMLFAC
 40
1.0
  9
$DIMTOFL
 70
     1
  9
$DIMTVP
 40
0.7
  9
$DIMTIX
 70
     0
  9
$DIMSOXD
 70
     0
  9
$DIMSAH
 70
     0
  9
$DIMBLK1
  1
_OPEN
  9
$DIMBLK2
  1
_OPEN
  9
$DIMSTYLE
  2
STANDARD
  9
$DIMCLRD
 70
     0
  9
$DIMCLRE
 70
     0
  9
$DIMCLRT
 70
     0
  9
$DIMTFAC
 40
0.5
  9
$DIMGAP
 40
0.0
  9
$DIMJUST
 70
     0
  9
$DIMSD1
 70
     0
  9
$DIMSD2
 70
     0
  9
$DIMTOLJ
 70
     1
  9
$DIMTZIN
 70
     0
  9
$DIMALTZ
 70
     0
  9
$DIMALTTZ
 70
     0
  9
$DIMFIT
 70
     3
  9
$DIMUPT
 70
     0
  9
$DIMUNIT
 70
     2
  9
$DIMDEC
 70
     2
  9
$DIMTDEC
 70
     4
  9
$DIMALTU
 70
     2
  9
$DIMALTTD
 70
     2
  9
$DIMTXSTY
  7
STANDARD
  9
$DIMAUNIT
 70
     0
  9
$LUNITS
 70
     2
  9
$LUPREC
 70
     4
  9
$SKETCHINC
 40
0.1
  9
$FILLETRAD
 40
0.0
  9
$AUNITS
 70
     0
  9
$AUPREC
 70
     0
  9
$MENU
  1
acad
  9
$ELEVATION
 40
0.0
  9
$PELEVATION
 40
0.0
  9
$THICKNESS
 40
0.0
  9
$LIMCHECK
 70
     0
  9
$BLIPMODE
 70
     1
  9
$CHAMFERA
 40
0.0
  9
$CHAMFERB
 40
0.0
  9
$CHAMFERC
 40
0.0
  9
$CHAMFERD
 40
0.0
  9
$SKPOLY
 70
     0
  9
$TDCREATE
 40
2451498.634791667
  9
$TDUPDATE
 40
2451498.634791667
  9
$TDINDWG
 40
0.0000000000
  9
$TDUSRTIMER
 40
0.0000000000
  9
$USRTIMER
 70
     1
  9
$ANGBASE
 50
0.0
  9
$ANGDIR
 70
     0
  9
$PDMODE
 70
     0
  9
$PDSIZE
 40
0.0
  9
$PLINEWID
 40
0.0
  9
$COORDS
 70
     0
  9
$SPLFRAME
 70
     0
  9
$SPLINETYPE
 70
     6
  9
$SPLINESEGS
 70
     8
  9
$ATTDIA
 70
     0
  9
$ATTREQ
 70
     1
  9
$HANDLING
 70
     1
  9
$HANDSEED
  5
5D8
  9
$SURFTAB1
 70
     6
  9
$SURFTAB2
 70
     6
  9
$SURFTYPE
 70
     6
  9
$SURFU
 70
     6
  9
$SURFV
 70
     6
  9
$UCSNAME
  2

  9
$UCSORG
 10
0.0
 20
0.0
 30
0.0
  9
$UCSXDIR
 10
1.0
 20
0.0
 30
0.0
  9
$UCSYDIR
 10
0.0
 20
1.0
 30
0.0
  9
$PUCSNAME
  2

  9
$PUCSORG
 10
0.0
 20
0.0
 30
0.0
  9
$PUCSXDIR
 10
1.0
 20
0.0
 30
0.0
  9
$PUCSYDIR
 10
0.0
 20
1.0
 30
0.0
  9
$USERI1
 70
     0
  9
$USERI2
 70
     0
  9
$USERI3
 70
     0
  9
$USERI4
 70
     0
  9
$USERI5
 70
     0
  9
$USERR1
 40
0.0
  9
$USERR2
 40
0.0
  9
$USERR3
 40
0.0
  9
$USERR4
 40
0.0
  9
$USERR5
 40
0.0
  9
$WORLDVIEW
 70
     1
  9
$SHADEDGE
 70
     3
  9
$SHADEDIF
 70
    70
  9
$TILEMODE
 70
     1
  9
$MAXACTVP
 70
    16
  9
$PINSBASE
 10
0.0
 20
0.0
 30
0.0
  9
$PLIMCHECK
 70
     0
  9
$PEXTMIN
 10
0.0
 20
0.0
 30
0.0
  9
$PEXTMAX
 10
210.0
 20
297.0
 30
0.0
  9
$PLIMMIN
 10
0.0
 20
0.0
  9
$PLIMMAX
 10
210.0
 20
297.0
  9
$UNITMODE
 70
     0
  9
$VISRETAIN
 70
     0
  9
$PLINEGEN
 70
     1
  9
$PSLTSCALE
 70
     0
  9
$TREEDEPTH
 70
  3020
  9
$PICKSTYLE
 70
     1
  9
$CMLSTYLE
  2
STANDARD
  9
$CMLJUST
 70
     0
  9
$CMLSCALE
 40
1.0
  9
$PROXYGRAPHICS
 70
     0
  9
$MEASUREMENT
 70
     0
  0
ENDSEC
  0
SECTION
  2
CLASSES
  0
CLASS
  1
LWPOLYLINE
  2
AcDbPolyline
  3
"AutoCAD"
 90
        0
280
     0
281
     1
  0
CLASS
  1
IMAGE
  2
AcDbRasterImage
  3
ISM
 90
      127
280
     0
281
     1
  0
CLASS
  1
OLE2FRAME
  2
AcDbOle2Frame
  3
""
 90
        0
280
     0
281
     1
  0
CLASS
  1
HATCH
  2
AcDbHatch
  3
"ACAD_SEDONA"
 90
        0
280
     0
281
     1
  0
CLASS
  1
DICTIONARYVAR
  2
AcDbDictionaryVar
  3
"AutoCAD"
 90
        0
280
     0
281
     0
  0
CLASS
  1
RASTERVARIABLES
  2
AcDbRasterVariables
  3
ISM
 90
        0
280
     0
281
     0
  0
CLASS
  1
IMAGEDEF
  2
AcDbRasterImageDef
  3
ISM
 90
        0
280
     0
281
     0
  0
CLASS
  1
IMAGEDEF_REACTOR
  2
AcDbRasterImageDefReactor
  3
ISM
 90
        1
280
     0
281
     0
  0
CLASS
  1
IDBUFFER
  2
AcDbIdBuffer
  3
"Acad"
 90
        0
280
     0
281
     0
  0
CLASS
  1
SPATIAL_FILTER
  2
AcDbSpatialFilter
  3
"Acad"
 90
        0
280
     0
281
     0
  0
CLASS
  1
XRECORD
  2
AcDbXrecord
  3
"<Built In>"
 90
        0
280
     0
281
     0
  0
CLASS
  1
SORTENTSTABLE
  2
AcDbSortentsTable
  3
"AutoCAD"
 90
        0
280
     0
281
     0
  0
CLASS
  1
LAYER_INDEX
  2
AcDbLayerIndex
  3
"Acad"
 90
        0
280
     0
281
     0
  0
CLASS
  1
SPATIAL_INDEX
  2
AcDbSpatialIndex
  3
"Acad"
 90
        0
280
     0
281
     0
  0
CLASS
  1
OBJECT_PTR
  2
CAseDLPNTableRecord
  3
"ASE-LPNTableRecord"
 90
        1
280
     0
281
     0
  0
ENDSEC
  0
SECTION
  2
TABLES
  0
TABLE
  2
VPORT
  5
7
100
AcDbSymbolTable
 70
     1
  0
VPORT
  5
15
100
AcDbSymbolTableRecord
100
AcDbViewportTableRecord
  2
*ACTIVE
 70
     0
 10
0.0
 20
0.0
 11
1.0
 21
1.0
 12
6.591288
 22
4.579184
 13
0.0
 23
0.0
 14
1.0
 24
1.0
 15
0.0
 25
0.0
 16
0.0
 26
0.0
 36
1.0
 17
0.0
 27
0.0
 37
0.0
 40
9.158369
 41
0.688564
 42
50.0
 43
0.0
 44
0.0
 50
0.0
 51
0.0
 71
     0
 72
   100
 73
     1
 74
     1
 75
     0
 76
     0
 77
     0
 78
     0
  0
ENDTAB
  0
TABLE
  2
LTYPE
  5
4
100
AcDbSymbolTable
 70
     7
  0
LTYPE
  5
11
100
AcDbSymbolTableRecord
100
AcDbLinetypeTableRecord
  2
BYBLOCK
 70
     0
  3

 72
    65
 73
     0
 40
0.0
  0
LTYPE
  5
12
100
AcDbSymbolTableRecord
100
AcDbLinetypeTableRecord
  2
BYLAYER
 70
     0
  3

 72
    65
 73
     0
 40
0.0
  0
LTYPE
  5
13
100
AcDbSymbolTableRecord
100
AcDbLinetypeTableRecord
  2
CONTINUOUS
 70
     0
  3
Solid line
 72
    65
 73
     0
 40
0.0
  0
LTYPE
  5
1D
100
AcDbSymbolTableRecord
100
AcDbLinetypeTableRecord
  2
HIDDEN
 70
     0
  3
- - - - - - - - 
 72
    65
 73
     2
 40
12.6
 49
8.4
 74
     0
 49
-4.2
 74
     0
  0
LTYPE
  5
1E
100
AcDbSymbolTableRecord
100
AcDbLinetypeTableRecord
  2
DOT
 70
     0
  3
･ ･ ･ ･ ･ ･ ･ ･ 
 72
    65
 73
     2
 40
8.0
 49
6.0
 74
     0
 49
-2.0
 74
     0
  0
LTYPE
  5
1F
100
AcDbSymbolTableRecord
100
AcDbLinetypeTableRecord
  2
CENTER
 70
     0
  3
- ･ - ･ - ･ - ･ 
 72
    65
 73
     4
 40
50.5
 49
30.0
 74
     0
 49
-9.0
 74
     0
 49
2.5
 74
     0
 49
-9.0
 74
     0
  0
LTYPE
  5
20
100
AcDbSymbolTableRecord
100
AcDbLinetypeTableRecord
  2
PHANTOM
 70
     0
  3
- ･･ - ･･ - ･･ - ･･ 
 72
    65
 73
     6
 40
58.0
 49
30.0
 74
     0
 49
-9.0
 74
     0
 49
2.5
 74
     0
 49
-5.0
 74
     0
 49
2.5
 74
     0
 49
-9.0
 74
     0
  0
ENDTAB
  0
TABLE
  2
LAYER
  5
2
100
AcDbSymbolTable
 70
   102
  0
LAYER
  5
14
100
AcDbSymbolTableRecord
100
AcDbLayerTableRecord
  2
0
 70
     0
 62
     7
  6
CONTINUOUS
  0
LAYER
  5
21
100
AcDbSymbolTableRecord
100
AcDbLayerTableRecord
  2
1
 70
     0
 62
     4
  6
CONTINUOUS
  0
LAYER
  5
22
100
AcDbSymbolTableRecord
100
AcDbLayerTableRecord
  2
2
 70
     0
 62
     3
  6
CONTINUOUS
  0
LAYER
  5
23
100
AcDbSymbolTableRecord
100
AcDbLayerTableRecord
  2
3
 70
     0
 62
     2
  6
CONTINUOUS
  0
LAYER
  5
24
100
AcDbSymbolTableRecord
100
AcDbLayerTableRecord
  2
4
 70
     0
 62
     5
  6
CONTINUOUS
  0
LAYER
  5
25
100
AcDbSymbolTableRecord
100
AcDbLayerTableRecord
  2
5
 70
     0
 62
     1
  6
CONTINUOUS
  0
LAYER
  5
26
100
AcDbSymbolTableRecord
100
AcDbLayerTableRecord
  2
6
 70
     0
 62
    14
  6
CONTINUOUS
  0
LAYER
  5
27
100
AcDbSymbolTableRecord
100
AcDbLayerTableRecord
  2
7
 70
     0
 62
     4
  6
CONTINUOUS
  0
LAYER
  5
28
100
AcDbSymbolTableRecord
100
AcDbLayerTableRecord
  2
8
 70
     0
 62
     6
  6
CONTINUOUS
  0
LAYER
  5
29
100
AcDbSymbolTableRecord
100
AcDbLayerTableRecord
  2
9
 70
     0
 62
     2
  6
CONTINUOUS
  0
LAYER
  5
2A
100
AcDbSymbolTableRecord
100
AcDbLayerTableRecord
  2
10
 70
     0
 62
     3
  6
CONTINUOUS
  0
LAYER
  5
2B
100
AcDbSymbolTableRecord
100
AcDbLayerTableRecord
  2
11
 70
     0
 62
   251
  6
CONTINUOUS
  0
LAYER
  5
2C
100
AcDbSymbolTableRecord
100
AcDbLayerTableRecord
  2
12
 70
     0
 62
    91
  6
CONTINUOUS
  0
LAYER
  5
2D
100
AcDbSymbolTableRecord
100
AcDbLayerTableRecord
  2
13
 70
     0
 62
   216
  6
CONTINUOUS
  0
LAYER
  5
2E
100
AcDbSymbolTableRecord
100
AcDbLayerTableRecord
  2
14
 70
     0
 62
    56
  6
CONTINUOUS
  0
LAYER
  5
2F
100
AcDbSymbolTableRecord
100
AcDbLayerTableRecord
  2
15
 70
     0
 62
   110
  6
CONTINUOUS
  0
LAYER
  5
30
100
AcDbSymbolTableRecord
100
AcDbLayerTableRecord
  2
16
 70
     0
 62
    16
  6
CONTINUOUS
  0
LAYER
  5
31
100
AcDbSymbolTableRecord
100
AcDbLayerTableRecord
  2
17
 70
     0
 62
   132
  6
CONTINUOUS
  0
LAYER
  5
32
100
AcDbSymbolTableRecord
100
AcDbLayerTableRecord
  2
18
 70
     0
 62
   212
  6
CONTINUOUS
  0
LAYER
  5
33
100
AcDbSymbolTableRecord
100
AcDbLayerTableRecord
  2
19
 70
     0
 62
    52
  6
CONTINUOUS
  0
LAYER
  5
34
100
AcDbSymbolTableRecord
100
AcDbLayerTableRecord
  2
20
 70
     0
 62
   250
  6
CONTINUOUS
  0
LAYER
  5
35
100
AcDbSymbolTableRecord
100
AcDbLayerTableRecord
  2
21
 70
     0
 62
     3
  6
CONTINUOUS
  0
LAYER
  5
36
100
AcDbSymbolTableRecord
100
AcDbLayerTableRecord
  2
22
 70
     0
 62
     3
  6
CONTINUOUS
  0
LAYER
  5
37
100
AcDbSymbolTableRecord
100
AcDbLayerTableRecord
  2
23
 70
     0
 62
     3
  6
CONTINUOUS
  0
LAYER
  5
38
100
AcDbSymbolTableRecord
100
AcDbLayerTableRecord
  2
24
 70
     0
 62
     3
  6
CONTINUOUS
  0
LAYER
  5
39
100
AcDbSymbolTableRecord
100
AcDbLayerTableRecord
  2
25
 70
     0
 62
     3
  6
CONTINUOUS
  0
LAYER
  5
3A
100
AcDbSymbolTableRecord
100
AcDbLayerTableRecord
  2
26
 70
     0
 62
     3
  6
CONTINUOUS
  0
LAYER
  5
3B
100
AcDbSymbolTableRecord
100
AcDbLayerTableRecord
  2
27
 70
     0
 62
     3
  6
CONTINUOUS
  0
LAYER
  5
3C
100
AcDbSymbolTableRecord
100
AcDbLayerTableRecord
  2
28
 70
     0
 62
     3
  6
CONTINUOUS
  0
LAYER
  5
3D
100
AcDbSymbolTableRecord
100
AcDbLayerTableRecord
  2
29
 70
     0
 62
     3
  6
CONTINUOUS
  0
LAYER
  5
3E
100
AcDbSymbolTableRecord
100
AcDbLayerTableRecord
  2
30
 70
     0
 62
     3
  6
CONTINUOUS
  0
LAYER
  5
3F
100
AcDbSymbolTableRecord
100
AcDbLayerTableRecord
  2
31
 70
     0
 62
     3
  6
CONTINUOUS
  0
LAYER
  5
40
100
AcDbSymbolTableRecord
100
AcDbLayerTableRecord
  2
32
 70
     0
 62
     3
  6
CONTINUOUS
  0
LAYER
  5
41
100
AcDbSymbolTableRecord
100
AcDbLayerTableRecord
  2
33
 70
     0
 62
     3
  6
CONTINUOUS
  0
LAYER
  5
42
100
AcDbSymbolTableRecord
100
AcDbLayerTableRecord
  2
34
 70
     0
 62
     3
  6
CONTINUOUS
  0
LAYER
  5
43
100
AcDbSymbolTableRecord
100
AcDbLayerTableRecord
  2
35
 70
     0
 62
     3
  6
CONTINUOUS
  0
LAYER
  5
44
100
AcDbSymbolTableRecord
100
AcDbLayerTableRecord
  2
36
 70
     0
 62
     3
  6
CONTINUOUS
  0
LAYER
  5
45
100
AcDbSymbolTableRecord
100
AcDbLayerTableRecord
  2
37
 70
     0
 62
     3
  6
CONTINUOUS
  0
LAYER
  5
46
100
AcDbSymbolTableRecord
100
AcDbLayerTableRecord
  2
38
 70
     0
 62
     3
  6
CONTINUOUS
  0
LAYER
  5
47
100
AcDbSymbolTableRecord
100
AcDbLayerTableRecord
  2
39
 70
     0
 62
     3
  6
CONTINUOUS
  0
LAYER
  5
48
100
AcDbSymbolTableRecord
100
AcDbLayerTableRecord
  2
40
 70
     0
 62
     3
  6
CONTINUOUS
  0
LAYER
  5
49
100
AcDbSymbolTableRecord
100
AcDbLayerTableRecord
  2
41
 70
     0
 62
     3
  6
CONTINUOUS
  0
LAYER
  5
4A
100
AcDbSymbolTableRecord
100
AcDbLayerTableRecord
  2
42
 70
     0
 62
     3
  6
CONTINUOUS
  0
LAYER
  5
4B
100
AcDbSymbolTableRecord
100
AcDbLayerTableRecord
  2
43
 70
     0
 62
     3
  6
CONTINUOUS
  0
LAYER
  5
4C
100
AcDbSymbolTableRecord
100
AcDbLayerTableRecord
  2
44
 70
     0
 62
     3
  6
CONTINUOUS
  0
LAYER
  5
4D
100
AcDbSymbolTableRecord
100
AcDbLayerTableRecord
  2
45
 70
     0
 62
     3
  6
CONTINUOUS
  0
LAYER
  5
4E
100
AcDbSymbolTableRecord
100
AcDbLayerTableRecord
  2
46
 70
     0
 62
     3
  6
CONTINUOUS
  0
LAYER
  5
4F
100
AcDbSymbolTableRecord
100
AcDbLayerTableRecord
  2
47
 70
     0
 62
     3
  6
CONTINUOUS
  0
LAYER
  5
50
100
AcDbSymbolTableRecord
100
AcDbLayerTableRecord
  2
48
 70
     0
 62
     3
  6
CONTINUOUS
  0
LAYER
  5
51
100
AcDbSymbolTableRecord
100
AcDbLayerTableRecord
  2
49
 70
     0
 62
     3
  6
CONTINUOUS
  0
LAYER
  5
52
100
AcDbSymbolTableRecord
100
AcDbLayerTableRecord
  2
50
 70
     0
 62
     3
  6
CONTINUOUS
  0
LAYER
  5
53
100
AcDbSymbolTableRecord
100
AcDbLayerTableRecord
  2
51
 70
     0
 62
     3
  6
CONTINUOUS
  0
LAYER
  5
54
100
AcDbSymbolTableRecord
100
AcDbLayerTableRecord
  2
52
 70
     0
 62
     3
  6
CONTINUOUS
  0
LAYER
  5
55
100
AcDbSymbolTableRecord
100
AcDbLayerTableRecord
  2
53
 70
     0
 62
     3
  6
CONTINUOUS
  0
LAYER
  5
56
100
AcDbSymbolTableRecord
100
AcDbLayerTableRecord
  2
54
 70
     0
 62
     3
  6
CONTINUOUS
  0
LAYER
  5
57
100
AcDbSymbolTableRecord
100
AcDbLayerTableRecord
  2
55
 70
     0
 62
     3
  6
CONTINUOUS
  0
LAYER
  5
58
100
AcDbSymbolTableRecord
100
AcDbLayerTableRecord
  2
56
 70
     0
 62
     3
  6
CONTINUOUS
  0
LAYER
  5
59
100
AcDbSymbolTableRecord
100
AcDbLayerTableRecord
  2
57
 70
     0
 62
     3
  6
CONTINUOUS
  0
LAYER
  5
5A
100
AcDbSymbolTableRecord
100
AcDbLayerTableRecord
  2
58
 70
     0
 62
     3
  6
CONTINUOUS
  0
LAYER
  5
5B
100
AcDbSymbolTableRecord
100
AcDbLayerTableRecord
  2
59
 70
     0
 62
     3
  6
CONTINUOUS
  0
LAYER
  5
5C
100
AcDbSymbolTableRecord
100
AcDbLayerTableRecord
  2
60
 70
     0
 62
     3
  6
CONTINUOUS
  0
LAYER
  5
5D
100
AcDbSymbolTableRecord
100
AcDbLayerTableRecord
  2
61
 70
     0
 62
     3
  6
CONTINUOUS
  0
LAYER
  5
5E
100
AcDbSymbolTableRecord
100
AcDbLayerTableRecord
  2
62
 70
     0
 62
     3
  6
CONTINUOUS
  0
LAYER
  5
5F
100
AcDbSymbolTableRecord
100
AcDbLayerTableRecord
  2
63
 70
     0
 62
     3
  6
CONTINUOUS
  0
LAYER
  5
60
100
AcDbSymbolTableRecord
100
AcDbLayerTableRecord
  2
64
 70
     0
 62
     3
  6
CONTINUOUS
  0
LAYER
  5
61
100
AcDbSymbolTableRecord
100
AcDbLayerTableRecord
  2
65
 70
     0
 62
     3
  6
CONTINUOUS
  0
LAYER
  5
62
100
AcDbSymbolTableRecord
100
AcDbLayerTableRecord
  2
66
 70
     0
 62
     3
  6
CONTINUOUS
  0
LAYER
  5
63
100
AcDbSymbolTableRecord
100
AcDbLayerTableRecord
  2
67
 70
     0
 62
     3
  6
CONTINUOUS
  0
LAYER
  5
64
100
AcDbSymbolTableRecord
100
AcDbLayerTableRecord
  2
68
 70
     0
 62
     3
  6
CONTINUOUS
  0
LAYER
  5
65
100
AcDbSymbolTableRecord
100
AcDbLayerTableRecord
  2
69
 70
     0
 62
     3
  6
CONTINUOUS
  0
LAYER
  5
66
100
AcDbSymbolTableRecord
100
AcDbLayerTableRecord
  2
70
 70
     0
 62
     3
  6
CONTINUOUS
  0
LAYER
  5
67
100
AcDbSymbolTableRecord
100
AcDbLayerTableRecord
  2
71
 70
     0
 62
     3
  6
CONTINUOUS
  0
LAYER
  5
68
100
AcDbSymbolTableRecord
100
AcDbLayerTableRecord
  2
72
 70
     0
 62
     3
  6
CONTINUOUS
  0
LAYER
  5
69
100
AcDbSymbolTableRecord
100
AcDbLayerTableRecord
  2
73
 70
     0
 62
     3
  6
CONTINUOUS
  0
LAYER
  5
6A
100
AcDbSymbolTableRecord
100
AcDbLayerTableRecord
  2
74
 70
     0
 62
     3
  6
CONTINUOUS
  0
LAYER
  5
6B
100
AcDbSymbolTableRecord
100
AcDbLayerTableRecord
  2
75
 70
     0
 62
     3
  6
CONTINUOUS
  0
LAYER
  5
6C
100
AcDbSymbolTableRecord
100
AcDbLayerTableRecord
  2
76
 70
     0
 62
     3
  6
CONTINUOUS
  0
LAYER
  5
6D
100
AcDbSymbolTableRecord
100
AcDbLayerTableRecord
  2
77
 70
     0
 62
     3
  6
CONTINUOUS
  0
LAYER
  5
6E
100
AcDbSymbolTableRecord
100
AcDbLayerTableRecord
  2
78
 70
     0
 62
     3
  6
CONTINUOUS
  0
LAYER
  5
6F
100
AcDbSymbolTableRecord
100
AcDbLayerTableRecord
  2
79
 70
     0
 62
     3
  6
CONTINUOUS
  0
LAYER
  5
70
100
AcDbSymbolTableRecord
100
AcDbLayerTableRecord
  2
80
 70
     0
 62
     3
  6
CONTINUOUS
  0
LAYER
  5
71
100
AcDbSymbolTableRecord
100
AcDbLayerTableRecord
  2
81
 70
     0
 62
     3
  6
CONTINUOUS
  0
LAYER
  5
72
100
AcDbSymbolTableRecord
100
AcDbLayerTableRecord
  2
82
 70
     0
 62
     3
  6
CONTINUOUS
  0
LAYER
  5
73
100
AcDbSymbolTableRecord
100
AcDbLayerTableRecord
  2
83
 70
     0
 62
     3
  6
CONTINUOUS
  0
LAYER
  5
74
100
AcDbSymbolTableRecord
100
AcDbLayerTableRecord
  2
84
 70
     0
 62
     3
  6
CONTINUOUS
  0
LAYER
  5
75
100
AcDbSymbolTableRecord
100
AcDbLayerTableRecord
  2
85
 70
     0
 62
     3
  6
CONTINUOUS
  0
LAYER
  5
76
100
AcDbSymbolTableRecord
100
AcDbLayerTableRecord
  2
86
 70
     0
 62
     3
  6
CONTINUOUS
  0
LAYER
  5
77
100
AcDbSymbolTableRecord
100
AcDbLayerTableRecord
  2
87
 70
     0
 62
     3
  6
CONTINUOUS
  0
LAYER
  5
78
100
AcDbSymbolTableRecord
100
AcDbLayerTableRecord
  2
88
 70
     0
 62
     3
  6
CONTINUOUS
  0
LAYER
  5
79
100
AcDbSymbolTableRecord
100
AcDbLayerTableRecord
  2
89
 70
     0
 62
     3
  6
CONTINUOUS
  0
LAYER
  5
7A
100
AcDbSymbolTableRecord
100
AcDbLayerTableRecord
  2
90
 70
     0
 62
     3
  6
CONTINUOUS
  0
LAYER
  5
7B
100
AcDbSymbolTableRecord
100
AcDbLayerTableRecord
  2
91
 70
     0
 62
     3
  6
CONTINUOUS
  0
LAYER
  5
7C
100
AcDbSymbolTableRecord
100
AcDbLayerTableRecord
  2
92
 70
     0
 62
     3
  6
CONTINUOUS
  0
LAYER
  5
7D
100
AcDbSymbolTableRecord
100
AcDbLayerTableRecord
  2
93
 70
     0
 62
     3
  6
CONTINUOUS
  0
LAYER
  5
7E
100
AcDbSymbolTableRecord
100
AcDbLayerTableRecord
  2
94
 70
     0
 62
     3
  6
CONTINUOUS
  0
LAYER
  5
7F
100
AcDbSymbolTableRecord
100
AcDbLayerTableRecord
  2
95
 70
     0
 62
     3
  6
CONTINUOUS
  0
LAYER
  5
80
100
AcDbSymbolTableRecord
100
AcDbLayerTableRecord
  2
96
 70
     0
 62
     3
  6
CONTINUOUS
  0
LAYER
  5
81
100
AcDbSymbolTableRecord
100
AcDbLayerTableRecord
  2
97
 70
     0
 62
     3
  6
CONTINUOUS
  0
LAYER
  5
82
100
AcDbSymbolTableRecord
100
AcDbLayerTableRecord
  2
98
 70
     0
 62
     3
  6
CONTINUOUS
  0
LAYER
  5
83
100
AcDbSymbolTableRecord
100
AcDbLayerTableRecord
  2
99
 70
     0
 62
     3
  6
CONTINUOUS
  0
LAYER
  5
84
100
AcDbSymbolTableRecord
100
AcDbLayerTableRecord
  2
128
 70
     0
 62
     7
  6
CONTINUOUS
  0
LAYER
  5
85
100
AcDbSymbolTableRecord
100
AcDbLayerTableRecord
  2
129
 70
     0
 62
     3
  6
CONTINUOUS
  0
ENDTAB
  0
TABLE
  2
STYLE
  5
3
100
AcDbSymbolTable
 70
     1
  0
STYLE
  5
17
100
AcDbSymbolTableRecord
100
AcDbTextStyleTableRecord
  2
STANDARD
 70
     0
 40
0.0
 41
1.0
 50
0.0
 71
     0
 42
0.0
  3
txt
  4
bigfont
  0
ENDTAB
  0
TABLE
  2
VIEW
  5
5
100
AcDbSymbolTable
 70
     0
  0
ENDTAB
  0
TABLE
  2
UCS
  5
6
100
AcDbSymbolTable
 70
     0
  0
ENDTAB
  0
TABLE
  2
APPID
  5
8
100
AcDbSymbolTable
 70
     1
  0
APPID
  5
16
100
AcDbSymbolTableRecord
100
AcDbRegAppTableRecord
  2
ACAD
 70
     0
  0
ENDTAB
  0
TABLE
  2
DIMSTYLE
  5
9
100
AcDbSymbolTable
 70
     1
  0
DIMSTYLE
105
18
100
AcDbSymbolTableRecord
100
AcDbDimStyleTableRecord
  2
STANDARD
 70
     0
  3

  4

  5

  6

  7

 40
1.0
 41
0.18
 42
0.0625
 43
0.38
 44
0.18
 45
0.0
 46
0.0
 47
0.0
 48
0.0
140
0.18
141
0.09
142
0.0
143
25.4
144
1.0
145
0.0
146
1.0
147
0.09
 71
     0
 72
     0
 73
     1
 74
     1
 75
     0
 76
     0
 77
     0
 78
     0
170
     0
171
     2
172
     0
173
     0
174
     0
175
     0
176
     0
177
     0
178
     0
270
     2
271
     4
272
     4
273
     2
274
     2
340
17
275
     0
280
     0
281
     0
282
     0
283
     1
284
     0
285
     0
286
     0
287
     0
288
     0
  0
ENDTAB
  0
TABLE
  2
BLOCK_RECORD
  5
1
100
AcDbSymbolTable
 70
    34
  0
BLOCK_RECORD
  5
A
100
AcDbSymbolTableRecord
100
AcDbBlockTableRecord
  2
*MODEL_SPACE
  0
BLOCK_RECORD
  5
B
100
AcDbSymbolTableRecord
100
AcDbBlockTableRecord
  2
*PAPER_SPACE
  0
BLOCK_RECORD
  5
371
100
AcDbSymbolTableRecord
100
AcDbBlockTableRecord
  2
*G0
  0
BLOCK_RECORD
  5
399
100
AcDbSymbolTableRecord
100
AcDbBlockTableRecord
  2
*D1
  0
BLOCK_RECORD
  5
3A5
100
AcDbSymbolTableRecord
100
AcDbBlockTableRecord
  2
*D2
  0
BLOCK_RECORD
  5
3B0
100
AcDbSymbolTableRecord
100
AcDbBlockTableRecord
  2
*D3
  0
BLOCK_RECORD
  5
3BB
100
AcDbSymbolTableRecord
100
AcDbBlockTableRecord
  2
*D4
  0
BLOCK_RECORD
  5
3C7
100
AcDbSymbolTableRecord
100
AcDbBlockTableRecord
  2
*D5
  0
BLOCK_RECORD
  5
3D3
100
AcDbSymbolTableRecord
100
AcDbBlockTableRecord
  2
*D6
  0
BLOCK_RECORD
  5
3DE
100
AcDbSymbolTableRecord
100
AcDbBlockTableRecord
  2
*D7
  0
BLOCK_RECORD
  5
3EA
100
AcDbSymbolTableRecord
100
AcDbBlockTableRecord
  2
*D8
  0
BLOCK_RECORD
  5
3F6
100
AcDbSymbolTableRecord
100
AcDbBlockTableRecord
  2
*D9
  0
BLOCK_RECORD
  5
402
100
AcDbSymbolTableRecord
100
AcDbBlockTableRecord
  2
*D10
  0
BLOCK_RECORD
  5
40D
100
AcDbSymbolTableRecord
100
AcDbBlockTableRecord
  2
*D11
  0
BLOCK_RECORD
  5
418
100
AcDbSymbolTableRecord
100
AcDbBlockTableRecord
  2
*D12
  0
BLOCK_RECORD
  5
423
100
AcDbSymbolTableRecord
100
AcDbBlockTableRecord
  2
*D13
  0
BLOCK_RECORD
  5
433
100
AcDbSymbolTableRecord
100
AcDbBlockTableRecord
  2
*D14
  0
BLOCK_RECORD
  5
442
100
AcDbSymbolTableRecord
100
AcDbBlockTableRecord
  2
*D15
  0
BLOCK_RECORD
  5
44E
100
AcDbSymbolTableRecord
100
AcDbBlockTableRecord
  2
*D16
  0
BLOCK_RECORD
  5
45B
100
AcDbSymbolTableRecord
100
AcDbBlockTableRecord
  2
*D17
  0
BLOCK_RECORD
  5
467
100
AcDbSymbolTableRecord
100
AcDbBlockTableRecord
  2
*D18
  0
BLOCK_RECORD
  5
4A4
100
AcDbSymbolTableRecord
100
AcDbBlockTableRecord
  2
*G19
  0
BLOCK_RECORD
  5
4BA
100
AcDbSymbolTableRecord
100
AcDbBlockTableRecord
  2
*G20
  0
BLOCK_RECORD
  5
4C8
100
AcDbSymbolTableRecord
100
AcDbBlockTableRecord
  2
*G21
  0
BLOCK_RECORD
  5
4D4
100
AcDbSymbolTableRecord
100
AcDbBlockTableRecord
  2
*G22
  0
BLOCK_RECORD
  5
4E2
100
AcDbSymbolTableRecord
100
AcDbBlockTableRecord
  2
*G23
  0
BLOCK_RECORD
  5
4EE
100
AcDbSymbolTableRecord
100
AcDbBlockTableRecord
  2
*G24
  0
BLOCK_RECORD
  5
4FC
100
AcDbSymbolTableRecord
100
AcDbBlockTableRecord
  2
*G25
  0
BLOCK_RECORD
  5
508
100
AcDbSymbolTableRecord
100
AcDbBlockTableRecord
  2
*G26
  0
BLOCK_RECORD
  5
510
100
AcDbSymbolTableRecord
100
AcDbBlockTableRecord
  2
*G27
  0
BLOCK_RECORD
  5
534
100
AcDbSymbolTableRecord
100
AcDbBlockTableRecord
  2
*G28
  0
BLOCK_RECORD
  5
540
100
AcDbSymbolTableRecord
100
AcDbBlockTableRecord
  2
*G29
  0
BLOCK_RECORD
  5
548
100
AcDbSymbolTableRecord
100
AcDbBlockTableRecord
  2
*G30
  0
BLOCK_RECORD
  5
550
100
AcDbSymbolTableRecord
100
AcDbBlockTableRecord
  2
*G31
  0
BLOCK_RECORD
  5
5B9
100
AcDbSymbolTableRecord
100
AcDbBlockTableRecord
  2
*D32
  0
BLOCK_RECORD
  5
5C5
100
AcDbSymbolTableRecord
100
AcDbBlockTableRecord
  2
*G33
  0
ENDTAB
  0
ENDSEC
  0
SECTION
  2
BLOCKS
  0
BLOCK
  5
D
100
AcDbEntity
  8
0
100
AcDbBlockBegin
  2
*MODEL_SPACE
 70
     0
 10
0.0
 20
0.0
 30
0.0
  3
*MODEL_SPACE
  1

  0
ENDBLK
  5
E
100
AcDbEntity
  8
0
100
AcDbBlockEnd
  0
BLOCK
  5
F
100
AcDbEntity
 67
     1
  8
0
100
AcDbBlockBegin
  2
*PAPER_SPACE
 70
     0
 10
0.0
 20
0.0
 30
0.0
  3
*PAPER_SPACE
  1

  0
ENDBLK
  5
10
100
AcDbEntity
 67
     1
  8
0
100
AcDbBlockEnd
  0
BLOCK
  5
372
100
AcDbEntity
  8
97
  6
CONTINUOUS
 62
     3
100
AcDbBlockBegin
  2
*G0
 70
     0
 10
0.0
 20
0.0
 30
0.0
  3
*G0
  1

  0
LINE
  5
373
100
AcDbEntity
  8
97
  6
CONTINUOUS
 62
     3
100
AcDbLine
 10
295.236499
 20
129.641791
 30
0.0
 11
295.236499
 21
85.641791
 31
0.0
  0
LINE
  5
374
100
AcDbEntity
  8
97
  6
CONTINUOUS
 62
     3
100
AcDbLine
 10
295.236499
 20
85.641791
 30
0.0
 11
383.236499
 21
85.641791
 31
0.0
  0
LINE
  5
375
100
AcDbEntity
  8
97
  6
CONTINUOUS
 62
     3
100
AcDbLine
 10
383.236499
 20
85.641791
 30
0.0
 11
383.236499
 21
129.641791
 31
0.0
  0
LINE
  5
376
100
AcDbEntity
  8
97
  6
CONTINUOUS
 62
     3
100
AcDbLine
 10
383.236499
 20
129.641791
 30
0.0
 11
295.236499
 21
129.641791
 31
0.0
  0
ENDBLK
  5
377
100
AcDbEntity
  8
0
100
AcDbBlockEnd
  0
BLOCK
  5
39A
100
AcDbEntity
  8
7
  6
CONTINUOUS
 62
     4
100
AcDbBlockBegin
  2
*D1
 70
     0
 10
0.0
 20
0.0
 30
0.0
  3
*D1
  1

  0
LINE
  5
39B
100
AcDbEntity
  8
7
  6
CONTINUOUS
 62
     4
100
AcDbLine
 10
70.0
 20
516.0
 30
0.0
 11
80.0
 21
516.0
 31
0.0
  0
LINE
  5
39C
100
AcDbEntity
  8
7
  6
CONTINUOUS
 62
     4
100
AcDbLine
 10
70.0
 20
518.0
 30
0.0
 11
70.0
 21
497.0
 31
0.0
  0
LINE
  5
39D
100
AcDbEntity
  8
7
  6
CONTINUOUS
 62
     4
100
AcDbLine
 10
80.0
 20
518.0
 30
0.0
 11
80.0
 21
478.0
 31
0.0
  0
LINE
  5
39E
100
AcDbEntity
  8
7
  6
CONTINUOUS
 62
     4
100
AcDbLine
 10
70.0
 20
516.0
 30
0.0
 11
73.863703
 21
517.035276
 31
0.0
  0
LINE
  5
39F
100
AcDbEntity
  8
7
  6
CONTINUOUS
 62
     4
100
AcDbLine
 10
70.0
 20
516.0
 30
0.0
 11
73.863703
 21
514.964724
 31
0.0
  0
LINE
  5
3A0
100
AcDbEntity
  8
7
  6
CONTINUOUS
 62
     4
100
AcDbLine
 10
80.0
 20
516.0
 30
0.0
 11
76.136297
 21
514.964724
 31
0.0
  0
LINE
  5
3A1
100
AcDbEntity
  8
7
  6
CONTINUOUS
 62
     4
100
AcDbLine
 10
80.0
 20
516.0
 30
0.0
 11
76.136297
 21
517.035276
 31
0.0
  0
TEXT
  5
3A2
100
AcDbEntity
  8
7
  6
CONTINUOUS
 62
     4
100
AcDbText
 10
72.0
 20
516.0
 30
0.0
 40
6.0
  1
10
 41
0.5
 11
72.0
 21
516.0
 31
0.0
100
AcDbText
 73
     1
  0
ENDBLK
  5
3A3
100
AcDbEntity
  8
7
  6
CONTINUOUS
 62
     4
100
AcDbBlockEnd
  0
BLOCK
  5
3A6
100
AcDbEntity
  8
7
  6
CONTINUOUS
 62
     4
100
AcDbBlockBegin
  2
*D2
 70
     0
 10
0.0
 20
0.0
 30
0.0
  3
*D2
  1

  0
LINE
  5
3A7
100
AcDbEntity
  8
7
  6
CONTINUOUS
 62
     4
100
AcDbLine
 10
80.0
 20
516.0
 30
0.0
 11
320.0
 21
516.0
 31
0.0
  0
LINE
  5
3A8
100
AcDbEntity
  8
7
  6
CONTINUOUS
 62
     4
100
AcDbLine
 10
320.0
 20
518.0
 30
0.0
 11
320.0
 21
478.0
 31
0.0
  0
LINE
  5
3A9
100
AcDbEntity
  8
7
  6
CONTINUOUS
 62
     4
100
AcDbLine
 10
80.0
 20
516.0
 30
0.0
 11
83.863703
 21
517.035276
 31
0.0
  0
LINE
  5
3AA
100
AcDbEntity
  8
7
  6
CONTINUOUS
 62
     4
100
AcDbLine
 10
80.0
 20
516.0
 30
0.0
 11
83.863703
 21
514.964724
 31
0.0
  0
LINE
  5
3AB
100
AcDbEntity
  8
7
  6
CONTINUOUS
 62
     4
100
AcDbLine
 10
320.0
 20
516.0
 30
0.0
 11
316.136297
 21
514.964724
 31
0.0
  0
LINE
  5
3AC
100
AcDbEntity
  8
7
  6
CONTINUOUS
 62
     4
100
AcDbLine
 10
320.0
 20
516.0
 30
0.0
 11
316.136297
 21
517.035276
 31
0.0
  0
TEXT
  5
3AD
100
AcDbEntity
  8
7
  6
CONTINUOUS
 62
     4
100
AcDbText
 10
195.5
 20
516.0
 30
0.0
 40
6.0
  1
240
 41
0.5
 11
195.5
 21
516.0
 31
0.0
100
AcDbText
 73
     1
  0
ENDBLK
  5
3AE
100
AcDbEntity
  8
7
  6
CONTINUOUS
 62
     4
100
AcDbBlockEnd
  0
BLOCK
  5
3B1
100
AcDbEntity
  8
7
  6
CONTINUOUS
 62
     4
100
AcDbBlockBegin
  2
*D3
 70
     0
 10
0.0
 20
0.0
 30
0.0
  3
*D3
  1

  0
LINE
  5
3B2
100
AcDbEntity
  8
7
  6
CONTINUOUS
 62
     4
100
AcDbLine
 10
320.0
 20
516.0
 30
0.0
 11
330.0
 21
516.0
 31
0.0
  0
LINE
  5
3B3
100
AcDbEntity
  8
7
  6
CONTINUOUS
 62
     4
100
AcDbLine
 10
330.0
 20
518.0
 30
0.0
 11
330.0
 21
503.0
 31
0.0
  0
LINE
  5
3B4
100
AcDbEntity
  8
7
  6
CONTINUOUS
 62
     4
100
AcDbLine
 10
320.0
 20
516.0
 30
0.0
 11
323.863703
 21
517.035276
 31
0.0
  0
LINE
  5
3B5
100
AcDbEntity
  8
7
  6
CONTINUOUS
 62
     4
100
AcDbLine
 10
320.0
 20
516.0
 30
0.0
 11
323.863703
 21
514.964724
 31
0.0
  0
LINE
  5
3B6
100
AcDbEntity
  8
7
  6
CONTINUOUS
 62
     4
100
AcDbLine
 10
330.0
 20
516.0
 30
0.0
 11
326.136297
 21
514.964724
 31
0.0
  0
LINE
  5
3B7
100
AcDbEntity
  8
7
  6
CONTINUOUS
 62
     4
100
AcDbLine
 10
330.0
 20
516.0
 30
0.0
 11
326.136297
 21
517.035276
 31
0.0
  0
TEXT
  5
3B8
100
AcDbEntity
  8
7
  6
CONTINUOUS
 62
     4
100
AcDbText
 10
319.0
 20
516.0
 30
0.0
 40
6.0
  1
(10)
 41
0.5
 11
319.0
 21
516.0
 31
0.0
100
AcDbText
 73
     1
  0
ENDBLK
  5
3B9
100
AcDbEntity
  8
7
  6
CONTINUOUS
 62
     4
100
AcDbBlockEnd
  0
BLOCK
  5
3BC
100
AcDbEntity
  8
7
  6
CONTINUOUS
 62
     4
100
AcDbBlockBegin
  2
*D4
 70
     0
 10
0.0
 20
0.0
 30
0.0
  3
*D4
  1

  0
LINE
  5
3BD
100
AcDbEntity
  8
7
  6
CONTINUOUS
 62
     4
100
AcDbLine
 10
370.0
 20
341.0
 30
0.0
 11
370.0
 21
501.0
 31
0.0
  0
LINE
  5
3BE
100
AcDbEntity
  8
7
  6
CONTINUOUS
 62
     4
100
AcDbLine
 10
372.0
 20
341.0
 30
0.0
 11
326.0
 21
341.0
 31
0.0
  0
LINE
  5
3BF
100
AcDbEntity
  8
7
  6
CONTINUOUS
 62
     4
100
AcDbLine
 10
372.0
 20
501.0
 30
0.0
 11
326.0
 21
501.0
 31
0.0
  0
LINE
  5
3C0
100
AcDbEntity
  8
7
  6
CONTINUOUS
 62
     4
100
AcDbLine
 10
370.0
 20
341.0
 30
0.0
 11
368.964724
 21
344.863703
 31
0.0
  0
LINE
  5
3C1
100
AcDbEntity
  8
7
  6
CONTINUOUS
 62
     4
100
AcDbLine
 10
370.0
 20
341.0
 30
0.0
 11
371.035276
 21
344.863703
 31
0.0
  0
LINE
  5
3C2
100
AcDbEntity
  8
7
  6
CONTINUOUS
 62
     4
100
AcDbLine
 10
370.0
 20
501.0
 30
0.0
 11
371.035276
 21
497.136297
 31
0.0
  0
LINE
  5
3C3
100
AcDbEntity
  8
7
  6
CONTINUOUS
 62
     4
100
AcDbLine
 10
370.0
 20
501.0
 30
0.0
 11
368.964724
 21
497.136297
 31
0.0
  0
TEXT
  5
3C4
100
AcDbEntity
  8
7
  6
CONTINUOUS
 62
     4
100
AcDbText
 10
370.0
 20
416.5
 30
0.0
 40
6.0
  1
160
 50
90.0
 41
0.5
 11
370.0
 21
416.5
 31
0.0
100
AcDbText
 73
     1
  0
ENDBLK
  5
3C5
100
AcDbEntity
  8
7
  6
CONTINUOUS
 62
     4
100
AcDbBlockEnd
  0
BLOCK
  5
3C8
100
AcDbEntity
  8
7
  6
CONTINUOUS
 62
     4
100
AcDbBlockBegin
  2
*D5
 70
     0
 10
0.0
 20
0.0
 30
0.0
  3
*D5
  1

  0
LINE
  5
3C9
100
AcDbEntity
  8
7
  6
CONTINUOUS
 62
     4
100
AcDbLine
 10
350.0
 20
341.0
 30
0.0
 11
350.0
 21
366.0
 31
0.0
  0
LINE
  5
3CA
100
AcDbEntity
  8
7
  6
CONTINUOUS
 62
     4
100
AcDbLine
 10
352.0
 20
341.0
 30
0.0
 11
326.0
 21
341.0
 31
0.0
  0
LINE
  5
3CB
100
AcDbEntity
  8
7
  6
CONTINUOUS
 62
     4
100
AcDbLine
 10
352.0
 20
366.0
 30
0.0
 11
322.0
 21
366.0
 31
0.0
  0
LINE
  5
3CC
100
AcDbEntity
  8
7
  6
CONTINUOUS
 62
     4
100
AcDbLine
 10
350.0
 20
341.0
 30
0.0
 11
348.964724
 21
344.863703
 31
0.0
  0
LINE
  5
3CD
100
AcDbEntity
  8
7
  6
CONTINUOUS
 62
     4
100
AcDbLine
 10
350.0
 20
341.0
 30
0.0
 11
351.035276
 21
344.863703
 31
0.0
  0
LINE
  5
3CE
100
AcDbEntity
  8
7
  6
CONTINUOUS
 62
     4
100
AcDbLine
 10
350.0
 20
366.0
 30
0.0
 11
351.035276
 21
362.136297
 31
0.0
  0
LINE
  5
3CF
100
AcDbEntity
  8
7
  6
CONTINUOUS
 62
     4
100
AcDbLine
 10
350.0
 20
366.0
 30
0.0
 11
348.964724
 21
362.136297
 31
0.0
  0
TEXT
  5
3D0
100
AcDbEntity
  8
7
  6
CONTINUOUS
 62
     4
100
AcDbText
 10
350.0
 20
350.5
 30
0.0
 40
6.0
  1
25
 50
90.0
 41
0.5
 11
350.0
 21
350.5
 31
0.0
100
AcDbText
 73
     1
  0
ENDBLK
  5
3D1
100
AcDbEntity
  8
7
  6
CONTINUOUS
 62
     4
100
AcDbBlockEnd
  0
BLOCK
  5
3D4
100
AcDbEntity
  8
7
  6
CONTINUOUS
 62
     4
100
AcDbBlockBegin
  2
*D6
 70
     0
 10
0.0
 20
0.0
 30
0.0
  3
*D6
  1

  0
LINE
  5
3D5
100
AcDbEntity
  8
7
  6
CONTINUOUS
 62
     4
100
AcDbLine
 10
350.0
 20
366.0
 30
0.0
 11
350.0
 21
476.0
 31
0.0
  0
LINE
  5
3D6
100
AcDbEntity
  8
7
  6
CONTINUOUS
 62
     4
100
AcDbLine
 10
352.0
 20
476.0
 30
0.0
 11
322.0
 21
476.0
 31
0.0
  0
LINE
  5
3D7
100
AcDbEntity
  8
7
  6
CONTINUOUS
 62
     4
100
AcDbLine
 10
350.0
 20
366.0
 30
0.0
 11
348.964724
 21
369.863703
 31
0.0
  0
LINE
  5
3D8
100
AcDbEntity
  8
7
  6
CONTINUOUS
 62
     4
100
AcDbLine
 10
350.0
 20
366.0
 30
0.0
 11
351.035276
 21
369.863703
 31
0.0
  0
LINE
  5
3D9
100
AcDbEntity
  8
7
  6
CONTINUOUS
 62
     4
100
AcDbLine
 10
350.0
 20
476.0
 30
0.0
 11
351.035276
 21
472.136297
 31
0.0
  0
LINE
  5
3DA
100
AcDbEntity
  8
7
  6
CONTINUOUS
 62
     4
100
AcDbLine
 10
350.0
 20
476.0
 30
0.0
 11
348.964724
 21
472.136297
 31
0.0
  0
TEXT
  5
3DB
100
AcDbEntity
  8
7
  6
CONTINUOUS
 62
     4
100
AcDbText
 10
350.0
 20
416.5
 30
0.0
 40
6.0
  1
110
 50
90.0
 41
0.5
 11
350.0
 21
416.5
 31
0.0
100
AcDbText
 73
     1
  0
ENDBLK
  5
3DC
100
AcDbEntity
  8
7
  6
CONTINUOUS
 62
     4
100
AcDbBlockEnd
  0
BLOCK
  5
3DF
100
AcDbEntity
  8
7
  6
CONTINUOUS
 62
     4
100
AcDbBlockBegin
  2
*D7
 70
     0
 10
0.0
 20
0.0
 30
0.0
  3
*D7
  1

  0
LINE
  5
3E0
100
AcDbEntity
  8
7
  6
CONTINUOUS
 62
     4
100
AcDbLine
 10
350.0
 20
476.0
 30
0.0
 11
350.0
 21
501.0
 31
0.0
  0
LINE
  5
3E1
100
AcDbEntity
  8
7
  6
CONTINUOUS
 62
     4
100
AcDbLine
 10
352.0
 20
501.0
 30
0.0
 11
326.0
 21
501.0
 31
0.0
  0
LINE
  5
3E2
100
AcDbEntity
  8
7
  6
CONTINUOUS
 62
     4
100
AcDbLine
 10
350.0
 20
476.0
 30
0.0
 11
348.964724
 21
479.863703
 31
0.0
  0
LINE
  5
3E3
100
AcDbEntity
  8
7
  6
CONTINUOUS
 62
     4
100
AcDbLine
 10
350.0
 20
476.0
 30
0.0
 11
351.035276
 21
479.863703
 31
0.0
  0
LINE
  5
3E4
100
AcDbEntity
  8
7
  6
CONTINUOUS
 62
     4
100
AcDbLine
 10
350.0
 20
501.0
 30
0.0
 11
351.035276
 21
497.136297
 31
0.0
  0
LINE
  5
3E5
100
AcDbEntity
  8
7
  6
CONTINUOUS
 62
     4
100
AcDbLine
 10
350.0
 20
501.0
 30
0.0
 11
348.964724
 21
497.136297
 31
0.0
  0
TEXT
  5
3E6
100
AcDbEntity
  8
7
  6
CONTINUOUS
 62
     4
100
AcDbText
 10
350.0
 20
479.5
 30
0.0
 40
6.0
  1
（25）
 50
90.0
 41
0.681818
 11
350.0
 21
479.5
 31
0.0
100
AcDbText
 73
     1
  0
ENDBLK
  5
3E7
100
AcDbEntity
  8
7
  6
CONTINUOUS
 62
     4
100
AcDbBlockEnd
  0
BLOCK
  5
3EB
100
AcDbEntity
  8
7
  6
CONTINUOUS
 62
     4
100
AcDbBlockBegin
  2
*D8
 70
     0
 10
0.0
 20
0.0
 30
0.0
  3
*D8
  1

  0
LINE
  5
3EC
100
AcDbEntity
  8
7
  6
CONTINUOUS
 62
     4
100
AcDbLine
 10
70.0
 20
531.0
 30
0.0
 11
330.0
 21
531.0
 31
0.0
  0
LINE
  5
3ED
100
AcDbEntity
  8
7
  6
CONTINUOUS
 62
     4
100
AcDbLine
 10
70.0
 20
533.0
 30
0.0
 11
70.0
 21
497.0
 31
0.0
  0
LINE
  5
3EE
100
AcDbEntity
  8
7
  6
CONTINUOUS
 62
     4
100
AcDbLine
 10
330.0
 20
533.0
 30
0.0
 11
330.0
 21
497.0
 31
0.0
  0
LINE
  5
3EF
100
AcDbEntity
  8
7
  6
CONTINUOUS
 62
     4
100
AcDbLine
 10
70.0
 20
531.0
 30
0.0
 11
73.863703
 21
532.035276
 31
0.0
  0
LINE
  5
3F0
100
AcDbEntity
  8
7
  6
CONTINUOUS
 62
     4
100
AcDbLine
 10
70.0
 20
531.0
 30
0.0
 11
73.863703
 21
529.964724
 31
0.0
  0
LINE
  5
3F1
100
AcDbEntity
  8
7
  6
CONTINUOUS
 62
     4
100
AcDbLine
 10
330.0
 20
531.0
 30
0.0
 11
326.136297
 21
529.964724
 31
0.0
  0
LINE
  5
3F2
100
AcDbEntity
  8
7
  6
CONTINUOUS
 62
     4
100
AcDbLine
 10
330.0
 20
531.0
 30
0.0
 11
326.136297
 21
532.035276
 31
0.0
  0
TEXT
  5
3F3
100
AcDbEntity
  8
7
  6
CONTINUOUS
 62
     4
100
AcDbText
 10
195.5
 20
531.0
 30
0.0
 40
6.0
  1
260
 41
0.5
 11
195.5
 21
531.0
 31
0.0
100
AcDbText
 73
     1
  0
ENDBLK
  5
3F4
100
AcDbEntity
  8
7
  6
CONTINUOUS
 62
     4
100
AcDbBlockEnd
  0
BLOCK
  5
3F7
100
AcDbEntity
  8
7
  6
CONTINUOUS
 62
     4
100
AcDbBlockBegin
  2
*D9
 70
     0
 10
0.0
 20
0.0
 30
0.0
  3
*D9
  1

  0
LINE
  5
3F8
100
AcDbEntity
  8
7
  6
CONTINUOUS
 62
     4
100
AcDbLine
 10
70.0
 20
280.062314
 30
0.0
 11
119.5
 21
280.062314
 31
0.0
  0
LINE
  5
3F9
100
AcDbEntity
  8
7
  6
CONTINUOUS
 62
     4
100
AcDbLine
 10
70.0
 20
278.062314
 30
0.0
 11
70.0
 21
345.0
 31
0.0
  0
LINE
  5
3FA
100
AcDbEntity
  8
7
  6
CONTINUOUS
 62
     4
100
AcDbLine
 10
119.5
 20
278.062314
 30
0.0
 11
119.5
 21
299.6
 31
0.0
  0
LINE
  5
3FB
100
AcDbEntity
  8
7
  6
CONTINUOUS
 62
     4
100
AcDbLine
 10
70.0
 20
280.062314
 30
0.0
 11
73.863703
 21
281.09759
 31
0.0
  0
LINE
  5
3FC
100
AcDbEntity
  8
7
  6
CONTINUOUS
 62
     4
100
AcDbLine
 10
70.0
 20
280.062314
 30
0.0
 11
73.863703
 21
279.027038
 31
0.0
  0
LINE
  5
3FD
100
AcDbEntity
  8
7
  6
CONTINUOUS
 62
     4
100
AcDbLine
 10
119.5
 20
280.062314
 30
0.0
 11
115.636297
 21
279.027038
 31
0.0
  0
LINE
  5
3FE
100
AcDbEntity
  8
7
  6
CONTINUOUS
 62
     4
100
AcDbLine
 10
119.5
 20
280.062314
 30
0.0
 11
115.636297
 21
281.09759
 31
0.0
  0
TEXT
  5
3FF
100
AcDbEntity
  8
7
  6
CONTINUOUS
 62
     4
100
AcDbText
 10
88.75
 20
280.062314
 30
0.0
 40
6.0
  1
49.5
 41
0.555556
 11
88.75
 21
280.062314
 31
0.0
100
AcDbText
 73
     1
  0
ENDBLK
  5
400
100
AcDbEntity
  8
7
  6
CONTINUOUS
 62
     4
100
AcDbBlockEnd
  0
BLOCK
  5
403
100
AcDbEntity
  8
7
  6
CONTINUOUS
 62
     4
100
AcDbBlockBegin
  2
*D10
 70
     0
 10
0.0
 20
0.0
 30
0.0
  3
*D10
  1

  0
LINE
  5
404
100
AcDbEntity
  8
7
  6
CONTINUOUS
 62
     4
100
AcDbLine
 10
119.5
 20
280.062314
 30
0.0
 11
169.5
 21
280.062314
 31
0.0
  0
LINE
  5
405
100
AcDbEntity
  8
7
  6
CONTINUOUS
 62
     4
100
AcDbLine
 10
169.5
 20
278.062314
 30
0.0
 11
169.5
 21
299.6
 31
0.0
  0
LINE
  5
406
100
AcDbEntity
  8
7
  6
CONTINUOUS
 62
     4
100
AcDbLine
 10
119.5
 20
280.062314
 30
0.0
 11
123.363703
 21
281.09759
 31
0.0
  0
LINE
  5
407
100
AcDbEntity
  8
7
  6
CONTINUOUS
 62
     4
100
AcDbLine
 10
119.5
 20
280.062314
 30
0.0
 11
123.363703
 21
279.027038
 31
0.0
  0
LINE
  5
408
100
AcDbEntity
  8
7
  6
CONTINUOUS
 62
     4
100
AcDbLine
 10
169.5
 20
280.062314
 30
0.0
 11
165.636297
 21
279.027038
 31
0.0
  0
LINE
  5
409
100
AcDbEntity
  8
7
  6
CONTINUOUS
 62
     4
100
AcDbLine
 10
169.5
 20
280.062314
 30
0.0
 11
165.636297
 21
281.09759
 31
0.0
  0
TEXT
  5
40A
100
AcDbEntity
  8
7
  6
CONTINUOUS
 62
     4
100
AcDbText
 10
141.5
 20
280.062314
 30
0.0
 40
6.0
  1
50
 41
0.5
 11
141.5
 21
280.062314
 31
0.0
100
AcDbText
 73
     1
  0
ENDBLK
  5
40B
100
AcDbEntity
  8
7
  6
CONTINUOUS
 62
     4
100
AcDbBlockEnd
  0
BLOCK
  5
40E
100
AcDbEntity
  8
7
  6
CONTINUOUS
 62
     4
100
AcDbBlockBegin
  2
*D11
 70
     0
 10
0.0
 20
0.0
 30
0.0
  3
*D11
  1

  0
LINE
  5
40F
100
AcDbEntity
  8
7
  6
CONTINUOUS
 62
     4
100
AcDbLine
 10
169.5
 20
280.062314
 30
0.0
 11
219.5
 21
280.062314
 31
0.0
  0
LINE
  5
410
100
AcDbEntity
  8
7
  6
CONTINUOUS
 62
     4
100
AcDbLine
 10
219.5
 20
278.062314
 30
0.0
 11
219.5
 21
299.6
 31
0.0
  0
LINE
  5
411
100
AcDbEntity
  8
7
  6
CONTINUOUS
 62
     4
100
AcDbLine
 10
169.5
 20
280.062314
 30
0.0
 11
173.363703
 21
281.09759
 31
0.0
  0
LINE
  5
412
100
AcDbEntity
  8
7
  6
CONTINUOUS
 62
     4
100
AcDbLine
 10
169.5
 20
280.062314
 30
0.0
 11
173.363703
 21
279.027038
 31
0.0
  0
LINE
  5
413
100
AcDbEntity
  8
7
  6
CONTINUOUS
 62
     4
100
AcDbLine
 10
219.5
 20
280.062314
 30
0.0
 11
215.636297
 21
279.027038
 31
0.0
  0
LINE
  5
414
100
AcDbEntity
  8
7
  6
CONTINUOUS
 62
     4
100
AcDbLine
 10
219.5
 20
280.062314
 30
0.0
 11
215.636297
 21
281.09759
 31
0.0
  0
TEXT
  5
415
100
AcDbEntity
  8
7
  6
CONTINUOUS
 62
     4
100
AcDbText
 10
191.5
 20
280.062314
 30
0.0
 40
6.0
  1
50
 41
0.5
 11
191.5
 21
280.062314
 31
0.0
100
AcDbText
 73
     1
  0
ENDBLK
  5
416
100
AcDbEntity
  8
7
  6
CONTINUOUS
 62
     4
100
AcDbBlockEnd
  0
BLOCK
  5
419
100
AcDbEntity
  8
7
  6
CONTINUOUS
 62
     4
100
AcDbBlockBegin
  2
*D12
 70
     0
 10
0.0
 20
0.0
 30
0.0
  3
*D12
  1

  0
LINE
  5
41A
100
AcDbEntity
  8
7
  6
CONTINUOUS
 62
     4
100
AcDbLine
 10
219.5
 20
280.062314
 30
0.0
 11
277.5
 21
280.062314
 31
0.0
  0
LINE
  5
41B
100
AcDbEntity
  8
7
  6
CONTINUOUS
 62
     4
100
AcDbLine
 10
277.5
 20
278.062314
 30
0.0
 11
277.5
 21
290.0
 31
0.0
  0
LINE
  5
41C
100
AcDbEntity
  8
7
  6
CONTINUOUS
 62
     4
100
AcDbLine
 10
219.5
 20
280.062314
 30
0.0
 11
223.363703
 21
281.09759
 31
0.0
  0
LINE
  5
41D
100
AcDbEntity
  8
7
  6
CONTINUOUS
 62
     4
100
AcDbLine
 10
219.5
 20
280.062314
 30
0.0
 11
223.363703
 21
279.027038
 31
0.0
  0
LINE
  5
41E
100
AcDbEntity
  8
7
  6
CONTINUOUS
 62
     4
100
AcDbLine
 10
277.5
 20
280.062314
 30
0.0
 11
273.636297
 21
279.027038
 31
0.0
  0
LINE
  5
41F
100
AcDbEntity
  8
7
  6
CONTINUOUS
 62
     4
100
AcDbLine
 10
277.5
 20
280.062314
 30
0.0
 11
273.636297
 21
281.09759
 31
0.0
  0
TEXT
  5
420
100
AcDbEntity
  8
7
  6
CONTINUOUS
 62
     4
100
AcDbText
 10
245.5
 20
280.062314
 30
0.0
 40
6.0
  1
58
 41
0.5
 11
245.5
 21
280.062314
 31
0.0
100
AcDbText
 73
     1
  0
ENDBLK
  5
421
100
AcDbEntity
  8
7
  6
CONTINUOUS
 62
     4
100
AcDbBlockEnd
  0
BLOCK
  5
424
100
AcDbEntity
  8
7
  6
CONTINUOUS
 62
     4
100
AcDbBlockBegin
  2
*D13
 70
     0
 10
0.0
 20
0.0
 30
0.0
  3
*D13
  1

  0
LINE
  5
425
100
AcDbEntity
  8
7
  6
CONTINUOUS
 62
     4
100
AcDbLine
 10
277.5
 20
280.062314
 30
0.0
 11
330.0
 21
280.062314
 31
0.0
  0
LINE
  5
426
100
AcDbEntity
  8
7
  6
CONTINUOUS
 62
     4
100
AcDbLine
 10
330.0
 20
278.062314
 30
0.0
 11
330.0
 21
345.0
 31
0.0
  0
LINE
  5
427
100
AcDbEntity
  8
7
  6
CONTINUOUS
 62
     4
100
AcDbLine
 10
277.5
 20
280.062314
 30
0.0
 11
281.363703
 21
281.09759
 31
0.0
  0
LINE
  5
428
100
AcDbEntity
  8
7
  6
CONTINUOUS
 62
     4
100
AcDbLine
 10
277.5
 20
280.062314
 30
0.0
 11
281.363703
 21
279.027038
 31
0.0
  0
LINE
  5
429
100
AcDbEntity
  8
7
  6
CONTINUOUS
 62
     4
100
AcDbLine
 10
330.0
 20
280.062314
 30
0.0
 11
326.136297
 21
279.027038
 31
0.0
  0
LINE
  5
42A
100
AcDbEntity
  8
7
  6
CONTINUOUS
 62
     4
100
AcDbLine
 10
330.0
 20
280.062314
 30
0.0
 11
326.136297
 21
281.09759
 31
0.0
  0
TEXT
  5
42B
100
AcDbEntity
  8
7
  6
CONTINUOUS
 62
     4
100
AcDbText
 10
294.75
 20
280.062314
 30
0.0
 40
6.0
  1
(52.5)
 41
0.535714
 11
294.75
 21
280.062314
 31
0.0
100
AcDbText
 73
     1
  0
ENDBLK
  5
42C
100
AcDbEntity
  8
7
  6
CONTINUOUS
 62
     4
100
AcDbBlockEnd
  0
BLOCK
  5
434
100
AcDbEntity
  8
7
  6
CONTINUOUS
 62
     4
100
AcDbBlockBegin
  2
*D14
 70
     0
 10
0.0
 20
0.0
 30
0.0
  3
*D14
  1

  0
LINE
  5
435
100
AcDbEntity
  8
7
  6
CONTINUOUS
 62
     4
100
AcDbLine
 10
57.312
 20
170.0
 30
0.0
 11
57.312
 21
214.6
 31
0.0
  0
LINE
  5
436
100
AcDbEntity
  8
7
  6
CONTINUOUS
 62
     4
100
AcDbLine
 10
55.312
 20
170.0
 30
0.0
 11
73.0
 21
170.0
 31
0.0
  0
LINE
  5
437
100
AcDbEntity
  8
7
  6
CONTINUOUS
 62
     4
100
AcDbLine
 10
55.312
 20
214.6
 30
0.0
 11
96.054132
 21
214.6
 31
0.0
  0
LINE
  5
438
100
AcDbEntity
  8
7
  6
CONTINUOUS
 62
     4
100
AcDbLine
 10
57.312
 20
170.0
 30
0.0
 11
56.276724
 21
173.863703
 31
0.0
  0
LINE
  5
439
100
AcDbEntity
  8
7
  6
CONTINUOUS
 62
     4
100
AcDbLine
 10
57.312
 20
170.0
 30
0.0
 11
58.347277
 21
173.863703
 31
0.0
  0
LINE
  5
43A
100
AcDbEntity
  8
7
  6
CONTINUOUS
 62
     4
100
AcDbLine
 10
57.312
 20
214.6
 30
0.0
 11
58.347277
 21
210.736297
 31
0.0
  0
LINE
  5
43B
100
AcDbEntity
  8
7
  6
CONTINUOUS
 62
     4
100
AcDbLine
 10
57.312
 20
214.6
 30
0.0
 11
56.276724
 21
210.736297
 31
0.0
  0
TEXT
  5
43C
100
AcDbEntity
  8
7
  6
CONTINUOUS
 62
     4
100
AcDbText
 10
57.312
 20
186.3
 30
0.0
 40
6.0
  1
44.6
 50
90.0
 41
0.555556
 11
57.312
 21
186.3
 31
0.0
100
AcDbText
 73
     1
  0
ENDBLK
  5
43D
100
AcDbEntity
  8
7
  6
CONTINUOUS
 62
     4
100
AcDbBlockEnd
  0
BLOCK
  5
443
100
AcDbEntity
  8
7
  6
CONTINUOUS
 62
     4
100
AcDbBlockBegin
  2
*D15
 70
     0
 10
0.0
 20
0.0
 30
0.0
  3
*D15
  1

  0
LINE
  5
444
100
AcDbEntity
  8
7
  6
CONTINUOUS
 62
     4
100
AcDbLine
 10
370.0
 20
170.0
 30
0.0
 11
370.0
 21
261.0
 31
0.0
  0
LINE
  5
445
100
AcDbEntity
  8
7
  6
CONTINUOUS
 62
     4
100
AcDbLine
 10
372.0
 20
170.0
 30
0.0
 11
327.0
 21
170.0
 31
0.0
  0
LINE
  5
446
100
AcDbEntity
  8
7
  6
CONTINUOUS
 62
     4
100
AcDbLine
 10
372.0
 20
261.0
 30
0.0
 11
330.0
 21
261.0
 31
0.0
  0
LINE
  5
447
100
AcDbEntity
  8
7
  6
CONTINUOUS
 62
     4
100
AcDbLine
 10
370.0
 20
170.0
 30
0.0
 11
368.964724
 21
173.863703
 31
0.0
  0
LINE
  5
448
100
AcDbEntity
  8
7
  6
CONTINUOUS
 62
     4
100
AcDbLine
 10
370.0
 20
170.0
 30
0.0
 11
371.035276
 21
173.863703
 31
0.0
  0
LINE
  5
449
100
AcDbEntity
  8
7
  6
CONTINUOUS
 62
     4
100
AcDbLine
 10
370.0
 20
261.0
 30
0.0
 11
371.035276
 21
257.136297
 31
0.0
  0
LINE
  5
44A
100
AcDbEntity
  8
7
  6
CONTINUOUS
 62
     4
100
AcDbLine
 10
370.0
 20
261.0
 30
0.0
 11
368.964724
 21
257.136297
 31
0.0
  0
TEXT
  5
44B
100
AcDbEntity
  8
7
  6
CONTINUOUS
 62
     4
100
AcDbText
 10
370.0
 20
212.5
 30
0.0
 40
6.0
  1
91
 50
90.0
 41
0.5
 11
370.0
 21
212.5
 31
0.0
100
AcDbText
 73
     1
  0
ENDBLK
  5
44C
100
AcDbEntity
  8
7
  6
CONTINUOUS
 62
     4
100
AcDbBlockEnd
  0
BLOCK
  5
44F
100
AcDbEntity
  8
7
  6
CONTINUOUS
 62
     4
100
AcDbBlockBegin
  2
*D16
 70
     0
 10
0.0
 20
0.0
 30
0.0
  3
*D16
  1

  0
LINE
  5
450
100
AcDbEntity
  8
7
  6
CONTINUOUS
 62
     4
100
AcDbLine
 10
350.0
 20
170.0
 30
0.0
 11
350.0
 21
217.0
 31
0.0
  0
LINE
  5
451
100
AcDbEntity
  8
7
  6
CONTINUOUS
 62
     4
100
AcDbLine
 10
352.0
 20
170.0
 30
0.0
 11
327.0
 21
170.0
 31
0.0
  0
LINE
  5
452
100
AcDbEntity
  8
7
  6
CONTINUOUS
 62
     4
100
AcDbLine
 10
352.0
 20
217.0
 30
0.0
 11
304.579636
 21
217.0
 31
0.0
  0
LINE
  5
453
100
AcDbEntity
  8
7
  6
CONTINUOUS
 62
     4
100
AcDbLine
 10
350.0
 20
170.0
 30
0.0
 11
348.964724
 21
173.863703
 31
0.0
  0
LINE
  5
454
100
AcDbEntity
  8
7
  6
CONTINUOUS
 62
     4
100
AcDbLine
 10
350.0
 20
170.0
 30
0.0
 11
351.035276
 21
173.863703
 31
0.0
  0
LINE
  5
455
100
AcDbEntity
  8
7
  6
CONTINUOUS
 62
     4
100
AcDbLine
 10
350.0
 20
217.0
 30
0.0
 11
351.035276
 21
213.136297
 31
0.0
  0
LINE
  5
456
100
AcDbEntity
  8
7
  6
CONTINUOUS
 62
     4
100
AcDbLine
 10
350.0
 20
217.0
 30
0.0
 11
348.964724
 21
213.136297
 31
0.0
  0
TEXT
  5
457
100
AcDbEntity
  8
7
  6
CONTINUOUS
 62
     4
100
AcDbText
 10
350.0
 20
190.5
 30
0.0
 40
6.0
  1
47
 50
90.0
 41
0.5
 11
350.0
 21
190.5
 31
0.0
100
AcDbText
 73
     1
  0
ENDBLK
  5
458
100
AcDbEntity
  8
7
  6
CONTINUOUS
 62
     4
100
AcDbBlockEnd
  0
BLOCK
  5
45C
100
AcDbEntity
  8
7
  6
CONTINUOUS
 62
     4
100
AcDbBlockBegin
  2
*D17
 70
     0
 10
0.0
 20
0.0
 30
0.0
  3
*D17
  1

  0
LINE
  5
45D
100
AcDbEntity
  8
7
  6
CONTINUOUS
 62
     4
100
AcDbLine
 10
70.0
 20
147.712326
 30
0.0
 11
234.5
 21
147.712326
 31
0.0
  0
LINE
  5
45E
100
AcDbEntity
  8
7
  6
CONTINUOUS
 62
     4
100
AcDbLine
 10
70.0
 20
145.712326
 30
0.0
 11
70.0
 21
171.0
 31
0.0
  0
LINE
  5
45F
100
AcDbEntity
  8
7
  6
CONTINUOUS
 62
     4
100
AcDbLine
 10
234.5
 20
145.712326
 30
0.0
 11
234.5
 21
177.5
 31
0.0
  0
LINE
  5
460
100
AcDbEntity
  8
7
  6
CONTINUOUS
 62
     4
100
AcDbLine
 10
70.0
 20
147.712326
 30
0.0
 11
73.863703
 21
148.747602
 31
0.0
  0
LINE
  5
461
100
AcDbEntity
  8
7
  6
CONTINUOUS
 62
     4
100
AcDbLine
 10
70.0
 20
147.712326
 30
0.0
 11
73.863703
 21
146.677049
 31
0.0
  0
LINE
  5
462
100
AcDbEntity
  8
7
  6
CONTINUOUS
 62
     4
100
AcDbLine
 10
234.5
 20
147.712326
 30
0.0
 11
230.636297
 21
146.677049
 31
0.0
  0
LINE
  5
463
100
AcDbEntity
  8
7
  6
CONTINUOUS
 62
     4
100
AcDbLine
 10
234.5
 20
147.712326
 30
0.0
 11
230.636297
 21
148.747602
 31
0.0
  0
TEXT
  5
464
100
AcDbEntity
  8
7
  6
CONTINUOUS
 62
     4
100
AcDbText
 10
144.75
 20
147.712326
 30
0.0
 40
6.0
  1
164.5
 41
0.543478
 11
144.75
 21
147.712326
 31
0.0
100
AcDbText
 73
     1
  0
ENDBLK
  5
465
100
AcDbEntity
  8
7
  6
CONTINUOUS
 62
     4
100
AcDbBlockEnd
  0
BLOCK
  5
468
100
AcDbEntity
  8
7
  6
CONTINUOUS
 62
     4
100
AcDbBlockBegin
  2
*D18
 70
     0
 10
0.0
 20
0.0
 30
0.0
  3
*D18
  1

  0
LINE
  5
469
100
AcDbEntity
  8
7
  6
CONTINUOUS
 62
     4
100
AcDbLine
 10
234.5
 20
147.712326
 30
0.0
 11
264.5
 21
147.712326
 31
0.0
  0
LINE
  5
46A
100
AcDbEntity
  8
7
  6
CONTINUOUS
 62
     4
100
AcDbLine
 10
264.5
 20
145.712326
 30
0.0
 11
264.5
 21
177.5
 31
0.0
  0
LINE
  5
46B
100
AcDbEntity
  8
7
  6
CONTINUOUS
 62
     4
100
AcDbLine
 10
234.5
 20
147.712326
 30
0.0
 11
238.363703
 21
148.747602
 31
0.0
  0
LINE
  5
46C
100
AcDbEntity
  8
7
  6
CONTINUOUS
 62
     4
100
AcDbLine
 10
234.5
 20
147.712326
 30
0.0
 11
238.363703
 21
146.677049
 31
0.0
  0
LINE
  5
46D
100
AcDbEntity
  8
7
  6
CONTINUOUS
 62
     4
100
AcDbLine
 10
264.5
 20
147.712326
 30
0.0
 11
260.636297
 21
146.677049
 31
0.0
  0
LINE
  5
46E
100
AcDbEntity
  8
7
  6
CONTINUOUS
 62
     4
100
AcDbLine
 10
264.5
 20
147.712326
 30
0.0
 11
260.636297
 21
148.747602
 31
0.0
  0
TEXT
  5
46F
100
AcDbEntity
  8
7
  6
CONTINUOUS
 62
     4
100
AcDbText
 10
246.5
 20
147.712326
 30
0.0
 40
6.0
  1
30
 41
0.5
 11
246.5
 21
147.712326
 31
0.0
100
AcDbText
 73
     1
  0
ENDBLK
  5
470
100
AcDbEntity
  8
7
  6
CONTINUOUS
 62
     4
100
AcDbBlockEnd
  0
BLOCK
  5
4A5
100
AcDbEntity
  8
1
  6
CONTINUOUS
 62
     4
100
AcDbBlockBegin
  2
*G19
 70
     0
 10
0.0
 20
0.0
 30
0.0
  3
*G19
  1

  0
ARC
  5
4A6
100
AcDbEntity
  8
1
  6
CONTINUOUS
 62
     4
100
AcDbCircle
 10
168.0
 20
462.0
 30
0.0
 40
3.0
100
AcDbArc
 50
90.0
 51
180.0
  0
LINE
  5
4A7
100
AcDbEntity
  8
1
  6
CONTINUOUS
 62
     4
100
AcDbLine
 10
165.0
 20
418.0
 30
0.0
 11
165.0
 21
462.0
 31
0.0
  0
ARC
  5
4A8
100
AcDbEntity
  8
1
  6
CONTINUOUS
 62
     4
100
AcDbCircle
 10
168.0
 20
418.0
 30
0.0
 40
3.0
100
AcDbArc
 50
180.0
 51
-90.0
  0
LINE
  5
4A9
100
AcDbEntity
  8
1
  6
CONTINUOUS
 62
     4
100
AcDbLine
 10
232.0
 20
415.0
 30
0.0
 11
168.0
 21
415.0
 31
0.0
  0
ARC
  5
4AA
100
AcDbEntity
  8
1
  6
CONTINUOUS
 62
     4
100
AcDbCircle
 10
232.0
 20
418.0
 30
0.0
 40
3.0
100
AcDbArc
 50
-90.0
 51
0.0
  0
LINE
  5
4AB
100
AcDbEntity
  8
1
  6
CONTINUOUS
 62
     4
100
AcDbLine
 10
235.0
 20
462.0
 30
0.0
 11
235.0
 21
418.0
 31
0.0
  0
LINE
  5
4AC
100
AcDbEntity
  8
1
  6
CONTINUOUS
 62
     4
100
AcDbLine
 10
168.0
 20
465.0
 30
0.0
 11
232.0
 21
465.0
 31
0.0
  0
ARC
  5
4AD
100
AcDbEntity
  8
1
  6
CONTINUOUS
 62
     4
100
AcDbCircle
 10
232.0
 20
462.0
 30
0.0
 40
3.0
100
AcDbArc
 50
0.0
 51
90.0
  0
ENDBLK
  5
4AE
100
AcDbEntity
  8
0
100
AcDbBlockEnd
  0
BLOCK
  5
4BB
100
AcDbEntity
  8
1
  6
CONTINUOUS
 62
     4
100
AcDbBlockBegin
  2
*G20
 70
     0
 10
0.0
 20
0.0
 30
0.0
  3
*G20
  1

  0
LINE
  5
4BC
100
AcDbEntity
  8
1
  6
CONTINUOUS
 62
     4
100
AcDbLine
 10
256.5
 20
303.0
 30
0.0
 11
256.5
 21
297.0
 31
0.0
  0
LINE
  5
4BD
100
AcDbEntity
  8
1
  6
CONTINUOUS
 62
     4
100
AcDbLine
 10
256.5
 20
297.0
 30
0.0
 11
298.5
 21
297.0
 31
0.0
  0
LINE
  5
4BE
100
AcDbEntity
  8
1
  6
CONTINUOUS
 62
     4
100
AcDbLine
 10
298.5
 20
297.0
 30
0.0
 11
298.5
 21
303.0
 31
0.0
  0
LINE
  5
4BF
100
AcDbEntity
  8
1
  6
CONTINUOUS
 62
     4
100
AcDbLine
 10
298.5
 20
303.0
 30
0.0
 11
256.5
 21
303.0
 31
0.0
  0
ENDBLK
  5
4C0
100
AcDbEntity
  8
0
100
AcDbBlockEnd
  0
BLOCK
  5
4C9
100
AcDbEntity
  8
1
  6
CONTINUOUS
 62
     4
100
AcDbBlockBegin
  2
*G21
 70
     0
 10
0.0
 20
0.0
 30
0.0
  3
*G21
  1

  0
LINE
  5
4CA
100
AcDbEntity
  8
1
  6
CONTINUOUS
 62
     4
100
AcDbLine
 10
202.5
 20
309.2
 30
0.0
 11
202.5
 21
304.0
 31
0.0
  0
LINE
  5
4CB
100
AcDbEntity
  8
1
  6
CONTINUOUS
 62
     4
100
AcDbLine
 10
202.5
 20
304.0
 30
0.0
 11
236.5
 21
304.0
 31
0.0
  0
LINE
  5
4CC
100
AcDbEntity
  8
1
  6
CONTINUOUS
 62
     4
100
AcDbLine
 10
236.5
 20
304.0
 30
0.0
 11
236.5
 21
309.2
 31
0.0
  0
LINE
  5
4CD
100
AcDbEntity
  8
1
  6
CONTINUOUS
 62
     4
100
AcDbLine
 10
236.5
 20
309.2
 30
0.0
 11
202.5
 21
309.2
 31
0.0
  0
ENDBLK
  5
4CE
100
AcDbEntity
  8
0
100
AcDbBlockEnd
  0
BLOCK
  5
4D5
100
AcDbEntity
  8
1
  6
CONTINUOUS
 62
     4
100
AcDbBlockBegin
  2
*G22
 70
     0
 10
0.0
 20
0.0
 30
0.0
  3
*G22
  1

  0
LINE
  5
4D6
100
AcDbEntity
  8
1
  6
CONTINUOUS
 62
     4
100
AcDbLine
 10
202.5
 20
341.0
 30
0.0
 11
202.5
 21
314.0
 31
0.0
  0
LINE
  5
4D7
100
AcDbEntity
  8
1
  6
CONTINUOUS
 62
     4
100
AcDbLine
 10
202.5
 20
314.0
 30
0.0
 11
236.5
 21
314.0
 31
0.0
  0
LINE
  5
4D8
100
AcDbEntity
  8
1
  6
CONTINUOUS
 62
     4
100
AcDbLine
 10
236.5
 20
314.0
 30
0.0
 11
236.5
 21
341.0
 31
0.0
  0
LINE
  5
4D9
100
AcDbEntity
  8
1
  6
CONTINUOUS
 62
     4
100
AcDbLine
 10
236.5
 20
341.0
 30
0.0
 11
202.5
 21
341.0
 31
0.0
  0
ENDBLK
  5
4DA
100
AcDbEntity
  8
0
100
AcDbBlockEnd
  0
BLOCK
  5
4E3
100
AcDbEntity
  8
1
  6
CONTINUOUS
 62
     4
100
AcDbBlockBegin
  2
*G23
 70
     0
 10
0.0
 20
0.0
 30
0.0
  3
*G23
  1

  0
LINE
  5
4E4
100
AcDbEntity
  8
1
  6
CONTINUOUS
 62
     4
100
AcDbLine
 10
152.5
 20
309.2
 30
0.0
 11
152.5
 21
304.0
 31
0.0
  0
LINE
  5
4E5
100
AcDbEntity
  8
1
  6
CONTINUOUS
 62
     4
100
AcDbLine
 10
152.5
 20
304.0
 30
0.0
 11
186.5
 21
304.0
 31
0.0
  0
LINE
  5
4E6
100
AcDbEntity
  8
1
  6
CONTINUOUS
 62
     4
100
AcDbLine
 10
186.5
 20
304.0
 30
0.0
 11
186.5
 21
309.2
 31
0.0
  0
LINE
  5
4E7
100
AcDbEntity
  8
1
  6
CONTINUOUS
 62
     4
100
AcDbLine
 10
186.5
 20
309.2
 30
0.0
 11
152.5
 21
309.2
 31
0.0
  0
ENDBLK
  5
4E8
100
AcDbEntity
  8
0
100
AcDbBlockEnd
  0
BLOCK
  5
4EF
100
AcDbEntity
  8
1
  6
CONTINUOUS
 62
     4
100
AcDbBlockBegin
  2
*G24
 70
     0
 10
0.0
 20
0.0
 30
0.0
  3
*G24
  1

  0
LINE
  5
4F0
100
AcDbEntity
  8
1
  6
CONTINUOUS
 62
     4
100
AcDbLine
 10
152.5
 20
341.0
 30
0.0
 11
152.5
 21
314.0
 31
0.0
  0
LINE
  5
4F1
100
AcDbEntity
  8
1
  6
CONTINUOUS
 62
     4
100
AcDbLine
 10
152.5
 20
314.0
 30
0.0
 11
186.5
 21
314.0
 31
0.0
  0
LINE
  5
4F2
100
AcDbEntity
  8
1
  6
CONTINUOUS
 62
     4
100
AcDbLine
 10
186.5
 20
314.0
 30
0.0
 11
186.5
 21
341.0
 31
0.0
  0
LINE
  5
4F3
100
AcDbEntity
  8
1
  6
CONTINUOUS
 62
     4
100
AcDbLine
 10
186.5
 20
341.0
 30
0.0
 11
152.5
 21
341.0
 31
0.0
  0
ENDBLK
  5
4F4
100
AcDbEntity
  8
0
100
AcDbBlockEnd
  0
BLOCK
  5
4FD
100
AcDbEntity
  8
1
  6
CONTINUOUS
 62
     4
100
AcDbBlockBegin
  2
*G25
 70
     0
 10
0.0
 20
0.0
 30
0.0
  3
*G25
  1

  0
LINE
  5
4FE
100
AcDbEntity
  8
1
  6
CONTINUOUS
 62
     4
100
AcDbLine
 10
102.5
 20
309.2
 30
0.0
 11
102.5
 21
304.0
 31
0.0
  0
LINE
  5
4FF
100
AcDbEntity
  8
1
  6
CONTINUOUS
 62
     4
100
AcDbLine
 10
102.5
 20
304.0
 30
0.0
 11
136.5
 21
304.0
 31
0.0
  0
LINE
  5
500
100
AcDbEntity
  8
1
  6
CONTINUOUS
 62
     4
100
AcDbLine
 10
136.5
 20
304.0
 30
0.0
 11
136.5
 21
309.2
 31
0.0
  0
LINE
  5
501
100
AcDbEntity
  8
1
  6
CONTINUOUS
 62
     4
100
AcDbLine
 10
136.5
 20
309.2
 30
0.0
 11
102.5
 21
309.2
 31
0.0
  0
ENDBLK
  5
502
100
AcDbEntity
  8
0
100
AcDbBlockEnd
  0
BLOCK
  5
509
100
AcDbEntity
  8
1
  6
CONTINUOUS
 62
     4
100
AcDbBlockBegin
  2
*G26
 70
     0
 10
0.0
 20
0.0
 30
0.0
  3
*G26
  1

  0
LINE
  5
50A
100
AcDbEntity
  8
1
  6
CONTINUOUS
 62
     4
100
AcDbLine
 10
102.5
 20
341.0
 30
0.0
 11
102.5
 21
314.0
 31
0.0
  0
LINE
  5
50B
100
AcDbEntity
  8
1
  6
CONTINUOUS
 62
     4
100
AcDbLine
 10
102.5
 20
314.0
 30
0.0
 11
136.5
 21
314.0
 31
0.0
  0
LINE
  5
50C
100
AcDbEntity
  8
1
  6
CONTINUOUS
 62
     4
100
AcDbLine
 10
136.5
 20
314.0
 30
0.0
 11
136.5
 21
341.0
 31
0.0
  0
LINE
  5
50D
100
AcDbEntity
  8
1
  6
CONTINUOUS
 62
     4
100
AcDbLine
 10
136.5
 20
341.0
 30
0.0
 11
102.5
 21
341.0
 31
0.0
  0
ENDBLK
  5
50E
100
AcDbEntity
  8
0
100
AcDbBlockEnd
  0
BLOCK
  5
511
100
AcDbEntity
  8
1
  6
CONTINUOUS
 62
     4
100
AcDbBlockBegin
  2
*G27
 70
     0
 10
0.0
 20
0.0
 30
0.0
  3
*G27
  1

  0
LINE
  5
512
100
AcDbEntity
  8
1
  6
CONTINUOUS
 62
     4
100
AcDbLine
 10
256.5
 20
341.0
 30
0.0
 11
256.5
 21
310.0
 31
0.0
  0
LINE
  5
513
100
AcDbEntity
  8
1
  6
CONTINUOUS
 62
     4
100
AcDbLine
 10
256.5
 20
310.0
 30
0.0
 11
298.5
 21
310.0
 31
0.0
  0
LINE
  5
514
100
AcDbEntity
  8
1
  6
CONTINUOUS
 62
     4
100
AcDbLine
 10
298.5
 20
310.0
 30
0.0
 11
298.5
 21
341.0
 31
0.0
  0
LINE
  5
515
100
AcDbEntity
  8
1
  6
CONTINUOUS
 62
     4
100
AcDbLine
 10
298.5
 20
341.0
 30
0.0
 11
256.5
 21
341.0
 31
0.0
  0
ENDBLK
  5
516
100
AcDbEntity
  8
0
100
AcDbBlockEnd
  0
BLOCK
  5
535
100
AcDbEntity
  8
1
  6
CONTINUOUS
 62
     4
100
AcDbBlockBegin
  2
*G28
 70
     0
 10
0.0
 20
0.0
 30
0.0
  3
*G28
  1

  0
ARC
  5
536
100
AcDbEntity
  8
1
  6
CONTINUOUS
 62
     4
100
AcDbCircle
 10
76.0
 20
495.0
 30
0.0
 40
6.0
100
AcDbArc
 50
90.0
 51
180.0
  0
LINE
  5
537
100
AcDbEntity
  8
1
  6
CONTINUOUS
 62
     4
100
AcDbLine
 10
324.0
 20
501.0
 30
0.0
 11
76.0
 21
501.0
 31
0.0
  0
ARC
  5
538
100
AcDbEntity
  8
1
  6
CONTINUOUS
 62
     4
100
AcDbCircle
 10
324.0
 20
495.0
 30
0.0
 40
6.0
100
AcDbArc
 50
0.0
 51
90.0
  0
LINE
  5
539
100
AcDbEntity
  8
1
  6
CONTINUOUS
 62
     4
100
AcDbLine
 10
330.0
 20
347.0
 30
0.0
 11
330.0
 21
495.0
 31
0.0
  0
ARC
  5
53A
100
AcDbEntity
  8
1
  6
CONTINUOUS
 62
     4
100
AcDbCircle
 10
324.0
 20
347.0
 30
0.0
 40
6.0
100
AcDbArc
 50
-90.0
 51
0.0
  0
LINE
  5
53B
100
AcDbEntity
  8
1
  6
CONTINUOUS
 62
     4
100
AcDbLine
 10
76.0
 20
341.0
 30
0.0
 11
324.0
 21
341.0
 31
0.0
  0
LINE
  5
53C
100
AcDbEntity
  8
1
  6
CONTINUOUS
 62
     4
100
AcDbLine
 10
70.0
 20
495.0
 30
0.0
 11
70.0
 21
347.0
 31
0.0
  0
ARC
  5
53D
100
AcDbEntity
  8
1
  6
CONTINUOUS
 62
     4
100
AcDbCircle
 10
76.0
 20
347.0
 30
0.0
 40
6.0
100
AcDbArc
 50
180.0
 51
-90.0
  0
ENDBLK
  5
53E
100
AcDbEntity
  8
0
100
AcDbBlockEnd
  0
BLOCK
  5
541
100
AcDbEntity
  8
1
  6
CONTINUOUS
 62
     4
100
AcDbBlockBegin
  2
*G29
 70
     0
 10
0.0
 20
0.0
 30
0.0
  3
*G29
  1

  0
LINE
  5
542
100
AcDbEntity
  8
1
  6
CONTINUOUS
 62
     4
100
AcDbLine
 10
325.0
 20
171.0
 30
0.0
 11
325.0
 21
170.0
 31
0.0
  0
LINE
  5
543
100
AcDbEntity
  8
1
  6
CONTINUOUS
 62
     4
100
AcDbLine
 10
325.0
 20
170.0
 30
0.0
 11
310.0
 21
170.0
 31
0.0
  0
LINE
  5
544
100
AcDbEntity
  8
1
  6
CONTINUOUS
 62
     4
100
AcDbLine
 10
310.0
 20
170.0
 30
0.0
 11
310.0
 21
171.0
 31
0.0
  0
LINE
  5
545
100
AcDbEntity
  8
1
  6
CONTINUOUS
 62
     4
100
AcDbLine
 10
310.0
 20
171.0
 30
0.0
 11
325.0
 21
171.0
 31
0.0
  0
ENDBLK
  5
546
100
AcDbEntity
  8
0
100
AcDbBlockEnd
  0
BLOCK
  5
549
100
AcDbEntity
  8
1
  6
CONTINUOUS
 62
     4
100
AcDbBlockBegin
  2
*G30
 70
     0
 10
0.0
 20
0.0
 30
0.0
  3
*G30
  1

  0
LINE
  5
54A
100
AcDbEntity
  8
1
  6
CONTINUOUS
 62
     4
100
AcDbLine
 10
75.0
 20
171.0
 30
0.0
 11
75.0
 21
170.0
 31
0.0
  0
LINE
  5
54B
100
AcDbEntity
  8
1
  6
CONTINUOUS
 62
     4
100
AcDbLine
 10
75.0
 20
170.0
 30
0.0
 11
90.0
 21
170.0
 31
0.0
  0
LINE
  5
54C
100
AcDbEntity
  8
1
  6
CONTINUOUS
 62
     4
100
AcDbLine
 10
90.0
 20
170.0
 30
0.0
 11
90.0
 21
171.0
 31
0.0
  0
LINE
  5
54D
100
AcDbEntity
  8
1
  6
CONTINUOUS
 62
     4
100
AcDbLine
 10
90.0
 20
171.0
 30
0.0
 11
75.0
 21
171.0
 31
0.0
  0
ENDBLK
  5
54E
100
AcDbEntity
  8
0
100
AcDbBlockEnd
  0
BLOCK
  5
551
100
AcDbEntity
  8
1
  6
CONTINUOUS
 62
     4
100
AcDbBlockBegin
  2
*G31
 70
     0
 10
0.0
 20
0.0
 30
0.0
  3
*G31
  1

  0
ARC
  5
552
100
AcDbEntity
  8
1
  6
CONTINUOUS
 62
     4
100
AcDbCircle
 10
72.0
 20
259.0
 30
0.0
 40
2.0
100
AcDbArc
 50
90.0
 51
180.0
  0
LINE
  5
553
100
AcDbEntity
  8
1
  6
CONTINUOUS
 62
     4
100
AcDbLine
 10
328.0
 20
261.0
 30
0.0
 11
72.0
 21
261.0
 31
0.0
  0
ARC
  5
554
100
AcDbEntity
  8
1
  6
CONTINUOUS
 62
     4
100
AcDbCircle
 10
328.0
 20
259.0
 30
0.0
 40
2.0
100
AcDbArc
 50
0.0
 51
90.0
  0
LINE
  5
555
100
AcDbEntity
  8
1
  6
CONTINUOUS
 62
     4
100
AcDbLine
 10
330.0
 20
173.0
 30
0.0
 11
330.0
 21
259.0
 31
0.0
  0
ARC
  5
556
100
AcDbEntity
  8
1
  6
CONTINUOUS
 62
     4
100
AcDbCircle
 10
328.0
 20
173.0
 30
0.0
 40
2.0
100
AcDbArc
 50
-90.0
 51
0.0
  0
LINE
  5
557
100
AcDbEntity
  8
1
  6
CONTINUOUS
 62
     4
100
AcDbLine
 10
72.0
 20
171.0
 30
0.0
 11
328.0
 21
171.0
 31
0.0
  0
LINE
  5
558
100
AcDbEntity
  8
1
  6
CONTINUOUS
 62
     4
100
AcDbLine
 10
70.0
 20
259.0
 30
0.0
 11
70.0
 21
173.0
 31
0.0
  0
ARC
  5
559
100
AcDbEntity
  8
1
  6
CONTINUOUS
 62
     4
100
AcDbCircle
 10
72.0
 20
173.0
 30
0.0
 40
2.0
100
AcDbArc
 50
180.0
 51
-90.0
  0
ENDBLK
  5
55A
100
AcDbEntity
  8
0
100
AcDbBlockEnd
  0
BLOCK
  5
5BA
100
AcDbEntity
  8
7
  6
CONTINUOUS
 62
     4
100
AcDbBlockBegin
  2
*D32
 70
     0
 10
0.0
 20
0.0
 30
0.0
  3
*D32
  1

  0
LINE
  5
5BB
100
AcDbEntity
  8
7
  6
CONTINUOUS
 62
     4
100
AcDbLine
 10
298.5
 20
170.0
 30
0.0
 11
298.5
 21
183.0
 31
0.0
  0
LINE
  5
5BC
100
AcDbEntity
  8
7
  6
CONTINUOUS
 62
     4
100
AcDbLine
 10
296.5
 20
170.0
 30
0.0
 11
308.0
 21
170.0
 31
0.0
  0
LINE
  5
5BD
100
AcDbEntity
  8
7
  6
CONTINUOUS
 62
     4
100
AcDbLine
 10
300.5
 20
183.0
 30
0.0
 11
266.5
 21
183.0
 31
0.0
  0
LINE
  5
5BE
100
AcDbEntity
  8
7
  6
CONTINUOUS
 62
     4
100
AcDbLine
 10
298.5
 20
170.0
 30
0.0
 11
297.464724
 21
173.863703
 31
0.0
  0
LINE
  5
5BF
100
AcDbEntity
  8
7
  6
CONTINUOUS
 62
     4
100
AcDbLine
 10
298.5
 20
170.0
 30
0.0
 11
299.535276
 21
173.863703
 31
0.0
  0
LINE
  5
5C0
100
AcDbEntity
  8
7
  6
CONTINUOUS
 62
     4
100
AcDbLine
 10
298.5
 20
183.0
 30
0.0
 11
299.535276
 21
179.136297
 31
0.0
  0
LINE
  5
5C1
100
AcDbEntity
  8
7
  6
CONTINUOUS
 62
     4
100
AcDbLine
 10
298.5
 20
183.0
 30
0.0
 11
297.464724
 21
179.136297
 31
0.0
  0
TEXT
  5
5C2
100
AcDbEntity
  8
7
  6
CONTINUOUS
 62
     4
100
AcDbText
 10
298.5
 20
173.5
 30
0.0
 40
6.0
  1
13
 50
90.0
 41
0.5
 11
298.5
 21
173.5
 31
0.0
100
AcDbText
 73
     1
  0
ENDBLK
  5
5C3
100
AcDbEntity
  8
7
  6
CONTINUOUS
 62
     4
100
AcDbBlockEnd
  0
BLOCK
  5
5C6
100
AcDbEntity
  8
1
  6
CONTINUOUS
 62
     4
100
AcDbBlockBegin
  2
*G33
 70
     0
 10
0.0
 20
0.0
 30
0.0
  3
*G33
  1

  0
LINE
  5
5C7
100
AcDbEntity
  8
1
  6
CONTINUOUS
 62
     4
100
AcDbLine
 10
165.0
 20
261.0
 30
0.0
 11
165.0
 21
261.5
 31
0.0
  0
LINE
  5
5C8
100
AcDbEntity
  8
1
  6
CONTINUOUS
 62
     4
100
AcDbLine
 10
165.0
 20
261.5
 30
0.0
 11
235.0
 21
261.5
 31
0.0
  0
LINE
  5
5C9
100
AcDbEntity
  8
1
  6
CONTINUOUS
 62
     4
100
AcDbLine
 10
235.0
 20
261.5
 30
0.0
 11
235.0
 21
261.0
 31
0.0
  0
LINE
  5
5CA
100
AcDbEntity
  8
1
  6
CONTINUOUS
 62
     4
100
AcDbLine
 10
235.0
 20
261.0
 30
0.0
 11
165.0
 21
261.0
 31
0.0
  0
ENDBLK
  5
5CB
100
AcDbEntity
  8
0
100
AcDbBlockEnd
  0
ENDSEC
  0
SECTION
  2
ENTITIES
  0
LINE
  5
86
100
AcDbEntity
  8
3
  6
CONTINUOUS
 62
     2
100
AcDbLine
 10
207.672154
 20
16.578808
 30
0.0
 11
215.27342
 21
16.578808
 31
0.0
  0
LINE
  5
87
100
AcDbEntity
  8
3
  6
CONTINUOUS
 62
     2
100
AcDbLine
 10
207.6732
 20
15.978808
 30
0.0
 11
208.874318
 21
15.978808
 31
0.0
  0
LINE
  5
88
100
AcDbEntity
  8
3
  6
CONTINUOUS
 62
     2
100
AcDbLine
 10
207.674248
 20
15.378808
 30
0.0
 11
208.875366
 21
15.378808
 31
0.0
  0
LINE
  5
89
100
AcDbEntity
  8
3
  6
CONTINUOUS
 62
     2
100
AcDbLine
 10
207.675296
 20
14.778808
 30
0.0
 11
208.876412
 21
14.778808
 31
0.0
  0
LINE
  5
8A
100
AcDbEntity
  8
3
  6
CONTINUOUS
 62
     2
100
AcDbLine
 10
207.676342
 20
14.178808
 30
0.0
 11
208.87746
 21
14.178808
 31
0.0
  0
LINE
  5
8B
100
AcDbEntity
  8
3
  6
CONTINUOUS
 62
     2
100
AcDbLine
 10
207.67739
 20
13.578808
 30
0.0
 11
214.148788
 21
13.578808
 31
0.0
  0
LINE
  5
8C
100
AcDbEntity
  8
3
  6
CONTINUOUS
 62
     2
100
AcDbLine
 10
207.678436
 20
12.978808
 30
0.0
 11
214.139508
 21
12.978808
 31
0.0
  0
LINE
  5
8D
100
AcDbEntity
  8
3
  6
CONTINUOUS
 62
     2
100
AcDbLine
 10
207.679484
 20
12.378808
 30
0.0
 11
208.846006
 21
12.378808
 31
0.0
  0
LINE
  5
8E
100
AcDbEntity
  8
3
  6
CONTINUOUS
 62
     2
100
AcDbLine
 10
207.680532
 20
11.778808
 30
0.0
 11
208.847054
 21
11.778808
 31
0.0
  0
LINE
  5
8F
100
AcDbEntity
  8
3
  6
CONTINUOUS
 62
     2
100
AcDbLine
 10
207.681578
 20
11.178808
 30
0.0
 11
208.8481
 21
11.178808
 31
0.0
  0
LINE
  5
90
100
AcDbEntity
  8
3
  6
CONTINUOUS
 62
     2
100
AcDbLine
 10
207.682626
 20
10.578808
 30
0.0
 11
208.849148
 21
10.578808
 31
0.0
  0
LINE
  5
91
100
AcDbEntity
  8
3
  6
CONTINUOUS
 62
     2
100
AcDbLine
 10
207.683672
 20
9.978808
 30
0.0
 11
208.850196
 21
9.978808
 31
0.0
  0
LINE
  5
92
100
AcDbEntity
  8
3
  6
CONTINUOUS
 62
     2
100
AcDbLine
 10
217.6942
 20
17.100394
 30
0.0
 11
216.414292
 21
17.100394
 31
0.0
  0
LINE
  5
93
100
AcDbEntity
  8
3
  6
CONTINUOUS
 62
     2
100
AcDbLine
 10
217.695252
 20
16.497994
 30
0.0
 11
216.417396
 21
16.497994
 31
0.0
  0
LINE
  5
94
100
AcDbEntity
  8
3
  6
CONTINUOUS
 62
     2
100
AcDbLine
 10
223.290264
 20
16.497994
 30
0.0
 11
224.56332
 21
16.497994
 31
0.0
  0
LINE
  5
95
100
AcDbEntity
  8
3
  6
CONTINUOUS
 62
     2
100
AcDbLine
 10
217.696298
 20
15.897994
 30
0.0
 11
216.420488
 21
15.897994
 31
0.0
  0
LINE
  5
96
100
AcDbEntity
  8
3
  6
CONTINUOUS
 62
     2
100
AcDbLine
 10
223.288246
 20
15.897994
 30
0.0
 11
224.564368
 21
15.897994
 31
0.0
  0
LINE
  5
97
100
AcDbEntity
  8
3
  6
CONTINUOUS
 62
     2
100
AcDbLine
 10
217.697346
 20
15.297994
 30
0.0
 11
216.42358
 21
15.297994
 31
0.0
  0
LINE
  5
98
100
AcDbEntity
  8
3
  6
CONTINUOUS
 62
     2
100
AcDbLine
 10
223.286226
 20
15.297994
 30
0.0
 11
224.565414
 21
15.297994
 31
0.0
  0
LINE
  5
99
100
AcDbEntity
  8
3
  6
CONTINUOUS
 62
     2
100
AcDbLine
 10
217.698394
 20
14.697994
 30
0.0
 11
216.426672
 21
14.697994
 31
0.0
  0
LINE
  5
9A
100
AcDbEntity
  8
3
  6
CONTINUOUS
 62
     2
100
AcDbLine
 10
223.284208
 20
14.697994
 30
0.0
 11
224.566462
 21
14.697994
 31
0.0
  0
LINE
  5
9B
100
AcDbEntity
  8
3
  6
CONTINUOUS
 62
     2
100
AcDbLine
 10
217.69944
 20
14.097994
 30
0.0
 11
216.429764
 21
14.097994
 31
0.0
  0
LINE
  5
9C
100
AcDbEntity
  8
3
  6
CONTINUOUS
 62
     2
100
AcDbLine
 10
223.28219
 20
14.097994
 30
0.0
 11
224.56751
 21
14.097994
 31
0.0
  0
LINE
  5
9D
100
AcDbEntity
  8
3
  6
CONTINUOUS
 62
     2
100
AcDbLine
 10
217.700488
 20
13.497994
 30
0.0
 11
216.432856
 21
13.497994
 31
0.0
  0
LINE
  5
9E
100
AcDbEntity
  8
3
  6
CONTINUOUS
 62
     2
100
AcDbLine
 10
223.280172
 20
13.497994
 30
0.0
 11
224.568556
 21
13.497994
 31
0.0
  0
LINE
  5
9F
100
AcDbEntity
  8
3
  6
CONTINUOUS
 62
     2
100
AcDbLine
 10
217.701534
 20
12.897994
 30
0.0
 11
216.435948
 21
12.897994
 31
0.0
  0
LINE
  5
A0
100
AcDbEntity
  8
3
  6
CONTINUOUS
 62
     2
100
AcDbLine
 10
223.278152
 20
12.897994
 30
0.0
 11
224.569604
 21
12.897994
 31
0.0
  0
LINE
  5
A1
100
AcDbEntity
  8
3
  6
CONTINUOUS
 62
     2
100
AcDbLine
 10
217.702582
 20
12.297994
 30
0.0
 11
216.43904
 21
12.297994
 31
0.0
  0
LINE
  5
A2
100
AcDbEntity
  8
3
  6
CONTINUOUS
 62
     2
100
AcDbLine
 10
223.276134
 20
12.297994
 30
0.0
 11
224.57065
 21
12.297994
 31
0.0
  0
LINE
  5
A3
100
AcDbEntity
  8
3
  6
CONTINUOUS
 62
     2
100
AcDbLine
 10
217.70363
 20
11.697994
 30
0.0
 11
216.415446
 21
11.697994
 31
0.0
  0
LINE
  5
A4
100
AcDbEntity
  8
3
  6
CONTINUOUS
 62
     2
100
AcDbLine
 10
223.274116
 20
11.697994
 30
0.0
 11
224.571698
 21
11.697994
 31
0.0
  0
LINE
  5
A5
100
AcDbEntity
  8
3
  6
CONTINUOUS
 62
     2
100
AcDbLine
 10
217.868734
 20
11.097994
 30
0.0
 11
216.47737
 21
11.097994
 31
0.0
  0
LINE
  5
A6
100
AcDbEntity
  8
3
  6
CONTINUOUS
 62
     2
100
AcDbLine
 10
223.181298
 20
11.097994
 30
0.0
 11
224.56188
 21
11.097994
 31
0.0
  0
LINE
  5
A7
100
AcDbEntity
  8
3
  6
CONTINUOUS
 62
     2
100
AcDbLine
 10
224.334598
 20
10.497994
 30
0.0
 11
216.76092
 21
10.497994
 31
0.0
  0
LINE
  5
A8
100
AcDbEntity
  8
3
  6
CONTINUOUS
 62
     2
100
AcDbLine
 10
223.680808
 20
9.897994
 30
0.0
 11
217.470204
 21
9.897994
 31
0.0
  0
LINE
  5
A9
100
AcDbEntity
  8
3
  6
CONTINUOUS
 62
     2
100
AcDbLine
 10
226.071764
 20
13.973438
 30
0.0
 11
227.351824
 21
13.973438
 31
0.0
  0
LINE
  5
AA
100
AcDbEntity
  8
3
  6
CONTINUOUS
 62
     2
100
AcDbLine
 10
233.729142
 20
13.973438
 30
0.0
 11
228.726926
 21
13.973438
 31
0.0
  0
LINE
  5
AB
100
AcDbEntity
  8
3
  6
CONTINUOUS
 62
     2
100
AcDbLine
 10
226.070718
 20
14.573438
 30
0.0
 11
227.350778
 21
14.573438
 31
0.0
  0
LINE
  5
AC
100
AcDbEntity
  8
3
  6
CONTINUOUS
 62
     2
100
AcDbLine
 10
233.935578
 20
14.573438
 30
0.0
 11
232.736184
 21
14.573438
 31
0.0
  0
LINE
  5
AD
100
AcDbEntity
  8
3
  6
CONTINUOUS
 62
     2
100
AcDbLine
 10
226.06967
 20
15.173438
 30
0.0
 11
227.34973
 21
15.173438
 31
0.0
  0
LINE
  5
AE
100
AcDbEntity
  8
3
  6
CONTINUOUS
 62
     2
100
AcDbLine
 10
233.956408
 20
15.173438
 30
0.0
 11
232.817134
 21
15.173438
 31
0.0
  0
LINE
  5
AF
100
AcDbEntity
  8
3
  6
CONTINUOUS
 62
     2
100
AcDbLine
 10
226.068622
 20
15.773438
 30
0.0
 11
227.348684
 21
15.773438
 31
0.0
  0
LINE
  5
B0
100
AcDbEntity
  8
3
  6
CONTINUOUS
 62
     2
100
AcDbLine
 10
233.797688
 20
15.773438
 30
0.0
 11
232.484202
 21
15.773438
 31
0.0
  0
LINE
  5
B1
100
AcDbEntity
  8
3
  6
CONTINUOUS
 62
     2
100
AcDbLine
 10
226.067576
 20
16.373438
 30
0.0
 11
233.404326
 21
16.373438
 31
0.0
  0
LINE
  5
B2
100
AcDbEntity
  8
3
  6
CONTINUOUS
 62
     2
100
AcDbLine
 10
226.066528
 20
16.973438
 30
0.0
 11
232.379592
 21
16.973438
 31
0.0
  0
LINE
  5
B3
100
AcDbEntity
  8
3
  6
CONTINUOUS
 62
     2
100
AcDbLine
 10
226.072816
 20
13.371038
 30
0.0
 11
233.253204
 21
13.371038
 31
0.0
  0
LINE
  5
B4
100
AcDbEntity
  8
3
  6
CONTINUOUS
 62
     2
100
AcDbLine
 10
226.073862
 20
12.771038
 30
0.0
 11
227.355242
 21
12.771038
 31
0.0
  0
LINE
  5
B5
100
AcDbEntity
  8
3
  6
CONTINUOUS
 62
     2
100
AcDbLine
 10
231.602898
 20
12.771038
 30
0.0
 11
230.317626
 21
12.771038
 31
0.0
  0
LINE
  5
B6
100
AcDbEntity
  8
3
  6
CONTINUOUS
 62
     2
100
AcDbLine
 10
226.07491
 20
12.171038
 30
0.0
 11
227.36333
 21
12.171038
 31
0.0
  0
LINE
  5
B7
100
AcDbEntity
  8
3
  6
CONTINUOUS
 62
     2
100
AcDbLine
 10
232.049864
 20
12.171038
 30
0.0
 11
230.738732
 21
12.171038
 31
0.0
  0
LINE
  5
B8
100
AcDbEntity
  8
3
  6
CONTINUOUS
 62
     2
100
AcDbLine
 10
226.075958
 20
11.571038
 30
0.0
 11
227.37142
 21
11.571038
 31
0.0
  0
LINE
  5
B9
100
AcDbEntity
  8
3
  6
CONTINUOUS
 62
     2
100
AcDbLine
 10
232.49683
 20
11.571038
 30
0.0
 11
231.159838
 21
11.571038
 31
0.0
  0
LINE
  5
BA
100
AcDbEntity
  8
3
  6
CONTINUOUS
 62
     2
100
AcDbLine
 10
226.077004
 20
10.971038
 30
0.0
 11
227.379508
 21
10.971038
 31
0.0
  0
LINE
  5
BB
100
AcDbEntity
  8
3
  6
CONTINUOUS
 62
     2
100
AcDbLine
 10
232.943798
 20
10.971038
 30
0.0
 11
231.580946
 21
10.971038
 31
0.0
  0
LINE
  5
BC
100
AcDbEntity
  8
3
  6
CONTINUOUS
 62
     2
100
AcDbLine
 10
226.078052
 20
10.371038
 30
0.0
 11
227.387596
 21
10.371038
 31
0.0
  0
LINE
  5
BD
100
AcDbEntity
  8
3
  6
CONTINUOUS
 62
     2
100
AcDbLine
 10
233.390764
 20
10.371038
 30
0.0
 11
232.002052
 21
10.371038
 31
0.0
  0
LINE
  5
BE
100
AcDbEntity
  8
3
  6
CONTINUOUS
 62
     2
100
AcDbLine
 10
236.862176
 20
17.134048
 30
0.0
 11
235.966264
 21
17.134048
 31
0.0
  0
LINE
  5
BF
100
AcDbEntity
  8
3
  6
CONTINUOUS
 62
     2
100
AcDbLine
 10
235.60907
 20
16.529248
 30
0.0
 11
236.865386
 21
16.529248
 31
0.0
  0
LINE
  5
C0
100
AcDbEntity
  8
3
  6
CONTINUOUS
 62
     2
100
AcDbLine
 10
243.733674
 20
16.529248
 30
0.0
 11
242.470008
 21
16.529248
 31
0.0
  0
LINE
  5
C1
100
AcDbEntity
  8
3
  6
CONTINUOUS
 62
     2
100
AcDbLine
 10
235.60684
 20
15.929248
 30
0.0
 11
236.868572
 21
15.929248
 31
0.0
  0
LINE
  5
C2
100
AcDbEntity
  8
3
  6
CONTINUOUS
 62
     2
100
AcDbLine
 10
243.728126
 20
15.929248
 30
0.0
 11
242.47077
 21
15.929248
 31
0.0
  0
LINE
  5
C3
100
AcDbEntity
  8
3
  6
CONTINUOUS
 62
     2
100
AcDbLine
 10
235.60461
 20
15.329248
 30
0.0
 11
236.871756
 21
15.329248
 31
0.0
  0
LINE
  5
C4
100
AcDbEntity
  8
3
  6
CONTINUOUS
 62
     2
100
AcDbLine
 10
243.722576
 20
15.329248
 30
0.0
 11
242.471532
 21
15.329248
 31
0.0
  0
LINE
  5
C5
100
AcDbEntity
  8
3
  6
CONTINUOUS
 62
     2
100
AcDbLine
 10
235.60238
 20
14.729248
 30
0.0
 11
236.87494
 21
14.729248
 31
0.0
  0
LINE
  5
C6
100
AcDbEntity
  8
3
  6
CONTINUOUS
 62
     2
100
AcDbLine
 10
243.717028
 20
14.729248
 30
0.0
 11
242.472294
 21
14.729248
 31
0.0
  0
LINE
  5
C7
100
AcDbEntity
  8
3
  6
CONTINUOUS
 62
     2
100
AcDbLine
 10
235.60015
 20
14.129248
 30
0.0
 11
236.878124
 21
14.129248
 31
0.0
  0
LINE
  5
C8
100
AcDbEntity
  8
3
  6
CONTINUOUS
 62
     2
100
AcDbLine
 10
243.711478
 20
14.129248
 30
0.0
 11
242.473056
 21
14.129248
 31
0.0
  0
LINE
  5
C9
100
AcDbEntity
  8
3
  6
CONTINUOUS
 62
     2
100
AcDbLine
 10
235.59792
 20
13.529248
 30
0.0
 11
236.88131
 21
13.529248
 31
0.0
  0
LINE
  5
CA
100
AcDbEntity
  8
3
  6
CONTINUOUS
 62
     2
100
AcDbLine
 10
243.70593
 20
13.529248
 30
0.0
 11
242.473818
 21
13.529248
 31
0.0
  0
LINE
  5
CB
100
AcDbEntity
  8
3
  6
CONTINUOUS
 62
     2
100
AcDbLine
 10
235.59569
 20
12.929248
 30
0.0
 11
236.884494
 21
12.929248
 31
0.0
  0
LINE
  5
CC
100
AcDbEntity
  8
3
  6
CONTINUOUS
 62
     2
100
AcDbLine
 10
243.70038
 20
12.929248
 30
0.0
 11
242.47458
 21
12.929248
 31
0.0
  0
LINE
  5
CD
100
AcDbEntity
  8
3
  6
CONTINUOUS
 62
     2
100
AcDbLine
 10
235.59346
 20
12.329248
 30
0.0
 11
236.887678
 21
12.329248
 31
0.0
  0
LINE
  5
CE
100
AcDbEntity
  8
3
  6
CONTINUOUS
 62
     2
100
AcDbLine
 10
243.694832
 20
12.329248
 30
0.0
 11
242.475342
 21
12.329248
 31
0.0
  0
LINE
  5
CF
100
AcDbEntity
  8
3
  6
CONTINUOUS
 62
     2
100
AcDbLine
 10
235.591552
 20
11.729248
 30
0.0
 11
236.888354
 21
11.729248
 31
0.0
  0
LINE
  5
D0
100
AcDbEntity
  8
3
  6
CONTINUOUS
 62
     2
100
AcDbLine
 10
243.689282
 20
11.729248
 30
0.0
 11
242.476104
 21
11.729248
 31
0.0
  0
LINE
  5
D1
100
AcDbEntity
  8
3
  6
CONTINUOUS
 62
     2
100
AcDbLine
 10
235.691806
 20
11.129248
 30
0.0
 11
237.074584
 21
11.129248
 31
0.0
  0
LINE
  5
D2
100
AcDbEntity
  8
3
  6
CONTINUOUS
 62
     2
100
AcDbLine
 10
243.639706
 20
11.129248
 30
0.0
 11
242.4436
 21
11.129248
 31
0.0
  0
LINE
  5
D3
100
AcDbEntity
  8
3
  6
CONTINUOUS
 62
     2
100
AcDbLine
 10
236.008766
 20
10.529248
 30
0.0
 11
243.37632
 21
10.529248
 31
0.0
  0
LINE
  5
D4
100
AcDbEntity
  8
3
  6
CONTINUOUS
 62
     2
100
AcDbLine
 10
236.757528
 20
9.929248
 30
0.0
 11
242.685154
 21
9.929248
 31
0.0
  0
LINE
  5
D5
100
AcDbEntity
  8
3
  6
CONTINUOUS
 62
     2
100
AcDbLine
 10
252.927018
 20
9.907334
 30
0.0
 11
251.850428
 21
9.907334
 31
0.0
  0
LINE
  5
D6
100
AcDbEntity
  8
3
  6
CONTINUOUS
 62
     2
100
AcDbLine
 10
245.401808
 20
10.507334
 30
0.0
 11
246.540084
 21
10.507334
 31
0.0
  0
LINE
  5
D7
100
AcDbEntity
  8
3
  6
CONTINUOUS
 62
     2
100
AcDbLine
 10
252.92865
 20
10.507334
 30
0.0
 11
251.275418
 21
10.507334
 31
0.0
  0
LINE
  5
D8
100
AcDbEntity
  8
3
  6
CONTINUOUS
 62
     2
100
AcDbLine
 10
245.40076
 20
11.107334
 30
0.0
 11
246.533168
 21
11.107334
 31
0.0
  0
LINE
  5
D9
100
AcDbEntity
  8
3
  6
CONTINUOUS
 62
     2
100
AcDbLine
 10
252.930284
 20
11.107334
 30
0.0
 11
250.700408
 21
11.107334
 31
0.0
  0
LINE
  5
DA
100
AcDbEntity
  8
3
  6
CONTINUOUS
 62
     2
100
AcDbLine
 10
245.399712
 20
11.707334
 30
0.0
 11
246.526252
 21
11.707334
 31
0.0
  0
LINE
  5
DB
100
AcDbEntity
  8
3
  6
CONTINUOUS
 62
     2
100
AcDbLine
 10
252.931918
 20
11.707334
 30
0.0
 11
250.125398
 21
11.707334
 31
0.0
  0
LINE
  5
DC
100
AcDbEntity
  8
3
  6
CONTINUOUS
 62
     2
100
AcDbLine
 10
245.398666
 20
12.307334
 30
0.0
 11
246.519336
 21
12.307334
 31
0.0
  0
LINE
  5
DD
100
AcDbEntity
  8
3
  6
CONTINUOUS
 62
     2
100
AcDbLine
 10
251.18148
 20
12.307334
 30
0.0
 11
249.550388
 21
12.307334
 31
0.0
  0
LINE
  5
DE
100
AcDbEntity
  8
3
  6
CONTINUOUS
 62
     2
100
AcDbLine
 10
251.74677
 20
12.307334
 30
0.0
 11
252.933552
 21
12.307334
 31
0.0
  0
LINE
  5
DF
100
AcDbEntity
  8
3
  6
CONTINUOUS
 62
     2
100
AcDbLine
 10
245.397618
 20
12.907334
 30
0.0
 11
246.51242
 21
12.907334
 31
0.0
  0
LINE
  5
E0
100
AcDbEntity
  8
3
  6
CONTINUOUS
 62
     2
100
AcDbLine
 10
250.595602
 20
12.907334
 30
0.0
 11
248.975378
 21
12.907334
 31
0.0
  0
LINE
  5
E1
100
AcDbEntity
  8
3
  6
CONTINUOUS
 62
     2
100
AcDbLine
 10
251.74596
 20
12.907334
 30
0.0
 11
252.935184
 21
12.907334
 31
0.0
  0
LINE
  5
E2
100
AcDbEntity
  8
3
  6
CONTINUOUS
 62
     2
100
AcDbLine
 10
245.396572
 20
13.507334
 30
0.0
 11
246.505504
 21
13.507334
 31
0.0
  0
LINE
  5
E3
100
AcDbEntity
  8
3
  6
CONTINUOUS
 62
     2
100
AcDbLine
 10
250.009726
 20
13.507334
 30
0.0
 11
248.400368
 21
13.507334
 31
0.0
  0
LINE
  5
E4
100
AcDbEntity
  8
3
  6
CONTINUOUS
 62
     2
100
AcDbLine
 10
251.745148
 20
13.507334
 30
0.0
 11
252.936818
 21
13.507334
 31
0.0
  0
LINE
  5
E5
100
AcDbEntity
  8
3
  6
CONTINUOUS
 62
     2
100
AcDbLine
 10
245.395524
 20
14.107334
 30
0.0
 11
246.498588
 21
14.107334
 31
0.0
  0
LINE
  5
E6
100
AcDbEntity
  8
3
  6
CONTINUOUS
 62
     2
100
AcDbLine
 10
249.42385
 20
14.107334
 30
0.0
 11
247.825356
 21
14.107334
 31
0.0
  0
LINE
  5
E7
100
AcDbEntity
  8
3
  6
CONTINUOUS
 62
     2
100
AcDbLine
 10
251.744338
 20
14.107334
 30
0.0
 11
252.938452
 21
14.107334
 31
0.0
  0
LINE
  5
E8
100
AcDbEntity
  8
3
  6
CONTINUOUS
 62
     2
100
AcDbLine
 10
245.394476
 20
14.707334
 30
0.0
 11
246.491672
 21
14.707334
 31
0.0
  0
LINE
  5
E9
100
AcDbEntity
  8
3
  6
CONTINUOUS
 62
     2
100
AcDbLine
 10
248.837972
 20
14.707334
 30
0.0
 11
247.250346
 21
14.707334
 31
0.0
  0
LINE
  5
EA
100
AcDbEntity
  8
3
  6
CONTINUOUS
 62
     2
100
AcDbLine
 10
251.743526
 20
14.707334
 30
0.0
 11
252.940086
 21
14.707334
 31
0.0
  0
LINE
  5
EB
100
AcDbEntity
  8
3
  6
CONTINUOUS
 62
     2
100
AcDbLine
 10
245.39343
 20
15.307334
 30
0.0
 11
246.484756
 21
15.307334
 31
0.0
  0
LINE
  5
EC
100
AcDbEntity
  8
3
  6
CONTINUOUS
 62
     2
100
AcDbLine
 10
248.252096
 20
15.307334
 30
0.0
 11
246.675336
 21
15.307334
 31
0.0
  0
LINE
  5
ED
100
AcDbEntity
  8
3
  6
CONTINUOUS
 62
     2
100
AcDbLine
 10
251.742716
 20
15.307334
 30
0.0
 11
252.94172
 21
15.307334
 31
0.0
  0
LINE
  5
EE
100
AcDbEntity
  8
3
  6
CONTINUOUS
 62
     2
100
AcDbLine
 10
245.392382
 20
15.907334
 30
0.0
 11
247.66622
 21
15.907334
 31
0.0
  0
LINE
  5
EF
100
AcDbEntity
  8
3
  6
CONTINUOUS
 62
     2
100
AcDbLine
 10
251.741904
 20
15.907334
 30
0.0
 11
252.943352
 21
15.907334
 31
0.0
  0
LINE
  5
F0
100
AcDbEntity
  8
3
  6
CONTINUOUS
 62
     2
100
AcDbLine
 10
245.391336
 20
16.507334
 30
0.0
 11
247.080342
 21
16.507334
 31
0.0
  0
LINE
  5
F1
100
AcDbEntity
  8
3
  6
CONTINUOUS
 62
     2
100
AcDbLine
 10
251.741094
 20
16.507334
 30
0.0
 11
252.944986
 21
16.507334
 31
0.0
  0
LINE
  5
F2
100
AcDbEntity
  8
3
  6
CONTINUOUS
 62
     2
100
AcDbLine
 10
245.390288
 20
17.107334
 30
0.0
 11
246.494466
 21
17.107334
 31
0.0
  0
LINE
  5
F3
100
AcDbEntity
  8
3
  6
CONTINUOUS
 62
     2
100
AcDbLine
 10
251.740282
 20
17.107334
 30
0.0
 11
252.94662
 21
17.107334
 31
0.0
  0
LINE
  5
F4
100
AcDbEntity
  8
3
  6
CONTINUOUS
 62
     2
100
AcDbLine
 10
258.190642
 20
17.253622
 30
0.0
 11
259.294566
 21
17.253622
 31
0.0
  0
LINE
  5
F5
100
AcDbEntity
  8
3
  6
CONTINUOUS
 62
     2
100
AcDbLine
 10
256.63711
 20
16.653622
 30
0.0
 11
260.848098
 21
16.653622
 31
0.0
  0
LINE
  5
F6
100
AcDbEntity
  8
3
  6
CONTINUOUS
 62
     2
100
AcDbLine
 10
255.942328
 20
16.053622
 30
0.0
 11
257.750466
 21
16.053622
 31
0.0
  0
LINE
  5
F7
100
AcDbEntity
  8
3
  6
CONTINUOUS
 62
     2
100
AcDbLine
 10
261.542882
 20
16.053622
 30
0.0
 11
259.755444
 21
16.053622
 31
0.0
  0
LINE
  5
F8
100
AcDbEntity
  8
3
  6
CONTINUOUS
 62
     2
100
AcDbLine
 10
255.49761
 20
15.453622
 30
0.0
 11
256.815336
 21
15.453622
 31
0.0
  0
LINE
  5
F9
100
AcDbEntity
  8
3
  6
CONTINUOUS
 62
     2
100
AcDbLine
 10
261.9876
 20
15.453622
 30
0.0
 11
260.690574
 21
15.453622
 31
0.0
  0
LINE
  5
FA
100
AcDbEntity
  8
3
  6
CONTINUOUS
 62
     2
100
AcDbLine
 10
255.207292
 20
14.853622
 30
0.0
 11
256.348012
 21
14.853622
 31
0.0
  0
LINE
  5
FB
100
AcDbEntity
  8
3
  6
CONTINUOUS
 62
     2
100
AcDbLine
 10
262.277918
 20
14.853622
 30
0.0
 11
261.157898
 21
14.853622
 31
0.0
  0
LINE
  5
FC
100
AcDbEntity
  8
3
  6
CONTINUOUS
 62
     2
100
AcDbLine
 10
255.034926
 20
14.253622
 30
0.0
 11
256.089662
 21
14.253622
 31
0.0
  0
LINE
  5
FD
100
AcDbEntity
  8
3
  6
CONTINUOUS
 62
     2
100
AcDbLine
 10
262.450284
 20
14.253622
 30
0.0
 11
261.416248
 21
14.253622
 31
0.0
  0
LINE
  5
FE
100
AcDbEntity
  8
3
  6
CONTINUOUS
 62
     2
100
AcDbLine
 10
254.964336
 20
13.653622
 30
0.0
 11
255.98122
 21
13.653622
 31
0.0
  0
LINE
  5
FF
100
AcDbEntity
  8
3
  6
CONTINUOUS
 62
     2
100
AcDbLine
 10
262.520874
 20
13.653622
 30
0.0
 11
261.52469
 21
13.653622
 31
0.0
  0
LINE
  5
100
100
AcDbEntity
  8
3
  6
CONTINUOUS
 62
     2
100
AcDbLine
 10
254.98977
 20
13.053622
 30
0.0
 11
256.004884
 21
13.053622
 31
0.0
  0
LINE
  5
101
100
AcDbEntity
  8
3
  6
CONTINUOUS
 62
     2
100
AcDbLine
 10
262.49544
 20
13.053622
 30
0.0
 11
261.501026
 21
13.053622
 31
0.0
  0
LINE
  5
102
100
AcDbEntity
  8
3
  6
CONTINUOUS
 62
     2
100
AcDbLine
 10
255.113252
 20
12.453622
 30
0.0
 11
256.164272
 21
12.453622
 31
0.0
  0
LINE
  5
103
100
AcDbEntity
  8
3
  6
CONTINUOUS
 62
     2
100
AcDbLine
 10
262.371958
 20
12.453622
 30
0.0
 11
261.341638
 21
12.453622
 31
0.0
  0
LINE
  5
104
100
AcDbEntity
  8
3
  6
CONTINUOUS
 62
     2
100
AcDbLine
 10
255.345452
 20
11.853622
 30
0.0
 11
256.48786
 21
11.853622
 31
0.0
  0
LINE
  5
105
100
AcDbEntity
  8
3
  6
CONTINUOUS
 62
     2
100
AcDbLine
 10
262.139758
 20
11.853622
 30
0.0
 11
261.01805
 21
11.853622
 31
0.0
  0
LINE
  5
106
100
AcDbEntity
  8
3
  6
CONTINUOUS
 62
     2
100
AcDbLine
 10
255.711252
 20
11.253622
 30
0.0
 11
257.067714
 21
11.253622
 31
0.0
  0
LINE
  5
107
100
AcDbEntity
  8
3
  6
CONTINUOUS
 62
     2
100
AcDbLine
 10
261.773956
 20
11.253622
 30
0.0
 11
260.438196
 21
11.253622
 31
0.0
  0
LINE
  5
108
100
AcDbEntity
  8
3
  6
CONTINUOUS
 62
     2
100
AcDbLine
 10
256.269238
 20
10.653622
 30
0.0
 11
261.21597
 21
10.653622
 31
0.0
  0
LINE
  5
109
100
AcDbEntity
  8
3
  6
CONTINUOUS
 62
     2
100
AcDbLine
 10
257.217488
 20
10.053622
 30
0.0
 11
260.267722
 21
10.053622
 31
0.0
  0
LINE
  5
10A
100
AcDbEntity
  8
3
  6
CONTINUOUS
 62
     2
100
AcDbLine
 10
388.149048
 20
11.066036
 30
0.0
 11
389.40823
 21
11.066036
 31
0.0
  0
LINE
  5
10B
100
AcDbEntity
  8
3
  6
CONTINUOUS
 62
     2
100
AcDbLine
 10
388.148
 20
11.666036
 30
0.0
 11
389.407182
 21
11.666036
 31
0.0
  0
LINE
  5
10C
100
AcDbEntity
  8
3
  6
CONTINUOUS
 62
     2
100
AcDbLine
 10
388.146954
 20
12.266036
 30
0.0
 11
389.406134
 21
12.266036
 31
0.0
  0
LINE
  5
10D
100
AcDbEntity
  8
3
  6
CONTINUOUS
 62
     2
100
AcDbLine
 10
388.145906
 20
12.866036
 30
0.0
 11
389.405088
 21
12.866036
 31
0.0
  0
LINE
  5
10E
100
AcDbEntity
  8
3
  6
CONTINUOUS
 62
     2
100
AcDbLine
 10
388.144858
 20
13.466036
 30
0.0
 11
389.40404
 21
13.466036
 31
0.0
  0
LINE
  5
10F
100
AcDbEntity
  8
3
  6
CONTINUOUS
 62
     2
100
AcDbLine
 10
388.143812
 20
14.066036
 30
0.0
 11
389.402994
 21
14.066036
 31
0.0
  0
LINE
  5
110
100
AcDbEntity
  8
3
  6
CONTINUOUS
 62
     2
100
AcDbLine
 10
388.142764
 20
14.666036
 30
0.0
 11
389.401946
 21
14.666036
 31
0.0
  0
LINE
  5
111
100
AcDbEntity
  8
3
  6
CONTINUOUS
 62
     2
100
AcDbLine
 10
388.141718
 20
15.266036
 30
0.0
 11
389.400898
 21
15.266036
 31
0.0
  0
LINE
  5
112
100
AcDbEntity
  8
3
  6
CONTINUOUS
 62
     2
100
AcDbLine
 10
388.14067
 20
15.866036
 30
0.0
 11
389.399852
 21
15.866036
 31
0.0
  0
LINE
  5
113
100
AcDbEntity
  8
3
  6
CONTINUOUS
 62
     2
100
AcDbLine
 10
384.4349
 20
16.361024
 30
0.0
 11
378.487792
 21
16.361024
 31
0.0
  0
LINE
  5
114
100
AcDbEntity
  8
3
  6
CONTINUOUS
 62
     2
100
AcDbLine
 10
386.223146
 20
16.961024
 30
0.0
 11
378.486744
 21
16.961024
 31
0.0
  0
LINE
  5
115
100
AcDbEntity
  8
3
  6
CONTINUOUS
 62
     2
100
AcDbLine
 10
383.06085
 20
15.758624
 30
0.0
 11
381.917848
 21
15.758624
 31
0.0
  0
LINE
  5
116
100
AcDbEntity
  8
3
  6
CONTINUOUS
 62
     2
100
AcDbLine
 10
383.061896
 20
15.158624
 30
0.0
 11
381.918896
 21
15.158624
 31
0.0
  0
LINE
  5
117
100
AcDbEntity
  8
3
  6
CONTINUOUS
 62
     2
100
AcDbLine
 10
383.062944
 20
14.558624
 30
0.0
 11
381.919942
 21
14.558624
 31
0.0
  0
LINE
  5
118
100
AcDbEntity
  8
3
  6
CONTINUOUS
 62
     2
100
AcDbLine
 10
383.063992
 20
13.958624
 30
0.0
 11
381.92099
 21
13.958624
 31
0.0
  0
LINE
  5
119
100
AcDbEntity
  8
3
  6
CONTINUOUS
 62
     2
100
AcDbLine
 10
383.065038
 20
13.358624
 30
0.0
 11
381.922036
 21
13.358624
 31
0.0
  0
LINE
  5
11A
100
AcDbEntity
  8
3
  6
CONTINUOUS
 62
     2
100
AcDbLine
 10
383.066086
 20
12.758624
 30
0.0
 11
381.923084
 21
12.758624
 31
0.0
  0
LINE
  5
11B
100
AcDbEntity
  8
3
  6
CONTINUOUS
 62
     2
100
AcDbLine
 10
383.067132
 20
12.158624
 30
0.0
 11
381.924132
 21
12.158624
 31
0.0
  0
LINE
  5
11C
100
AcDbEntity
  8
3
  6
CONTINUOUS
 62
     2
100
AcDbLine
 10
383.06818
 20
11.558624
 30
0.0
 11
381.925178
 21
11.558624
 31
0.0
  0
LINE
  5
11D
100
AcDbEntity
  8
3
  6
CONTINUOUS
 62
     2
100
AcDbLine
 10
383.069228
 20
10.958624
 30
0.0
 11
381.926226
 21
10.958624
 31
0.0
  0
LINE
  5
11E
100
AcDbEntity
  8
3
  6
CONTINUOUS
 62
     2
100
AcDbLine
 10
383.070274
 20
10.358624
 30
0.0
 11
381.927272
 21
10.358624
 31
0.0
  0
LINE
  5
11F
100
AcDbEntity
  8
3
  6
CONTINUOUS
 62
     2
100
AcDbLine
 10
370.587702
 20
16.77687
 30
0.0
 11
371.830244
 21
16.77687
 31
0.0
  0
LINE
  5
120
100
AcDbEntity
  8
3
  6
CONTINUOUS
 62
     2
100
AcDbLine
 10
370.590988
 20
16.17687
 30
0.0
 11
371.830602
 21
16.17687
 31
0.0
  0
LINE
  5
121
100
AcDbEntity
  8
3
  6
CONTINUOUS
 62
     2
100
AcDbLine
 10
370.594276
 20
15.57687
 30
0.0
 11
371.83096
 21
15.57687
 31
0.0
  0
LINE
  5
122
100
AcDbEntity
  8
3
  6
CONTINUOUS
 62
     2
100
AcDbLine
 10
370.597564
 20
14.97687
 30
0.0
 11
371.831316
 21
14.97687
 31
0.0
  0
LINE
  5
123
100
AcDbEntity
  8
3
  6
CONTINUOUS
 62
     2
100
AcDbLine
 10
370.600852
 20
14.37687
 30
0.0
 11
371.831674
 21
14.37687
 31
0.0
  0
LINE
  5
124
100
AcDbEntity
  8
3
  6
CONTINUOUS
 62
     2
100
AcDbLine
 10
370.604138
 20
13.77687
 30
0.0
 11
371.832032
 21
13.77687
 31
0.0
  0
LINE
  5
125
100
AcDbEntity
  8
3
  6
CONTINUOUS
 62
     2
100
AcDbLine
 10
370.607426
 20
13.17687
 30
0.0
 11
371.832388
 21
13.17687
 31
0.0
  0
LINE
  5
126
100
AcDbEntity
  8
3
  6
CONTINUOUS
 62
     2
100
AcDbLine
 10
370.610714
 20
12.57687
 30
0.0
 11
371.832746
 21
12.57687
 31
0.0
  0
LINE
  5
127
100
AcDbEntity
  8
3
  6
CONTINUOUS
 62
     2
100
AcDbLine
 10
370.614002
 20
11.97687
 30
0.0
 11
371.833102
 21
11.97687
 31
0.0
  0
LINE
  5
128
100
AcDbEntity
  8
3
  6
CONTINUOUS
 62
     2
100
AcDbLine
 10
370.617288
 20
11.37687
 30
0.0
 11
371.83346
 21
11.37687
 31
0.0
  0
LINE
  5
129
100
AcDbEntity
  8
3
  6
CONTINUOUS
 62
     2
100
AcDbLine
 10
370.620576
 20
10.77687
 30
0.0
 11
378.338178
 21
10.77687
 31
0.0
  0
LINE
  5
12A
100
AcDbEntity
  8
3
  6
CONTINUOUS
 62
     2
100
AcDbLine
 10
370.623864
 20
10.17687
 30
0.0
 11
378.339226
 21
10.17687
 31
0.0
  0
LINE
  5
12B
100
AcDbEntity
  8
3
  6
CONTINUOUS
 62
     2
100
AcDbLine
 10
364.632664
 20
10.537606
 30
0.0
 11
366.216164
 21
10.537606
 31
0.0
  0
LINE
  5
12C
100
AcDbEntity
  8
3
  6
CONTINUOUS
 62
     2
100
AcDbLine
 10
364.989094
 20
11.137606
 30
0.0
 11
365.859734
 21
11.137606
 31
0.0
  0
LINE
  5
12D
100
AcDbEntity
  8
3
  6
CONTINUOUS
 62
     2
100
AcDbLine
 10
364.837702
 20
9.937606
 30
0.0
 11
366.011126
 21
9.937606
 31
0.0
  0
LINE
  5
12E
100
AcDbEntity
  8
3
  6
CONTINUOUS
 62
     2
100
AcDbLine
 10
365.280136
 20
9.337606
 30
0.0
 11
364.751378
 21
9.337606
 31
0.0
  0
LINE
  5
12F
100
AcDbEntity
  8
3
  6
CONTINUOUS
 62
     2
100
AcDbLine
 10
364.553084
 20
8.737606
 30
0.0
 11
364.538954
 21
8.737606
 31
0.0
  0
LINE
  5
130
100
AcDbEntity
  8
3
  6
CONTINUOUS
 62
     2
100
AcDbLine
 10
362.277368
 20
10.355928
 30
0.0
 11
363.41662
 21
10.355928
 31
0.0
  0
LINE
  5
131
100
AcDbEntity
  8
3
  6
CONTINUOUS
 62
     2
100
AcDbLine
 10
362.448424
 20
10.955928
 30
0.0
 11
363.245564
 21
10.955928
 31
0.0
  0
LINE
  5
132
100
AcDbEntity
  8
3
  6
CONTINUOUS
 62
     2
100
AcDbLine
 10
354.09671
 20
16.003732
 30
0.0
 11
355.936014
 21
16.003732
 31
0.0
  0
LINE
  5
133
100
AcDbEntity
  8
3
  6
CONTINUOUS
 62
     2
100
AcDbLine
 10
360.216286
 20
16.003732
 30
0.0
 11
358.49587
 21
16.003732
 31
0.0
  0
LINE
  5
134
100
AcDbEntity
  8
3
  6
CONTINUOUS
 62
     2
100
AcDbLine
 10
354.671842
 20
16.603732
 30
0.0
 11
359.641154
 21
16.603732
 31
0.0
  0
LINE
  5
135
100
AcDbEntity
  8
3
  6
CONTINUOUS
 62
     2
100
AcDbLine
 10
355.651596
 20
17.203732
 30
0.0
 11
358.661398
 21
17.203732
 31
0.0
  0
LINE
  5
136
100
AcDbEntity
  8
3
  6
CONTINUOUS
 62
     2
100
AcDbLine
 10
353.716862
 20
15.403732
 30
0.0
 11
355.232584
 21
15.403732
 31
0.0
  0
LINE
  5
137
100
AcDbEntity
  8
3
  6
CONTINUOUS
 62
     2
100
AcDbLine
 10
360.596132
 20
15.403732
 30
0.0
 11
359.191744
 21
15.403732
 31
0.0
  0
LINE
  5
138
100
AcDbEntity
  8
3
  6
CONTINUOUS
 62
     2
100
AcDbLine
 10
353.471408
 20
14.803732
 30
0.0
 11
354.790854
 21
14.803732
 31
0.0
  0
LINE
  5
139
100
AcDbEntity
  8
3
  6
CONTINUOUS
 62
     2
100
AcDbLine
 10
360.841586
 20
14.803732
 30
0.0
 11
359.562994
 21
14.803732
 31
0.0
  0
LINE
  5
13A
100
AcDbEntity
  8
3
  6
CONTINUOUS
 62
     2
100
AcDbLine
 10
353.334368
 20
14.203732
 30
0.0
 11
354.507824
 21
14.203732
 31
0.0
  0
LINE
  5
13B
100
AcDbEntity
  8
3
  6
CONTINUOUS
 62
     2
100
AcDbLine
 10
360.978626
 20
14.203732
 30
0.0
 11
359.751086
 21
14.203732
 31
0.0
  0
LINE
  5
13C
100
AcDbEntity
  8
3
  6
CONTINUOUS
 62
     2
100
AcDbLine
 10
353.294186
 20
13.603732
 30
0.0
 11
354.454262
 21
13.603732
 31
0.0
  0
LINE
  5
13D
100
AcDbEntity
  8
3
  6
CONTINUOUS
 62
     2
100
AcDbLine
 10
361.018808
 20
13.603732
 30
0.0
 11
359.79501
 21
13.603732
 31
0.0
  0
LINE
  5
13E
100
AcDbEntity
  8
3
  6
CONTINUOUS
 62
     2
100
AcDbLine
 10
353.347792
 20
13.003732
 30
0.0
 11
354.547128
 21
13.003732
 31
0.0
  0
LINE
  5
13F
100
AcDbEntity
  8
3
  6
CONTINUOUS
 62
     2
100
AcDbLine
 10
360.965202
 20
13.003732
 30
0.0
 11
359.702144
 21
13.003732
 31
0.0
  0
LINE
  5
140
100
AcDbEntity
  8
3
  6
CONTINUOUS
 62
     2
100
AcDbLine
 10
353.499308
 20
12.403732
 30
0.0
 11
354.79307
 21
12.403732
 31
0.0
  0
LINE
  5
141
100
AcDbEntity
  8
3
  6
CONTINUOUS
 62
     2
100
AcDbLine
 10
360.813686
 20
12.403732
 30
0.0
 11
359.456202
 21
12.403732
 31
0.0
  0
LINE
  5
142
100
AcDbEntity
  8
3
  6
CONTINUOUS
 62
     2
100
AcDbLine
 10
353.761822
 20
11.803732
 30
0.0
 11
355.251442
 21
11.803732
 31
0.0
  0
LINE
  5
143
100
AcDbEntity
  8
3
  6
CONTINUOUS
 62
     2
100
AcDbLine
 10
360.551172
 20
11.803732
 30
0.0
 11
358.99783
 21
11.803732
 31
0.0
  0
LINE
  5
144
100
AcDbEntity
  8
3
  6
CONTINUOUS
 62
     2
100
AcDbLine
 10
354.164408
 20
11.203732
 30
0.0
 11
356.196462
 21
11.203732
 31
0.0
  0
LINE
  5
145
100
AcDbEntity
  8
3
  6
CONTINUOUS
 62
     2
100
AcDbLine
 10
360.148586
 20
11.203732
 30
0.0
 11
358.052812
 21
11.203732
 31
0.0
  0
LINE
  5
146
100
AcDbEntity
  8
3
  6
CONTINUOUS
 62
     2
100
AcDbLine
 10
354.77713
 20
10.603732
 30
0.0
 11
359.535864
 21
10.603732
 31
0.0
  0
LINE
  5
147
100
AcDbEntity
  8
3
  6
CONTINUOUS
 62
     2
100
AcDbLine
 10
355.871906
 20
10.003732
 30
0.0
 11
358.441088
 21
10.003732
 31
0.0
  0
LINE
  5
148
100
AcDbEntity
  8
3
  6
CONTINUOUS
 62
     2
100
AcDbLine
 10
344.212192
 20
15.085966
 30
0.0
 11
345.505864
 21
15.085966
 31
0.0
  0
LINE
  5
149
100
AcDbEntity
  8
3
  6
CONTINUOUS
 62
     2
100
AcDbLine
 10
344.212436
 20
15.086566
 30
0.0
 11
345.506248
 21
15.086566
 31
0.0
  0
LINE
  5
14A
100
AcDbEntity
  8
3
  6
CONTINUOUS
 62
     2
100
AcDbLine
 10
350.008266
 20
15.086566
 30
0.0
 11
350.012482
 21
15.086566
 31
0.0
  0
LINE
  5
14B
100
AcDbEntity
  8
3
  6
CONTINUOUS
 62
     2
100
AcDbLine
 10
344.520862
 20
15.686566
 30
0.0
 11
346.02996
 21
15.686566
 31
0.0
  0
LINE
  5
14C
100
AcDbEntity
  8
3
  6
CONTINUOUS
 62
     2
100
AcDbLine
 10
349.484554
 20
15.686566
 30
0.0
 11
350.684134
 21
15.686566
 31
0.0
  0
LINE
  5
14D
100
AcDbEntity
  8
3
  6
CONTINUOUS
 62
     2
100
AcDbLine
 10
344.98669
 20
16.286566
 30
0.0
 11
347.332916
 21
16.286566
 31
0.0
  0
LINE
  5
14E
100
AcDbEntity
  8
3
  6
CONTINUOUS
 62
     2
100
AcDbLine
 10
350.612252
 20
16.286566
 30
0.0
 11
348.181598
 21
16.286566
 31
0.0
  0
LINE
  5
14F
100
AcDbEntity
  8
3
  6
CONTINUOUS
 62
     2
100
AcDbLine
 10
345.7128
 20
16.886566
 30
0.0
 11
349.886142
 21
16.886566
 31
0.0
  0
LINE
  5
150
100
AcDbEntity
  8
3
  6
CONTINUOUS
 62
     2
100
AcDbLine
 10
347.522598
 20
17.486566
 30
0.0
 11
348.076342
 21
17.486566
 31
0.0
  0
LINE
  5
151
100
AcDbEntity
  8
3
  6
CONTINUOUS
 62
     2
100
AcDbLine
 10
344.022104
 20
14.484166
 30
0.0
 11
345.220616
 21
14.484166
 31
0.0
  0
LINE
  5
152
100
AcDbEntity
  8
3
  6
CONTINUOUS
 62
     2
100
AcDbLine
 10
343.933832
 20
13.884166
 30
0.0
 11
345.097342
 21
13.884166
 31
0.0
  0
LINE
  5
153
100
AcDbEntity
  8
3
  6
CONTINUOUS
 62
     2
100
AcDbLine
 10
343.939702
 20
13.284166
 30
0.0
 11
345.112306
 21
13.284166
 31
0.0
  0
LINE
  5
154
100
AcDbEntity
  8
3
  6
CONTINUOUS
 62
     2
100
AcDbLine
 10
344.040152
 20
12.684166
 30
0.0
 11
345.268006
 21
12.684166
 31
0.0
  0
LINE
  5
155
100
AcDbEntity
  8
3
  6
CONTINUOUS
 62
     2
100
AcDbLine
 10
344.24319
 20
12.084166
 30
0.0
 11
345.594624
 21
12.084166
 31
0.0
  0
LINE
  5
156
100
AcDbEntity
  8
3
  6
CONTINUOUS
 62
     2
100
AcDbLine
 10
350.081902
 20
12.084166
 30
0.0
 11
349.91989
 21
12.084166
 31
0.0
  0
LINE
  5
157
100
AcDbEntity
  8
3
  6
CONTINUOUS
 62
     2
100
AcDbLine
 10
344.568094
 20
11.484166
 30
0.0
 11
346.195978
 21
11.484166
 31
0.0
  0
LINE
  5
158
100
AcDbEntity
  8
3
  6
CONTINUOUS
 62
     2
100
AcDbLine
 10
350.780714
 20
11.484166
 30
0.0
 11
349.318536
 21
11.484166
 31
0.0
  0
LINE
  5
159
100
AcDbEntity
  8
3
  6
CONTINUOUS
 62
     2
100
AcDbLine
 10
345.057856
 20
10.884166
 30
0.0
 11
350.541086
 21
10.884166
 31
0.0
  0
LINE
  5
15A
100
AcDbEntity
  8
3
  6
CONTINUOUS
 62
     2
100
AcDbLine
 10
345.831956
 20
10.284166
 30
0.0
 11
349.766984
 21
10.284166
 31
0.0
  0
LINE
  5
15B
100
AcDbEntity
  8
3
  6
CONTINUOUS
 62
     2
100
AcDbLine
 10
330.39051
 20
11.938724
 30
0.0
 11
331.689336
 21
11.938724
 31
0.0
  0
LINE
  5
15C
100
AcDbEntity
  8
3
  6
CONTINUOUS
 62
     2
100
AcDbLine
 10
330.178228
 20
12.538724
 30
0.0
 11
331.36949
 21
12.538724
 31
0.0
  0
LINE
  5
15D
100
AcDbEntity
  8
3
  6
CONTINUOUS
 62
     2
100
AcDbLine
 10
330.06959
 20
13.138724
 30
0.0
 11
331.213606
 21
13.138724
 31
0.0
  0
LINE
  5
15E
100
AcDbEntity
  8
3
  6
CONTINUOUS
 62
     2
100
AcDbLine
 10
330.05586
 20
13.738724
 30
0.0
 11
331.193736
 21
13.738724
 31
0.0
  0
LINE
  5
15F
100
AcDbEntity
  8
3
  6
CONTINUOUS
 62
     2
100
AcDbLine
 10
330.136006
 20
14.338724
 30
0.0
 11
331.306814
 21
14.338724
 31
0.0
  0
LINE
  5
160
100
AcDbEntity
  8
3
  6
CONTINUOUS
 62
     2
100
AcDbLine
 10
330.316276
 20
14.938724
 30
0.0
 11
331.571714
 21
14.938724
 31
0.0
  0
LINE
  5
161
100
AcDbEntity
  8
3
  6
CONTINUOUS
 62
     2
100
AcDbLine
 10
330.612972
 20
15.538724
 30
0.0
 11
332.050908
 21
15.538724
 31
0.0
  0
LINE
  5
162
100
AcDbEntity
  8
3
  6
CONTINUOUS
 62
     2
100
AcDbLine
 10
336.768066
 20
15.538724
 30
0.0
 11
335.851442
 21
15.538724
 31
0.0
  0
LINE
  5
163
100
AcDbEntity
  8
3
  6
CONTINUOUS
 62
     2
100
AcDbLine
 10
331.062056
 20
16.138724
 30
0.0
 11
333.034552
 21
16.138724
 31
0.0
  0
LINE
  5
164
100
AcDbEntity
  8
3
  6
CONTINUOUS
 62
     2
100
AcDbLine
 10
336.789808
 20
16.138724
 30
0.0
 11
334.867798
 21
16.138724
 31
0.0
  0
LINE
  5
165
100
AcDbEntity
  8
3
  6
CONTINUOUS
 62
     2
100
AcDbLine
 10
331.75617
 20
16.738724
 30
0.0
 11
336.095694
 21
16.738724
 31
0.0
  0
LINE
  5
166
100
AcDbEntity
  8
3
  6
CONTINUOUS
 62
     2
100
AcDbLine
 10
333.223118
 20
17.338724
 30
0.0
 11
334.628746
 21
17.338724
 31
0.0
  0
LINE
  5
167
100
AcDbEntity
  8
3
  6
CONTINUOUS
 62
     2
100
AcDbLine
 10
330.728238
 20
11.336924
 30
0.0
 11
332.266288
 21
11.336924
 31
0.0
  0
LINE
  5
168
100
AcDbEntity
  8
3
  6
CONTINUOUS
 62
     2
100
AcDbLine
 10
335.636062
 20
11.336924
 30
0.0
 11
336.992678
 21
11.336924
 31
0.0
  0
LINE
  5
169
100
AcDbEntity
  8
3
  6
CONTINUOUS
 62
     2
100
AcDbLine
 10
331.235764
 20
10.736924
 30
0.0
 11
336.6161
 21
10.736924
 31
0.0
  0
LINE
  5
16A
100
AcDbEntity
  8
3
  6
CONTINUOUS
 62
     2
100
AcDbLine
 10
332.047432
 20
10.136924
 30
0.0
 11
335.804432
 21
10.136924
 31
0.0
  0
LINE
  5
16B
100
AcDbEntity
  8
3
  6
CONTINUOUS
 62
     2
100
AcDbLine
 10
326.427482
 20
10.763774
 30
0.0
 11
327.697484
 21
10.763774
 31
0.0
  0
LINE
  5
16C
100
AcDbEntity
  8
3
  6
CONTINUOUS
 62
     2
100
AcDbLine
 10
326.426434
 20
11.363774
 30
0.0
 11
327.696436
 21
11.363774
 31
0.0
  0
LINE
  5
16D
100
AcDbEntity
  8
3
  6
CONTINUOUS
 62
     2
100
AcDbLine
 10
326.425388
 20
11.963774
 30
0.0
 11
327.69539
 21
11.963774
 31
0.0
  0
LINE
  5
16E
100
AcDbEntity
  8
3
  6
CONTINUOUS
 62
     2
100
AcDbLine
 10
326.42434
 20
12.563774
 30
0.0
 11
327.694342
 21
12.563774
 31
0.0
  0
LINE
  5
16F
100
AcDbEntity
  8
3
  6
CONTINUOUS
 62
     2
100
AcDbLine
 10
326.423294
 20
13.163774
 30
0.0
 11
327.693296
 21
13.163774
 31
0.0
  0
LINE
  5
170
100
AcDbEntity
  8
3
  6
CONTINUOUS
 62
     2
100
AcDbLine
 10
326.422246
 20
13.763774
 30
0.0
 11
327.692248
 21
13.763774
 31
0.0
  0
LINE
  5
171
100
AcDbEntity
  8
3
  6
CONTINUOUS
 62
     2
100
AcDbLine
 10
326.421198
 20
14.363774
 30
0.0
 11
327.6912
 21
14.363774
 31
0.0
  0
LINE
  5
172
100
AcDbEntity
  8
3
  6
CONTINUOUS
 62
     2
100
AcDbLine
 10
326.420152
 20
14.963774
 30
0.0
 11
327.690154
 21
14.963774
 31
0.0
  0
LINE
  5
173
100
AcDbEntity
  8
3
  6
CONTINUOUS
 62
     2
100
AcDbLine
 10
326.419104
 20
15.563774
 30
0.0
 11
327.689106
 21
15.563774
 31
0.0
  0
LINE
  5
174
100
AcDbEntity
  8
3
  6
CONTINUOUS
 62
     2
100
AcDbLine
 10
326.418058
 20
16.163774
 30
0.0
 11
327.68806
 21
16.163774
 31
0.0
  0
LINE
  5
175
100
AcDbEntity
  8
3
  6
CONTINUOUS
 62
     2
100
AcDbLine
 10
326.41701
 20
16.763774
 30
0.0
 11
327.687012
 21
16.763774
 31
0.0
  0
LINE
  5
176
100
AcDbEntity
  8
3
  6
CONTINUOUS
 62
     2
100
AcDbLine
 10
316.740056
 20
16.267502
 30
0.0
 11
324.415414
 21
16.267502
 31
0.0
  0
LINE
  5
177
100
AcDbEntity
  8
3
  6
CONTINUOUS
 62
     2
100
AcDbLine
 10
316.739008
 20
16.867502
 30
0.0
 11
323.922998
 21
16.867502
 31
0.0
  0
LINE
  5
178
100
AcDbEntity
  8
3
  6
CONTINUOUS
 62
     2
100
AcDbLine
 10
316.741106
 20
15.665102
 30
0.0
 11
318.124952
 21
15.665102
 31
0.0
  0
LINE
  5
179
100
AcDbEntity
  8
3
  6
CONTINUOUS
 62
     2
100
AcDbLine
 10
324.641138
 20
15.665102
 30
0.0
 11
323.234762
 21
15.665102
 31
0.0
  0
LINE
  5
17A
100
AcDbEntity
  8
3
  6
CONTINUOUS
 62
     2
100
AcDbLine
 10
316.742154
 20
15.065102
 30
0.0
 11
318.125998
 21
15.065102
 31
0.0
  0
LINE
  5
17B
100
AcDbEntity
  8
3
  6
CONTINUOUS
 62
     2
100
AcDbLine
 10
324.68356
 20
15.065102
 30
0.0
 11
323.343498
 21
15.065102
 31
0.0
  0
LINE
  5
17C
100
AcDbEntity
  8
3
  6
CONTINUOUS
 62
     2
100
AcDbLine
 10
316.7432
 20
14.465102
 30
0.0
 11
318.127046
 21
14.465102
 31
0.0
  0
LINE
  5
17D
100
AcDbEntity
  8
3
  6
CONTINUOUS
 62
     2
100
AcDbLine
 10
324.55542
 20
14.465102
 30
0.0
 11
323.06582
 21
14.465102
 31
0.0
  0
LINE
  5
17E
100
AcDbEntity
  8
3
  6
CONTINUOUS
 62
     2
100
AcDbLine
 10
316.744248
 20
13.865102
 30
0.0
 11
324.218556
 21
13.865102
 31
0.0
  0
LINE
  5
17F
100
AcDbEntity
  8
3
  6
CONTINUOUS
 62
     2
100
AcDbLine
 10
316.745296
 20
13.265102
 30
0.0
 11
323.472716
 21
13.265102
 31
0.0
  0
LINE
  5
180
100
AcDbEntity
  8
3
  6
CONTINUOUS
 62
     2
100
AcDbLine
 10
316.746342
 20
12.665102
 30
0.0
 11
318.130188
 21
12.665102
 31
0.0
  0
LINE
  5
181
100
AcDbEntity
  8
3
  6
CONTINUOUS
 62
     2
100
AcDbLine
 10
321.12842
 20
12.665102
 30
0.0
 11
322.459904
 21
12.665102
 31
0.0
  0
LINE
  5
182
100
AcDbEntity
  8
3
  6
CONTINUOUS
 62
     2
100
AcDbLine
 10
316.74739
 20
12.065102
 30
0.0
 11
318.131234
 21
12.065102
 31
0.0
  0
LINE
  5
183
100
AcDbEntity
  8
3
  6
CONTINUOUS
 62
     2
100
AcDbLine
 10
321.607368
 20
12.065102
 30
0.0
 11
322.962702
 21
12.065102
 31
0.0
  0
LINE
  5
184
100
AcDbEntity
  8
3
  6
CONTINUOUS
 62
     2
100
AcDbLine
 10
316.748436
 20
11.465102
 30
0.0
 11
318.132282
 21
11.465102
 31
0.0
  0
LINE
  5
185
100
AcDbEntity
  8
3
  6
CONTINUOUS
 62
     2
100
AcDbLine
 10
322.086316
 20
11.465102
 30
0.0
 11
323.4655
 21
11.465102
 31
0.0
  0
LINE
  5
186
100
AcDbEntity
  8
3
  6
CONTINUOUS
 62
     2
100
AcDbLine
 10
316.749484
 20
10.865102
 30
0.0
 11
318.13333
 21
10.865102
 31
0.0
  0
LINE
  5
187
100
AcDbEntity
  8
3
  6
CONTINUOUS
 62
     2
100
AcDbLine
 10
322.565266
 20
10.865102
 30
0.0
 11
323.968298
 21
10.865102
 31
0.0
  0
LINE
  5
188
100
AcDbEntity
  8
3
  6
CONTINUOUS
 62
     2
100
AcDbLine
 10
316.750532
 20
10.265102
 30
0.0
 11
318.134376
 21
10.265102
 31
0.0
  0
LINE
  5
189
100
AcDbEntity
  8
3
  6
CONTINUOUS
 62
     2
100
AcDbLine
 10
323.044214
 20
10.265102
 30
0.0
 11
324.471098
 21
10.265102
 31
0.0
  0
LINE
  5
18A
100
AcDbEntity
  8
3
  6
CONTINUOUS
 62
     2
100
AcDbLine
 10
306.984198
 20
16.243072
 30
0.0
 11
315.368872
 21
16.243072
 31
0.0
  0
LINE
  5
18B
100
AcDbEntity
  8
3
  6
CONTINUOUS
 62
     2
100
AcDbLine
 10
306.98315
 20
16.843072
 30
0.0
 11
315.361002
 21
16.843072
 31
0.0
  0
LINE
  5
18C
100
AcDbEntity
  8
3
  6
CONTINUOUS
 62
     2
100
AcDbLine
 10
310.27344
 20
15.638872
 30
0.0
 11
311.6393
 21
15.638872
 31
0.0
  0
LINE
  5
18D
100
AcDbEntity
  8
3
  6
CONTINUOUS
 62
     2
100
AcDbLine
 10
310.276288
 20
15.038872
 30
0.0
 11
311.640348
 21
15.038872
 31
0.0
  0
LINE
  5
18E
100
AcDbEntity
  8
3
  6
CONTINUOUS
 62
     2
100
AcDbLine
 10
310.279134
 20
14.438872
 30
0.0
 11
311.641396
 21
14.438872
 31
0.0
  0
LINE
  5
18F
100
AcDbEntity
  8
3
  6
CONTINUOUS
 62
     2
100
AcDbLine
 10
310.281982
 20
13.838872
 30
0.0
 11
311.642442
 21
13.838872
 31
0.0
  0
LINE
  5
190
100
AcDbEntity
  8
3
  6
CONTINUOUS
 62
     2
100
AcDbLine
 10
310.284828
 20
13.238872
 30
0.0
 11
311.64349
 21
13.238872
 31
0.0
  0
LINE
  5
191
100
AcDbEntity
  8
3
  6
CONTINUOUS
 62
     2
100
AcDbLine
 10
310.287676
 20
12.638872
 30
0.0
 11
311.644536
 21
12.638872
 31
0.0
  0
LINE
  5
192
100
AcDbEntity
  8
3
  6
CONTINUOUS
 62
     2
100
AcDbLine
 10
310.290522
 20
12.038872
 30
0.0
 11
311.645584
 21
12.038872
 31
0.0
  0
LINE
  5
193
100
AcDbEntity
  8
3
  6
CONTINUOUS
 62
     2
100
AcDbLine
 10
310.29337
 20
11.438872
 30
0.0
 11
311.646632
 21
11.438872
 31
0.0
  0
LINE
  5
194
100
AcDbEntity
  8
3
  6
CONTINUOUS
 62
     2
100
AcDbLine
 10
310.296216
 20
10.838872
 30
0.0
 11
311.647678
 21
10.838872
 31
0.0
  0
LINE
  5
195
100
AcDbEntity
  8
3
  6
CONTINUOUS
 62
     2
100
AcDbLine
 10
310.299064
 20
10.238872
 30
0.0
 11
311.648726
 21
10.238872
 31
0.0
  0
LINE
  5
196
100
AcDbEntity
  8
3
  6
CONTINUOUS
 62
     2
100
AcDbLine
 10
298.423066
 20
15.47996
 30
0.0
 11
300.11482
 21
15.47996
 31
0.0
  0
LINE
  5
197
100
AcDbEntity
  8
3
  6
CONTINUOUS
 62
     2
100
AcDbLine
 10
303.427426
 20
15.47996
 30
0.0
 11
304.596842
 21
15.47996
 31
0.0
  0
LINE
  5
198
100
AcDbEntity
  8
3
  6
CONTINUOUS
 62
     2
100
AcDbLine
 10
298.848294
 20
16.07996
 30
0.0
 11
301.596462
 21
16.07996
 31
0.0
  0
LINE
  5
199
100
AcDbEntity
  8
3
  6
CONTINUOUS
 62
     2
100
AcDbLine
 10
304.689544
 20
16.07996
 30
0.0
 11
301.945784
 21
16.07996
 31
0.0
  0
LINE
  5
19A
100
AcDbEntity
  8
3
  6
CONTINUOUS
 62
     2
100
AcDbLine
 10
299.500578
 20
16.67996
 30
0.0
 11
304.03726
 21
16.67996
 31
0.0
  0
LINE
  5
19B
100
AcDbEntity
  8
3
  6
CONTINUOUS
 62
     2
100
AcDbLine
 10
300.748776
 20
17.27996
 30
0.0
 11
302.789062
 21
17.27996
 31
0.0
  0
LINE
  5
19C
100
AcDbEntity
  8
3
  6
CONTINUOUS
 62
     2
100
AcDbLine
 10
298.144086
 20
14.87996
 30
0.0
 11
299.594848
 21
14.87996
 31
0.0
  0
LINE
  5
19D
100
AcDbEntity
  8
3
  6
CONTINUOUS
 62
     2
100
AcDbLine
 10
297.97892
 20
14.27996
 30
0.0
 11
299.319796
 21
14.27996
 31
0.0
  0
LINE
  5
19E
100
AcDbEntity
  8
3
  6
CONTINUOUS
 62
     2
100
AcDbLine
 10
297.912914
 20
13.67996
 30
0.0
 11
299.209514
 21
13.67996
 31
0.0
  0
LINE
  5
19F
100
AcDbEntity
  8
3
  6
CONTINUOUS
 62
     2
100
AcDbLine
 10
297.940936
 20
13.07996
 30
0.0
 11
299.242354
 21
13.07996
 31
0.0
  0
LINE
  5
1A0
100
AcDbEntity
  8
3
  6
CONTINUOUS
 62
     2
100
AcDbLine
 10
298.06512
 20
12.47996
 30
0.0
 11
299.424314
 21
12.47996
 31
0.0
  0
LINE
  5
1A1
100
AcDbEntity
  8
3
  6
CONTINUOUS
 62
     2
100
AcDbLine
 10
298.295764
 20
11.87996
 30
0.0
 11
299.796194
 21
11.87996
 31
0.0
  0
LINE
  5
1A2
100
AcDbEntity
  8
3
  6
CONTINUOUS
 62
     2
100
AcDbLine
 10
304.316134
 20
11.87996
 30
0.0
 11
303.746052
 21
11.87996
 31
0.0
  0
LINE
  5
1A3
100
AcDbEntity
  8
3
  6
CONTINUOUS
 62
     2
100
AcDbLine
 10
298.656446
 20
11.27996
 30
0.0
 11
300.51686
 21
11.27996
 31
0.0
  0
LINE
  5
1A4
100
AcDbEntity
  8
3
  6
CONTINUOUS
 62
     2
100
AcDbLine
 10
304.881392
 20
11.27996
 30
0.0
 11
303.025386
 21
11.27996
 31
0.0
  0
LINE
  5
1A5
100
AcDbEntity
  8
3
  6
CONTINUOUS
 62
     2
100
AcDbLine
 10
299.201396
 20
10.67996
 30
0.0
 11
304.336442
 21
10.67996
 31
0.0
  0
LINE
  5
1A6
100
AcDbEntity
  8
3
  6
CONTINUOUS
 62
     2
100
AcDbLine
 10
300.10253
 20
10.07996
 30
0.0
 11
303.435308
 21
10.07996
 31
0.0
  0
LINE
  5
1A7
100
AcDbEntity
  8
3
  6
CONTINUOUS
 62
     2
100
AcDbLine
 10
289.226486
 20
14.168298
 30
0.0
 11
287.946426
 21
14.168298
 31
0.0
  0
LINE
  5
1A8
100
AcDbEntity
  8
3
  6
CONTINUOUS
 62
     2
100
AcDbLine
 10
290.601588
 20
14.168298
 30
0.0
 11
294.035278
 21
14.168298
 31
0.0
  0
LINE
  5
1A9
100
AcDbEntity
  8
3
  6
CONTINUOUS
 62
     2
100
AcDbLine
 10
289.225438
 20
14.768298
 30
0.0
 11
287.945378
 21
14.768298
 31
0.0
  0
LINE
  5
1AA
100
AcDbEntity
  8
3
  6
CONTINUOUS
 62
     2
100
AcDbLine
 10
289.224392
 20
15.368298
 30
0.0
 11
287.944332
 21
15.368298
 31
0.0
  0
LINE
  5
1AB
100
AcDbEntity
  8
3
  6
CONTINUOUS
 62
     2
100
AcDbLine
 10
289.223344
 20
15.968298
 30
0.0
 11
287.943284
 21
15.968298
 31
0.0
  0
LINE
  5
1AC
100
AcDbEntity
  8
3
  6
CONTINUOUS
 62
     2
100
AcDbLine
 10
295.93385
 20
16.568298
 30
0.0
 11
287.942236
 21
16.568298
 31
0.0
  0
LINE
  5
1AD
100
AcDbEntity
  8
3
  6
CONTINUOUS
 62
     2
100
AcDbLine
 10
295.932804
 20
17.168298
 30
0.0
 11
287.94119
 21
17.168298
 31
0.0
  0
LINE
  5
1AE
100
AcDbEntity
  8
3
  6
CONTINUOUS
 62
     2
100
AcDbLine
 10
294.03697
 20
13.565898
 30
0.0
 11
287.947476
 21
13.565898
 31
0.0
  0
LINE
  5
1AF
100
AcDbEntity
  8
3
  6
CONTINUOUS
 62
     2
100
AcDbLine
 10
289.19399
 20
12.965898
 30
0.0
 11
287.948524
 21
12.965898
 31
0.0
  0
LINE
  5
1B0
100
AcDbEntity
  8
3
  6
CONTINUOUS
 62
     2
100
AcDbLine
 10
289.195036
 20
12.365898
 30
0.0
 11
287.949572
 21
12.365898
 31
0.0
  0
LINE
  5
1B1
100
AcDbEntity
  8
3
  6
CONTINUOUS
 62
     2
100
AcDbLine
 10
289.196084
 20
11.765898
 30
0.0
 11
287.950618
 21
11.765898
 31
0.0
  0
LINE
  5
1B2
100
AcDbEntity
  8
3
  6
CONTINUOUS
 62
     2
100
AcDbLine
 10
289.197132
 20
11.165898
 30
0.0
 11
287.951666
 21
11.165898
 31
0.0
  0
LINE
  5
1B3
100
AcDbEntity
  8
3
  6
CONTINUOUS
 62
     2
100
AcDbLine
 10
295.945608
 20
10.565898
 30
0.0
 11
287.952712
 21
10.565898
 31
0.0
  0
LINE
  5
1B4
100
AcDbEntity
  8
3
  6
CONTINUOUS
 62
     2
100
AcDbLine
 10
295.948494
 20
9.965898
 30
0.0
 11
287.95376
 21
9.965898
 31
0.0
  0
LINE
  5
1B5
100
AcDbEntity
  8
3
  6
CONTINUOUS
 62
     2
100
AcDbLine
 10
270.38149
 20
16.163666
 30
0.0
 11
268.63297
 21
16.163666
 31
0.0
  0
LINE
  5
1B6
100
AcDbEntity
  8
3
  6
CONTINUOUS
 62
     2
100
AcDbLine
 10
276.646804
 20
16.763666
 30
0.0
 11
268.631924
 21
16.763666
 31
0.0
  0
LINE
  5
1B7
100
AcDbEntity
  8
3
  6
CONTINUOUS
 62
     2
100
AcDbLine
 10
269.980178
 20
15.561266
 30
0.0
 11
268.634022
 21
15.561266
 31
0.0
  0
LINE
  5
1B8
100
AcDbEntity
  8
3
  6
CONTINUOUS
 62
     2
100
AcDbLine
 10
269.977978
 20
14.961266
 30
0.0
 11
268.635068
 21
14.961266
 31
0.0
  0
LINE
  5
1B9
100
AcDbEntity
  8
3
  6
CONTINUOUS
 62
     2
100
AcDbLine
 10
269.975778
 20
14.361266
 30
0.0
 11
268.636116
 21
14.361266
 31
0.0
  0
LINE
  5
1BA
100
AcDbEntity
  8
3
  6
CONTINUOUS
 62
     2
100
AcDbLine
 10
274.818516
 20
13.761266
 30
0.0
 11
268.637164
 21
13.761266
 31
0.0
  0
LINE
  5
1BB
100
AcDbEntity
  8
3
  6
CONTINUOUS
 62
     2
100
AcDbLine
 10
274.819564
 20
13.161266
 30
0.0
 11
268.63821
 21
13.161266
 31
0.0
  0
LINE
  5
1BC
100
AcDbEntity
  8
3
  6
CONTINUOUS
 62
     2
100
AcDbLine
 10
269.97723
 20
12.561266
 30
0.0
 11
268.639258
 21
12.561266
 31
0.0
  0
LINE
  5
1BD
100
AcDbEntity
  8
3
  6
CONTINUOUS
 62
     2
100
AcDbLine
 10
269.978278
 20
11.961266
 30
0.0
 11
268.640304
 21
11.961266
 31
0.0
  0
LINE
  5
1BE
100
AcDbEntity
  8
3
  6
CONTINUOUS
 62
     2
100
AcDbLine
 10
269.979324
 20
11.361266
 30
0.0
 11
268.641352
 21
11.361266
 31
0.0
  0
LINE
  5
1BF
100
AcDbEntity
  8
3
  6
CONTINUOUS
 62
     2
100
AcDbLine
 10
276.643412
 20
10.761266
 30
0.0
 11
268.6424
 21
10.761266
 31
0.0
  0
LINE
  5
1C0
100
AcDbEntity
  8
3
  6
CONTINUOUS
 62
     2
100
AcDbLine
 10
276.644458
 20
10.161266
 30
0.0
 11
268.643446
 21
10.161266
 31
0.0
  0
LINE
  5
1C1
100
AcDbEntity
  8
3
  6
CONTINUOUS
 62
     2
100
AcDbLine
 10
278.161696
 20
10.864908
 30
0.0
 11
279.372516
 21
10.864908
 31
0.0
  0
LINE
  5
1C2
100
AcDbEntity
  8
3
  6
CONTINUOUS
 62
     2
100
AcDbLine
 10
278.160648
 20
11.464908
 30
0.0
 11
279.371468
 21
11.464908
 31
0.0
  0
LINE
  5
1C3
100
AcDbEntity
  8
3
  6
CONTINUOUS
 62
     2
100
AcDbLine
 10
278.159602
 20
12.064908
 30
0.0
 11
279.37042
 21
12.064908
 31
0.0
  0
LINE
  5
1C4
100
AcDbEntity
  8
3
  6
CONTINUOUS
 62
     2
100
AcDbLine
 10
278.158554
 20
12.664908
 30
0.0
 11
279.369374
 21
12.664908
 31
0.0
  0
LINE
  5
1C5
100
AcDbEntity
  8
3
  6
CONTINUOUS
 62
     2
100
AcDbLine
 10
278.157506
 20
13.264908
 30
0.0
 11
279.368326
 21
13.264908
 31
0.0
  0
LINE
  5
1C6
100
AcDbEntity
  8
3
  6
CONTINUOUS
 62
     2
100
AcDbLine
 10
278.15646
 20
13.864908
 30
0.0
 11
279.36728
 21
13.864908
 31
0.0
  0
LINE
  5
1C7
100
AcDbEntity
  8
3
  6
CONTINUOUS
 62
     2
100
AcDbLine
 10
278.155412
 20
14.464908
 30
0.0
 11
279.366232
 21
14.464908
 31
0.0
  0
LINE
  5
1C8
100
AcDbEntity
  8
3
  6
CONTINUOUS
 62
     2
100
AcDbLine
 10
278.154366
 20
15.064908
 30
0.0
 11
279.365184
 21
15.064908
 31
0.0
  0
LINE
  5
1C9
100
AcDbEntity
  8
3
  6
CONTINUOUS
 62
     2
100
AcDbLine
 10
278.153318
 20
15.664908
 30
0.0
 11
279.364138
 21
15.664908
 31
0.0
  0
LINE
  5
1CA
100
AcDbEntity
  8
3
  6
CONTINUOUS
 62
     2
100
AcDbLine
 10
278.15227
 20
16.264908
 30
0.0
 11
279.36309
 21
16.264908
 31
0.0
  0
LINE
  5
1CB
100
AcDbEntity
  8
3
  6
CONTINUOUS
 62
     2
100
AcDbLine
 10
278.151224
 20
16.864908
 30
0.0
 11
279.362044
 21
16.864908
 31
0.0
  0
LINE
  5
1CC
100
AcDbEntity
  8
3
  6
CONTINUOUS
 62
     2
100
AcDbLine
 10
278.162746
 20
10.262508
 30
0.0
 11
286.396474
 21
10.262508
 31
0.0
  0
LINE
  5
1CD
100
AcDbEntity
  8
3
  6
CONTINUOUS
 62
     2
100
AcDbLine
 10
397.24788
 20
10.880898
 30
0.0
 11
398.245396
 21
10.880898
 31
0.0
  0
LINE
  5
1CE
100
AcDbEntity
  8
3
  6
CONTINUOUS
 62
     2
100
AcDbLine
 10
397.214138
 20
10.280898
 30
0.0
 11
398.27914
 21
10.280898
 31
0.0
  0
LINE
  5
1CF
100
AcDbEntity
  8
3
  6
CONTINUOUS
 62
     2
100
AcDbLine
 10
394.865852
 20
11.066036
 30
0.0
 11
390.78333
 21
11.066036
 31
0.0
  0
LINE
  5
1D0
100
AcDbEntity
  8
3
  6
CONTINUOUS
 62
     2
100
AcDbLine
 10
395.374062
 20
11.666036
 30
0.0
 11
393.964406
 21
11.666036
 31
0.0
  0
LINE
  5
1D1
100
AcDbEntity
  8
3
  6
CONTINUOUS
 62
     2
100
AcDbLine
 10
395.703922
 20
12.266036
 30
0.0
 11
394.49246
 21
12.266036
 31
0.0
  0
LINE
  5
1D2
100
AcDbEntity
  8
3
  6
CONTINUOUS
 62
     2
100
AcDbLine
 10
395.905094
 20
12.866036
 30
0.0
 11
394.776484
 21
12.866036
 31
0.0
  0
LINE
  5
1D3
100
AcDbEntity
  8
3
  6
CONTINUOUS
 62
     2
100
AcDbLine
 10
395.998788
 20
13.466036
 30
0.0
 11
394.897188
 21
13.466036
 31
0.0
  0
LINE
  5
1D4
100
AcDbEntity
  8
3
  6
CONTINUOUS
 62
     2
100
AcDbLine
 10
395.993252
 20
14.066036
 30
0.0
 11
394.87745
 21
14.066036
 31
0.0
  0
LINE
  5
1D5
100
AcDbEntity
  8
3
  6
CONTINUOUS
 62
     2
100
AcDbLine
 10
395.888022
 20
14.666036
 30
0.0
 11
394.713852
 21
14.666036
 31
0.0
  0
LINE
  5
1D6
100
AcDbEntity
  8
3
  6
CONTINUOUS
 62
     2
100
AcDbLine
 10
395.673712
 20
15.266036
 30
0.0
 11
394.372918
 21
15.266036
 31
0.0
  0
LINE
  5
1D7
100
AcDbEntity
  8
3
  6
CONTINUOUS
 62
     2
100
AcDbLine
 10
395.327038
 20
15.866036
 30
0.0
 11
393.734854
 21
15.866036
 31
0.0
  0
LINE
  5
1D8
100
AcDbEntity
  8
3
  6
CONTINUOUS
 62
     2
100
AcDbLine
 10
388.139622
 20
16.466036
 30
0.0
 11
394.7928
 21
16.466036
 31
0.0
  0
LINE
  5
1D9
100
AcDbEntity
  8
3
  6
CONTINUOUS
 62
     2
100
AcDbLine
 10
388.138576
 20
17.066036
 30
0.0
 11
393.889216
 21
17.066036
 31
0.0
  0
LINE
  5
1DA
100
AcDbEntity
  8
3
  6
CONTINUOUS
 62
     2
100
AcDbLine
 10
388.150098
 20
10.463636
 30
0.0
 11
394.021588
 21
10.463636
 31
0.0
  0
LINE
  5
1DB
100
AcDbEntity
  8
3
  6
CONTINUOUS
 62
     2
100
AcDbLine
 10
388.15085
 20
10.033248
 30
0.0
 11
392.76575
 21
10.05197
 31
0.0
  0
LINE
  5
1DC
100
AcDbEntity
  8
3
  6
CONTINUOUS
 62
     2
100
AcDbLine
 10
392.68375
 20
17.421394
 30
0.0
 11
388.138022
 21
17.383488
 31
0.0
  0
LINE
  5
1DD
100
AcDbEntity
  8
3
  6
CONTINUOUS
 62
     2
100
AcDbLine
 10
389.408234
 20
11.063636
 30
0.0
 11
392.556406
 21
11.06913
 31
0.0
  0
LINE
  5
1DE
100
AcDbEntity
  8
3
  6
CONTINUOUS
 62
     2
100
AcDbLine
 10
392.478142
 20
16.297846
 30
0.0
 11
389.399108
 21
16.292472
 31
0.0
  0
ARC
  5
1DF
100
AcDbEntity
  8
3
  6
CONTINUOUS
 62
     2
100
AcDbCircle
 10
392.32646
 20
13.732178
 30
0.0
 40
3.706332
100
AcDbArc
 50
-83.1929
 51
84.4686
  0
ARC
  5
1E0
100
AcDbEntity
  8
3
  6
CONTINUOUS
 62
     2
100
AcDbCircle
 10
392.280628
 20
13.680282
 30
0.0
 40
2.625318
100
AcDbArc
 50
-83.9697
 51
85.6857
  0
ARC
  5
1E1
100
AcDbEntity
  8
3
  6
CONTINUOUS
 62
     2
100
AcDbCircle
 10
397.746638
 20
10.5519
 30
0.0
 40
0.597494
100
AcDbArc
 50
90.1
 51
-89.9
  0
ARC
  5
1E2
100
AcDbEntity
  8
3
  6
CONTINUOUS
 62
     2
100
AcDbCircle
 10
397.746638
 20
10.5519
 30
0.0
 40
0.597494
100
AcDbArc
 50
-89.9
 51
90.1
  0
LINE
  5
1E3
100
AcDbEntity
  8
3
  6
CONTINUOUS
 62
     2
100
AcDbLine
 10
388.138022
 20
17.383488
 30
0.0
 11
388.15085
 21
10.033248
 31
0.0
  0
LINE
  5
1E4
100
AcDbEntity
  8
3
  6
CONTINUOUS
 62
     2
100
AcDbLine
 10
215.272372
 20
17.178808
 30
0.0
 11
215.274272
 21
16.090674
 31
0.0
  0
LINE
  5
1E5
100
AcDbEntity
  8
3
  6
CONTINUOUS
 62
     2
100
AcDbLine
 10
215.274272
 20
16.090674
 30
0.0
 11
208.874142
 21
16.079504
 31
0.0
  0
LINE
  5
1E6
100
AcDbEntity
  8
3
  6
CONTINUOUS
 62
     2
100
AcDbLine
 10
208.874142
 20
16.079504
 30
0.0
 11
208.87794
 21
13.903744
 31
0.0
  0
LINE
  5
1E7
100
AcDbEntity
  8
3
  6
CONTINUOUS
 62
     2
100
AcDbLine
 10
208.87794
 20
13.903744
 30
0.0
 11
214.15383
 21
13.904824
 31
0.0
  0
LINE
  5
1E8
100
AcDbEntity
  8
3
  6
CONTINUOUS
 62
     2
100
AcDbLine
 10
214.15383
 20
13.904824
 30
0.0
 11
214.138218
 21
12.8954
 31
0.0
  0
LINE
  5
1E9
100
AcDbEntity
  8
3
  6
CONTINUOUS
 62
     2
100
AcDbLine
 10
214.138218
 20
12.8954
 30
0.0
 11
208.84512
 21
12.88616
 31
0.0
  0
LINE
  5
1EA
100
AcDbEntity
  8
3
  6
CONTINUOUS
 62
     2
100
AcDbLine
 10
208.84512
 20
12.88616
 30
0.0
 11
208.850204
 21
9.973294
 31
0.0
  0
LINE
  5
1EB
100
AcDbEntity
  8
3
  6
CONTINUOUS
 62
     2
100
AcDbLine
 10
208.850204
 20
9.973294
 30
0.0
 11
207.683712
 21
9.956526
 31
0.0
  0
LINE
  5
1EC
100
AcDbEntity
  8
3
  6
CONTINUOUS
 62
     2
100
AcDbLine
 10
207.683712
 20
9.956526
 30
0.0
 11
207.671188
 21
17.132014
 31
0.0
  0
LINE
  5
1ED
100
AcDbEntity
  8
3
  6
CONTINUOUS
 62
     2
100
AcDbLine
 10
207.671188
 20
17.132014
 30
0.0
 11
215.272372
 21
17.178808
 31
0.0
  0
LINE
  5
1EE
100
AcDbEntity
  8
3
  6
CONTINUOUS
 62
     2
100
AcDbLine
 10
217.694118
 20
17.147476
 30
0.0
 11
217.703428
 21
11.813484
 31
0.0
  0
ARC
  5
1EF
100
AcDbEntity
  8
3
  6
CONTINUOUS
 62
     2
100
AcDbCircle
 10
218.638176
 20
11.652556
 30
0.0
 40
0.948462
100
AcDbArc
 50
170.2361
 51
-102.5641
  0
LINE
  5
1F0
100
AcDbEntity
  8
3
  6
CONTINUOUS
 62
     2
100
AcDbLine
 10
218.431816
 20
10.727126
 30
0.0
 11
222.583286
 21
10.734372
 31
0.0
  0
ARC
  5
1F1
100
AcDbEntity
  8
3
  6
CONTINUOUS
 62
     2
100
AcDbCircle
 10
222.547818
 20
11.467862
 30
0.0
 40
0.734222
100
AcDbArc
 50
-87.2305
 51
8.6234
  0
LINE
  5
1F2
100
AcDbEntity
  8
3
  6
CONTINUOUS
 62
     2
100
AcDbLine
 10
223.273712
 20
11.577842
 30
0.0
 11
223.292276
 21
17.095778
 31
0.0
  0
LINE
  5
1F3
100
AcDbEntity
  8
3
  6
CONTINUOUS
 62
     2
100
AcDbLine
 10
223.292276
 20
17.095778
 30
0.0
 11
224.562274
 21
17.097994
 31
0.0
  0
LINE
  5
1F4
100
AcDbEntity
  8
3
  6
CONTINUOUS
 62
     2
100
AcDbLine
 10
224.562274
 20
17.097994
 30
0.0
 11
224.57269
 21
11.129004
 31
0.0
  0
LINE
  5
1F5
100
AcDbEntity
  8
3
  6
CONTINUOUS
 62
     2
100
AcDbLine
 10
217.694118
 20
17.147476
 30
0.0
 11
216.414062
 21
17.145242
 31
0.0
  0
LINE
  5
1F6
100
AcDbEntity
  8
3
  6
CONTINUOUS
 62
     2
100
AcDbLine
 10
216.414062
 20
17.145242
 30
0.0
 11
216.444482
 21
11.241818
 31
0.0
  0
ARC
  5
1F7
100
AcDbEntity
  8
3
  6
CONTINUOUS
 62
     2
100
AcDbCircle
 10
218.29178
 20
11.58845
 30
0.0
 40
1.879528
100
AcDbArc
 50
-169.3755
 51
-90.9496
  0
LINE
  5
1F8
100
AcDbEntity
  8
3
  6
CONTINUOUS
 62
     2
100
AcDbLine
 10
218.260618
 20
9.709302
 30
0.0
 11
223.06939
 21
9.717694
 31
0.0
  0
ARC
  5
1F9
100
AcDbEntity
  8
3
  6
CONTINUOUS
 62
     2
100
AcDbCircle
 10
222.928882
 20
11.373532
 30
0.0
 40
1.661876
100
AcDbArc
 50
-85.1494
 51
-8.4558
  0
LINE
  5
1FA
100
AcDbEntity
  8
3
  6
CONTINUOUS
 62
     2
100
AcDbLine
 10
231.539854
 20
12.855666
 30
0.0
 11
232.370128
 21
12.857116
 31
0.0
  0
ARC
  5
1FB
100
AcDbEntity
  8
3
  6
CONTINUOUS
 62
     2
100
AcDbCircle
 10
231.880022
 20
14.94516
 30
0.0
 40
2.14502
100
AcDbArc
 50
-76.793
 51
81.6974
  0
LINE
  5
1FC
100
AcDbEntity
  8
3
  6
CONTINUOUS
 62
     2
100
AcDbLine
 10
232.189806
 20
17.06762
 30
0.0
 11
226.06626
 21
17.127036
 31
0.0
  0
LINE
  5
1FD
100
AcDbEntity
  8
3
  6
CONTINUOUS
 62
     2
100
AcDbLine
 10
226.06626
 20
17.127036
 30
0.0
 11
226.078816
 21
9.933258
 31
0.0
  0
LINE
  5
1FE
100
AcDbEntity
  8
3
  6
CONTINUOUS
 62
     2
100
AcDbLine
 10
226.078816
 20
9.933258
 30
0.0
 11
227.393466
 21
9.935554
 31
0.0
  0
LINE
  5
1FF
100
AcDbEntity
  8
3
  6
CONTINUOUS
 62
     2
100
AcDbLine
 10
227.393466
 20
9.935554
 30
0.0
 11
227.353728
 21
12.883412
 31
0.0
  0
LINE
  5
200
100
AcDbEntity
  8
3
  6
CONTINUOUS
 62
     2
100
AcDbLine
 10
227.353728
 20
12.883412
 30
0.0
 11
230.259798
 21
12.853432
 31
0.0
  0
LINE
  5
201
100
AcDbEntity
  8
3
  6
CONTINUOUS
 62
     2
100
AcDbLine
 10
230.259798
 20
12.853432
 30
0.0
 11
232.375396
 21
9.839092
 31
0.0
  0
LINE
  5
202
100
AcDbEntity
  8
3
  6
CONTINUOUS
 62
     2
100
AcDbLine
 10
232.375396
 20
9.839092
 30
0.0
 11
233.759124
 21
9.87656
 31
0.0
  0
LINE
  5
203
100
AcDbEntity
  8
3
  6
CONTINUOUS
 62
     2
100
AcDbLine
 10
233.759124
 20
9.87656
 30
0.0
 11
231.539854
 21
12.855666
 31
0.0
  0
ARC
  5
204
100
AcDbEntity
  8
3
  6
CONTINUOUS
 62
     2
100
AcDbCircle
 10
237.909122
 20
11.717178
 30
0.0
 40
1.020842
100
AcDbArc
 50
176.1723
 51
-111.9616
  0
LINE
  5
205
100
AcDbEntity
  8
3
  6
CONTINUOUS
 62
     2
100
AcDbLine
 10
237.527336
 20
10.770614
 30
0.0
 11
241.88949
 21
10.798038
 31
0.0
  0
ARC
  5
206
100
AcDbEntity
  8
3
  6
CONTINUOUS
 62
     2
100
AcDbCircle
 10
241.94254
 20
11.343216
 30
0.0
 40
0.547772
100
AcDbArc
 50
-95.5609
 51
12.9338
  0
LINE
  5
207
100
AcDbEntity
  8
3
  6
CONTINUOUS
 62
     2
100
AcDbLine
 10
242.476438
 20
11.466068
 30
0.0
 11
242.469246
 21
17.129248
 31
0.0
  0
LINE
  5
208
100
AcDbEntity
  8
3
  6
CONTINUOUS
 62
     2
100
AcDbLine
 10
242.469246
 20
17.129248
 30
0.0
 11
243.739244
 21
17.131464
 31
0.0
  0
LINE
  5
209
100
AcDbEntity
  8
3
  6
CONTINUOUS
 62
     2
100
AcDbLine
 10
243.739244
 20
17.131464
 30
0.0
 11
243.687192
 21
11.503234
 31
0.0
  0
LINE
  5
20A
100
AcDbEntity
  8
3
  6
CONTINUOUS
 62
     2
100
AcDbLine
 10
236.890564
 20
11.785504
 30
0.0
 11
236.861952
 21
17.176358
 31
0.0
  0
LINE
  5
20B
100
AcDbEntity
  8
3
  6
CONTINUOUS
 62
     2
100
AcDbLine
 10
236.861952
 20
17.176358
 30
0.0
 11
235.611256
 21
17.117278
 31
0.0
  0
LINE
  5
20C
100
AcDbEntity
  8
3
  6
CONTINUOUS
 62
     2
100
AcDbLine
 10
235.611256
 20
17.117278
 30
0.0
 11
235.59138
 21
11.76952
 31
0.0
  0
ARC
  5
20D
100
AcDbEntity
  8
3
  6
CONTINUOUS
 62
     2
100
AcDbCircle
 10
237.60801
 20
11.7578
 30
0.0
 40
2.016654
100
AcDbArc
 50
179.6657
 51
-100.0681
  0
LINE
  5
20E
100
AcDbEntity
  8
3
  6
CONTINUOUS
 62
     2
100
AcDbLine
 10
237.255418
 20
9.772426
 30
0.0
 11
241.925872
 21
9.745524
 31
0.0
  0
ARC
  5
20F
100
AcDbEntity
  8
3
  6
CONTINUOUS
 62
     2
100
AcDbCircle
 10
241.895312
 20
11.53719
 30
0.0
 40
1.792174
100
AcDbArc
 50
-89.023
 51
-1.0933
  0
LINE
  5
210
100
AcDbEntity
  8
3
  6
CONTINUOUS
 62
     2
100
AcDbLine
 10
276.64601
 20
17.21887
 30
0.0
 11
276.647784
 21
16.201348
 31
0.0
  0
LINE
  5
211
100
AcDbEntity
  8
3
  6
CONTINUOUS
 62
     2
100
AcDbLine
 10
276.647784
 20
16.201348
 30
0.0
 11
269.982376
 21
16.161266
 31
0.0
  0
LINE
  5
212
100
AcDbEntity
  8
3
  6
CONTINUOUS
 62
     2
100
AcDbLine
 10
269.982376
 20
16.161266
 30
0.0
 11
269.974634
 21
14.048986
 31
0.0
  0
LINE
  5
213
100
AcDbEntity
  8
3
  6
CONTINUOUS
 62
     2
100
AcDbLine
 10
269.974634
 20
14.048986
 30
0.0
 11
274.818
 21
14.057438
 31
0.0
  0
LINE
  5
214
100
AcDbEntity
  8
3
  6
CONTINUOUS
 62
     2
100
AcDbLine
 10
274.818
 20
14.057438
 30
0.0
 11
274.819838
 21
13.004356
 31
0.0
  0
LINE
  5
215
100
AcDbEntity
  8
3
  6
CONTINUOUS
 62
     2
100
AcDbLine
 10
274.819838
 20
13.004356
 30
0.0
 11
269.976472
 21
12.995904
 31
0.0
  0
LINE
  5
216
100
AcDbEntity
  8
3
  6
CONTINUOUS
 62
     2
100
AcDbLine
 10
269.976472
 20
12.995904
 30
0.0
 11
269.980208
 21
10.855194
 31
0.0
  0
LINE
  5
217
100
AcDbEntity
  8
3
  6
CONTINUOUS
 62
     2
100
AcDbLine
 10
269.980208
 20
10.855194
 30
0.0
 11
276.643276
 21
10.838884
 31
0.0
  0
LINE
  5
218
100
AcDbEntity
  8
3
  6
CONTINUOUS
 62
     2
100
AcDbLine
 10
276.643276
 20
10.838884
 30
0.0
 11
276.64505
 21
9.822886
 31
0.0
  0
LINE
  5
219
100
AcDbEntity
  8
3
  6
CONTINUOUS
 62
     2
100
AcDbLine
 10
276.64505
 20
9.822886
 30
0.0
 11
268.644062
 21
9.808922
 31
0.0
  0
LINE
  5
21A
100
AcDbEntity
  8
3
  6
CONTINUOUS
 62
     2
100
AcDbLine
 10
268.644062
 20
9.808922
 30
0.0
 11
268.631206
 21
17.17491
 31
0.0
  0
LINE
  5
21B
100
AcDbEntity
  8
3
  6
CONTINUOUS
 62
     2
100
AcDbLine
 10
268.631206
 20
17.17491
 30
0.0
 11
276.64601
 21
17.21887
 31
0.0
  0
LINE
  5
21C
100
AcDbEntity
  8
3
  6
CONTINUOUS
 62
     2
100
AcDbLine
 10
279.36121
 20
17.341974
 30
0.0
 11
279.37254
 21
10.850252
 31
0.0
  0
LINE
  5
21D
100
AcDbEntity
  8
3
  6
CONTINUOUS
 62
     2
100
AcDbLine
 10
279.37254
 20
10.850252
 30
0.0
 11
286.395426
 21
10.862508
 31
0.0
  0
LINE
  5
21E
100
AcDbEntity
  8
3
  6
CONTINUOUS
 62
     2
100
AcDbLine
 10
286.395426
 20
10.862508
 30
0.0
 11
286.397142
 21
9.880038
 31
0.0
  0
LINE
  5
21F
100
AcDbEntity
  8
3
  6
CONTINUOUS
 62
     2
100
AcDbLine
 10
286.397142
 20
9.880038
 30
0.0
 11
278.16344
 21
9.865668
 31
0.0
  0
LINE
  5
220
100
AcDbEntity
  8
3
  6
CONTINUOUS
 62
     2
100
AcDbLine
 10
278.16344
 20
9.865668
 30
0.0
 11
278.150394
 21
17.33986
 31
0.0
  0
LINE
  5
221
100
AcDbEntity
  8
3
  6
CONTINUOUS
 62
     2
100
AcDbLine
 10
278.150394
 20
17.33986
 30
0.0
 11
279.36121
 21
17.341974
 31
0.0
  0
LINE
  5
222
100
AcDbEntity
  8
3
  6
CONTINUOUS
 62
     2
100
AcDbLine
 10
295.932572
 20
17.300792
 30
0.0
 11
295.93447
 21
16.213166
 31
0.0
  0
LINE
  5
223
100
AcDbEntity
  8
3
  6
CONTINUOUS
 62
     2
100
AcDbLine
 10
295.93447
 20
16.213166
 30
0.0
 11
289.222938
 21
16.201452
 31
0.0
  0
LINE
  5
224
100
AcDbEntity
  8
3
  6
CONTINUOUS
 62
     2
100
AcDbLine
 10
289.222938
 20
16.201452
 30
0.0
 11
289.22649
 21
14.165898
 31
0.0
  0
LINE
  5
225
100
AcDbEntity
  8
3
  6
CONTINUOUS
 62
     2
100
AcDbLine
 10
289.22649
 20
14.165898
 30
0.0
 11
294.035262
 21
14.174292
 31
0.0
  0
LINE
  5
226
100
AcDbEntity
  8
3
  6
CONTINUOUS
 62
     2
100
AcDbLine
 10
294.035262
 20
14.174292
 30
0.0
 11
294.03848
 21
13.028248
 31
0.0
  0
LINE
  5
227
100
AcDbEntity
  8
3
  6
CONTINUOUS
 62
     2
100
AcDbLine
 10
294.03848
 20
13.028248
 30
0.0
 11
289.193854
 21
13.04316
 31
0.0
  0
LINE
  5
228
100
AcDbEntity
  8
3
  6
CONTINUOUS
 62
     2
100
AcDbLine
 10
289.193854
 20
13.04316
 30
0.0
 11
289.197468
 21
10.972556
 31
0.0
  0
LINE
  5
229
100
AcDbEntity
  8
3
  6
CONTINUOUS
 62
     2
100
AcDbLine
 10
289.197468
 20
10.972556
 30
0.0
 11
295.943596
 21
10.98433
 31
0.0
  0
LINE
  5
22A
100
AcDbEntity
  8
3
  6
CONTINUOUS
 62
     2
100
AcDbLine
 10
295.943596
 20
10.98433
 30
0.0
 11
295.94902
 21
9.856578
 31
0.0
  0
LINE
  5
22B
100
AcDbEntity
  8
3
  6
CONTINUOUS
 62
     2
100
AcDbLine
 10
295.94902
 20
9.856578
 30
0.0
 11
287.953968
 21
9.847196
 31
0.0
  0
LINE
  5
22C
100
AcDbEntity
  8
3
  6
CONTINUOUS
 62
     2
100
AcDbLine
 10
287.953968
 20
9.847196
 30
0.0
 11
287.940982
 21
17.286844
 31
0.0
  0
LINE
  5
22D
100
AcDbEntity
  8
3
  6
CONTINUOUS
 62
     2
100
AcDbLine
 10
287.940982
 20
17.286844
 30
0.0
 11
295.932572
 21
17.300792
 31
0.0
  0
LINE
  5
22E
100
AcDbEntity
  8
3
  6
CONTINUOUS
 62
     2
100
AcDbLine
 10
304.94391
 20
15.750862
 30
0.0
 11
303.907424
 21
14.941838
 31
0.0
  0
ARC
  5
22F
100
AcDbEntity
  8
3
  6
CONTINUOUS
 62
     2
100
AcDbCircle
 10
301.771122
 20
13.519264
 30
0.0
 40
2.566644
100
AcDbArc
 50
33.65926
 51
-32.0722
  0
LINE
  5
230
100
AcDbEntity
  8
3
  6
CONTINUOUS
 62
     2
100
AcDbLine
 10
303.946018
 20
12.156538
 30
0.0
 11
304.963346
 21
11.396312
 31
0.0
  0
ARC
  5
231
100
AcDbEntity
  8
3
  6
CONTINUOUS
 62
     2
100
AcDbCircle
 10
301.76892
 20
13.559392
 30
0.0
 40
3.85789
100
AcDbArc
 50
34.61521
 51
-34.1035
  0
LINE
  5
232
100
AcDbEntity
  8
3
  6
CONTINUOUS
 62
     2
100
AcDbLine
 10
315.354374
 20
17.348406
 30
0.0
 11
315.368906
 21
16.24048
 31
0.0
  0
LINE
  5
233
100
AcDbEntity
  8
3
  6
CONTINUOUS
 62
     2
100
AcDbLine
 10
315.368906
 20
16.24048
 30
0.0
 11
311.638262
 21
16.23397
 31
0.0
  0
LINE
  5
234
100
AcDbEntity
  8
3
  6
CONTINUOUS
 62
     2
100
AcDbLine
 10
311.638262
 20
16.23397
 30
0.0
 11
311.648902
 21
10.13798
 31
0.0
  0
LINE
  5
235
100
AcDbEntity
  8
3
  6
CONTINUOUS
 62
     2
100
AcDbLine
 10
311.648902
 20
10.13798
 30
0.0
 11
310.299554
 21
10.135624
 31
0.0
  0
LINE
  5
236
100
AcDbEntity
  8
3
  6
CONTINUOUS
 62
     2
100
AcDbLine
 10
310.299554
 20
10.135624
 30
0.0
 11
310.270866
 21
16.181292
 31
0.0
  0
LINE
  5
237
100
AcDbEntity
  8
3
  6
CONTINUOUS
 62
     2
100
AcDbLine
 10
310.270866
 20
16.181292
 30
0.0
 11
306.984314
 21
16.175554
 31
0.0
  0
LINE
  5
238
100
AcDbEntity
  8
3
  6
CONTINUOUS
 62
     2
100
AcDbLine
 10
306.984314
 20
16.175554
 30
0.0
 11
306.982294
 21
17.333794
 31
0.0
  0
LINE
  5
239
100
AcDbEntity
  8
3
  6
CONTINUOUS
 62
     2
100
AcDbLine
 10
306.982294
 20
17.333794
 30
0.0
 11
315.354374
 21
17.348406
 31
0.0
  0
LINE
  5
23A
100
AcDbEntity
  8
3
  6
CONTINUOUS
 62
     2
100
AcDbLine
 10
322.14258
 20
13.04377
 30
0.0
 11
322.765336
 21
13.044858
 31
0.0
  0
ARC
  5
23B
100
AcDbEntity
  8
3
  6
CONTINUOUS
 62
     2
100
AcDbCircle
 10
322.519488
 20
15.213592
 30
0.0
 40
2.18247
100
AcDbArc
 50
-83.5325
 51
90.1036
  0
LINE
  5
23C
100
AcDbEntity
  8
3
  6
CONTINUOUS
 62
     2
100
AcDbLine
 10
322.515528
 20
17.395956
 30
0.0
 11
316.738104
 21
17.385872
 31
0.0
  0
LINE
  5
23D
100
AcDbEntity
  8
3
  6
CONTINUOUS
 62
     2
100
AcDbLine
 10
316.738104
 20
17.385872
 30
0.0
 11
316.750844
 21
10.086432
 31
0.0
  0
LINE
  5
23E
100
AcDbEntity
  8
3
  6
CONTINUOUS
 62
     2
100
AcDbLine
 10
316.750844
 20
10.086432
 30
0.0
 11
318.134684
 21
10.088846
 31
0.0
  0
LINE
  5
23F
100
AcDbEntity
  8
3
  6
CONTINUOUS
 62
     2
100
AcDbLine
 10
318.134684
 20
10.088846
 30
0.0
 11
318.129538
 21
13.036766
 31
0.0
  0
LINE
  5
240
100
AcDbEntity
  8
3
  6
CONTINUOUS
 62
     2
100
AcDbLine
 10
318.129538
 20
13.036766
 30
0.0
 11
320.82798
 21
13.041476
 31
0.0
  0
LINE
  5
241
100
AcDbEntity
  8
3
  6
CONTINUOUS
 62
     2
100
AcDbLine
 10
320.82798
 20
13.041476
 30
0.0
 11
323.289648
 21
9.957636
 31
0.0
  0
LINE
  5
242
100
AcDbEntity
  8
3
  6
CONTINUOUS
 62
     2
100
AcDbLine
 10
323.289648
 20
9.957636
 30
0.0
 11
324.63866
 21
10.065146
 31
0.0
  0
LINE
  5
243
100
AcDbEntity
  8
3
  6
CONTINUOUS
 62
     2
100
AcDbLine
 10
324.63866
 20
10.065146
 30
0.0
 11
322.14258
 21
13.04377
 31
0.0
  0
LINE
  5
244
100
AcDbEntity
  8
3
  6
CONTINUOUS
 62
     2
100
AcDbLine
 10
350.929544
 20
15.905798
 30
0.0
 11
350.009922
 21
15.08428
 31
0.0
  0
ARC
  5
245
100
AcDbEntity
  8
3
  6
CONTINUOUS
 62
     2
100
AcDbCircle
 10
347.757256
 20
13.650326
 30
0.0
 40
2.670174
100
AcDbArc
 50
32.47478
 51
-33.6365
  0
LINE
  5
246
100
AcDbEntity
  8
3
  6
CONTINUOUS
 62
     2
100
AcDbLine
 10
349.98036
 20
12.171352
 30
0.0
 11
350.937496
 21
11.349552
 31
0.0
  0
ARC
  5
247
100
AcDbEntity
  8
3
  6
CONTINUOUS
 62
     2
100
AcDbCircle
 10
347.79947
 20
13.62195
 30
0.0
 40
3.874522
100
AcDbArc
 50
36.11231
 51
-35.9123
  0
LINE
  5
248
100
AcDbEntity
  8
3
  6
CONTINUOUS
 62
     2
100
AcDbLine
 10
386.21438
 20
17.410104
 30
0.0
 11
386.234798
 21
16.364166
 31
0.0
  0
LINE
  5
249
100
AcDbEntity
  8
3
  6
CONTINUOUS
 62
     2
100
AcDbLine
 10
386.234798
 20
16.364166
 30
0.0
 11
383.059802
 21
16.358624
 31
0.0
  0
LINE
  5
24A
100
AcDbEntity
  8
3
  6
CONTINUOUS
 62
     2
100
AcDbLine
 10
383.059802
 20
16.358624
 30
0.0
 11
383.070442
 21
10.262634
 31
0.0
  0
LINE
  5
24B
100
AcDbEntity
  8
3
  6
CONTINUOUS
 62
     2
100
AcDbLine
 10
383.070442
 20
10.262634
 30
0.0
 11
381.927444
 21
10.260638
 31
0.0
  0
LINE
  5
24C
100
AcDbEntity
  8
3
  6
CONTINUOUS
 62
     2
100
AcDbLine
 10
381.927444
 20
10.260638
 30
0.0
 11
381.916804
 21
16.35663
 31
0.0
  0
LINE
  5
24D
100
AcDbEntity
  8
3
  6
CONTINUOUS
 62
     2
100
AcDbLine
 10
381.916804
 20
16.35663
 30
0.0
 11
378.48781
 21
16.350644
 31
0.0
  0
LINE
  5
24E
100
AcDbEntity
  8
3
  6
CONTINUOUS
 62
     2
100
AcDbLine
 10
378.48781
 20
16.350644
 30
0.0
 11
378.486036
 21
17.366642
 31
0.0
  0
LINE
  5
24F
100
AcDbEntity
  8
3
  6
CONTINUOUS
 62
     2
100
AcDbLine
 10
378.486036
 20
17.366642
 30
0.0
 11
386.21438
 21
17.410104
 31
0.0
  0
LINE
  5
250
100
AcDbEntity
  8
3
  6
CONTINUOUS
 62
     2
100
AcDbLine
 10
251.747554
 20
11.727614
 30
0.0
 11
251.740232
 21
17.14543
 31
0.0
  0
LINE
  5
251
100
AcDbEntity
  8
3
  6
CONTINUOUS
 62
     2
100
AcDbLine
 10
251.740232
 20
17.14543
 30
0.0
 11
252.94673
 21
17.147536
 31
0.0
  0
LINE
  5
252
100
AcDbEntity
  8
3
  6
CONTINUOUS
 62
     2
100
AcDbLine
 10
252.94673
 20
17.147536
 30
0.0
 11
252.92701
 21
9.904934
 31
0.0
  0
LINE
  5
253
100
AcDbEntity
  8
3
  6
CONTINUOUS
 62
     2
100
AcDbLine
 10
252.92701
 20
9.904934
 30
0.0
 11
251.854522
 21
9.903062
 31
0.0
  0
LINE
  5
254
100
AcDbEntity
  8
3
  6
CONTINUOUS
 62
     2
100
AcDbLine
 10
251.854522
 20
9.903062
 30
0.0
 11
246.482436
 21
15.508618
 31
0.0
  0
LINE
  5
255
100
AcDbEntity
  8
3
  6
CONTINUOUS
 62
     2
100
AcDbLine
 10
246.482436
 20
15.508618
 30
0.0
 11
246.545652
 21
10.024352
 31
0.0
  0
LINE
  5
256
100
AcDbEntity
  8
3
  6
CONTINUOUS
 62
     2
100
AcDbLine
 10
246.545652
 20
10.024352
 30
0.0
 11
245.402654
 21
10.022358
 31
0.0
  0
LINE
  5
257
100
AcDbEntity
  8
3
  6
CONTINUOUS
 62
     2
100
AcDbLine
 10
245.402654
 20
10.022358
 30
0.0
 11
245.390242
 21
17.134346
 31
0.0
  0
LINE
  5
258
100
AcDbEntity
  8
3
  6
CONTINUOUS
 62
     2
100
AcDbLine
 10
245.390242
 20
17.134346
 30
0.0
 11
246.444962
 21
17.158032
 31
0.0
  0
LINE
  5
259
100
AcDbEntity
  8
3
  6
CONTINUOUS
 62
     2
100
AcDbLine
 10
246.444962
 20
17.158032
 30
0.0
 11
251.747554
 21
11.727614
 31
0.0
  0
LINE
  5
25A
100
AcDbEntity
  8
3
  6
CONTINUOUS
 62
     2
100
AcDbLine
 10
327.686114
 20
17.27798
 30
0.0
 11
327.698528
 21
10.16599
 31
0.0
  0
LINE
  5
25B
100
AcDbEntity
  8
3
  6
CONTINUOUS
 62
     2
100
AcDbLine
 10
327.698528
 20
10.16599
 30
0.0
 11
326.42853
 21
10.163774
 31
0.0
  0
LINE
  5
25C
100
AcDbEntity
  8
3
  6
CONTINUOUS
 62
     2
100
AcDbLine
 10
326.42853
 20
10.163774
 30
0.0
 11
326.416116
 21
17.275764
 31
0.0
  0
LINE
  5
25D
100
AcDbEntity
  8
3
  6
CONTINUOUS
 62
     2
100
AcDbLine
 10
326.416116
 20
17.275764
 30
0.0
 11
327.686114
 21
17.27798
 31
0.0
  0
LINE
  5
25E
100
AcDbEntity
  8
3
  6
CONTINUOUS
 62
     2
100
AcDbLine
 10
371.829888
 20
17.37687
 30
0.0
 11
371.833622
 21
11.103574
 31
0.0
  0
LINE
  5
25F
100
AcDbEntity
  8
3
  6
CONTINUOUS
 62
     2
100
AcDbLine
 10
371.833622
 20
11.103574
 30
0.0
 11
378.337588
 21
11.114926
 31
0.0
  0
LINE
  5
260
100
AcDbEntity
  8
3
  6
CONTINUOUS
 62
     2
100
AcDbLine
 10
378.337588
 20
11.114926
 30
0.0
 11
378.339486
 21
10.026792
 31
0.0
  0
LINE
  5
261
100
AcDbEntity
  8
3
  6
CONTINUOUS
 62
     2
100
AcDbLine
 10
378.339486
 20
10.026792
 30
0.0
 11
370.624904
 21
9.986912
 31
0.0
  0
LINE
  5
262
100
AcDbEntity
  8
3
  6
CONTINUOUS
 62
     2
100
AcDbLine
 10
370.624904
 20
9.986912
 30
0.0
 11
370.584426
 21
17.374696
 31
0.0
  0
LINE
  5
263
100
AcDbEntity
  8
3
  6
CONTINUOUS
 62
     2
100
AcDbLine
 10
370.584426
 20
17.374696
 30
0.0
 11
371.829888
 21
17.37687
 31
0.0
  0
ARC
  5
264
100
AcDbEntity
  8
3
  6
CONTINUOUS
 62
     2
100
AcDbCircle
 10
231.805496
 20
15.004466
 30
0.0
 40
1.04777
100
AcDbArc
 50
-78.0651
 51
85.9116
  0
LINE
  5
265
100
AcDbEntity
  8
3
  6
CONTINUOUS
 62
     2
100
AcDbLine
 10
231.880228
 20
16.049554
 30
0.0
 11
227.348214
 21
16.041644
 31
0.0
  0
LINE
  5
266
100
AcDbEntity
  8
3
  6
CONTINUOUS
 62
     2
100
AcDbLine
 10
227.348214
 20
16.041644
 30
0.0
 11
227.351828
 21
13.971038
 31
0.0
  0
LINE
  5
267
100
AcDbEntity
  8
3
  6
CONTINUOUS
 62
     2
100
AcDbLine
 10
227.351828
 20
13.971038
 30
0.0
 11
232.02217
 21
13.97919
 31
0.0
  0
LINE
  5
268
100
AcDbEntity
  8
3
  6
CONTINUOUS
 62
     2
100
AcDbLine
 10
318.12764
 20
14.124392
 30
0.0
 11
322.313656
 21
14.131698
 31
0.0
  0
ARC
  5
269
100
AcDbEntity
  8
3
  6
CONTINUOUS
 62
     2
100
AcDbCircle
 10
322.29678
 20
15.185262
 30
0.0
 40
1.05352
100
AcDbArc
 50
-89.0814
 51
93.0452
  0
LINE
  5
26A
100
AcDbEntity
  8
3
  6
CONTINUOUS
 62
     2
100
AcDbLine
 10
322.240792
 20
16.237234
 30
0.0
 11
318.123904
 21
16.265102
 31
0.0
  0
LINE
  5
26B
100
AcDbEntity
  8
3
  6
CONTINUOUS
 62
     2
100
AcDbLine
 10
318.123904
 20
16.265102
 30
0.0
 11
318.12764
 21
14.124392
 31
0.0
  0
ARC
  5
26C
100
AcDbEntity
  8
3
  6
CONTINUOUS
 62
     2
100
AcDbCircle
 10
357.926406
 20
12.957888
 30
0.0
 40
3.63852
100
AcDbArc
 50
112.7928
 51
160.8794
  0
ARC
  5
26D
100
AcDbEntity
  8
3
  6
CONTINUOUS
 62
     2
100
AcDbCircle
 10
357.124636
 20
13.709854
 30
0.0
 40
2.672482
100
AcDbArc
 50
170.5262
 51
103.1459
  0
LINE
  5
26E
100
AcDbEntity
  8
3
  6
CONTINUOUS
 62
     2
100
AcDbLine
 10
389.399108
 20
16.292472
 30
0.0
 11
389.408234
 21
11.063636
 31
0.0
  0
ARC
  5
26F
100
AcDbEntity
  8
3
  6
CONTINUOUS
 62
     2
100
AcDbCircle
 10
258.742604
 20
13.513254
 30
0.0
 40
3.780876
100
AcDbArc
 50
90.1
 51
-89.9
  0
ARC
  5
270
100
AcDbEntity
  8
3
  6
CONTINUOUS
 62
     2
100
AcDbCircle
 10
258.742604
 20
13.513254
 30
0.0
 40
3.780876
100
AcDbArc
 50
-89.9
 51
90.1
  0
ARC
  5
271
100
AcDbEntity
  8
3
  6
CONTINUOUS
 62
     2
100
AcDbCircle
 10
258.752956
 20
13.462472
 30
0.0
 40
2.778318
100
AcDbArc
 50
90.1
 51
-89.9
  0
ARC
  5
272
100
AcDbEntity
  8
3
  6
CONTINUOUS
 62
     2
100
AcDbCircle
 10
258.752956
 20
13.462472
 30
0.0
 40
2.778318
100
AcDbArc
 50
-89.9
 51
90.1
  0
LINE
  5
273
100
AcDbEntity
  8
3
  6
CONTINUOUS
 62
     2
100
AcDbLine
 10
337.08676
 20
15.770384
 30
0.0
 11
336.20619
 21
15.130292
 31
0.0
  0
ARC
  5
274
100
AcDbEntity
  8
3
  6
CONTINUOUS
 62
     2
100
AcDbCircle
 10
333.951176
 20
13.529708
 30
0.0
 40
2.765348
100
AcDbArc
 50
35.36827
 51
-35.1683
  0
ARC
  5
275
100
AcDbEntity
  8
3
  6
CONTINUOUS
 62
     2
100
AcDbCircle
 10
333.925932
 20
13.527124
 30
0.0
 40
3.875852
100
AcDbArc
 50
35.36097
 51
-35.5892
  0
LINE
  5
276
100
AcDbEntity
  8
3
  6
CONTINUOUS
 62
     2
100
AcDbLine
 10
337.077798
 20
11.271514
 30
0.0
 11
336.211764
 21
11.937008
 31
0.0
  0
ARC
  5
277
100
AcDbEntity
  8
3
  6
CONTINUOUS
 62
     2
100
AcDbCircle
 10
362.846994
 20
10.517914
 30
0.0
 40
0.592212
100
AcDbArc
 50
90.1
 51
-89.9
  0
ARC
  5
278
100
AcDbEntity
  8
3
  6
CONTINUOUS
 62
     2
100
AcDbCircle
 10
362.846994
 20
10.517914
 30
0.0
 40
0.592212
100
AcDbArc
 50
-89.9
 51
90.1
  0
LINE
  5
279
100
AcDbEntity
  8
3
  6
CONTINUOUS
 62
     2
100
AcDbLine
 10
364.54531
 20
8.73119
 30
0.0
 11
365.82348
 21
9.785998
 31
0.0
  0
ARC
  5
27A
100
AcDbEntity
  8
3
  6
CONTINUOUS
 62
     2
100
AcDbCircle
 10
365.424414
 20
10.473136
 30
0.0
 40
0.79437
100
AcDbArc
 50
-59.8442
 51
-119.9558
  0
LINE
  5
27B
100
AcDbEntity
  8
3
  6
CONTINUOUS
 62
     2
100
AcDbLine
 10
365.0278
 20
9.78461
 30
0.0
 11
364.441292
 21
8.836166
 31
0.0
  0
LINE
  5
27C
100
AcDbEntity
  8
3
  6
CONTINUOUS
 62
     2
100
AcDbLine
 10
364.441292
 20
8.836166
 30
0.0
 11
364.54531
 21
8.73119
 31
0.0
  0
CIRCLE
  5
27D
100
AcDbEntity
  8
3
  6
CONTINUOUS
 62
     2
100
AcDbCircle
 10
357.156498
 20
13.64641
 30
0.0
 40
3.862548
  0
LINE
  5
27E
100
AcDbEntity
  8
4
  6
CONTINUOUS
 62
     5
100
AcDbLine
 10
400.0
 20
552.0
 30
0.0
 11
40.0
 21
552.0
 31
0.0
  0
LINE
  5
27F
100
AcDbEntity
  8
4
  6
CONTINUOUS
 62
     5
100
AcDbLine
 10
400.0
 20
20.0
 30
0.0
 11
400.0
 21
552.0
 31
0.0
  0
LINE
  5
280
100
AcDbEntity
  8
4
  6
CONTINUOUS
 62
     5
100
AcDbLine
 10
40.0
 20
20.0
 30
0.0
 11
400.0
 21
20.0
 31
0.0
  0
LINE
  5
281
100
AcDbEntity
  8
3
  6
CONTINUOUS
 62
     2
100
AcDbLine
 10
51.960378
 20
565.862678
 30
0.0
 11
44.503538
 21
565.862678
 31
0.0
  0
LINE
  5
282
100
AcDbEntity
  8
3
  6
CONTINUOUS
 62
     2
100
AcDbLine
 10
59.87777
 20
566.462678
 30
0.0
 11
44.50249
 21
566.462678
 31
0.0
  0
LINE
  5
283
100
AcDbEntity
  8
3
  6
CONTINUOUS
 62
     2
100
AcDbLine
 10
59.87777
 20
567.062678
 30
0.0
 11
44.505954
 21
567.062678
 31
0.0
  0
LINE
  5
284
100
AcDbEntity
  8
3
  6
CONTINUOUS
 62
     2
100
AcDbLine
 10
59.87777
 20
567.662678
 30
0.0
 11
44.505954
 21
567.662678
 31
0.0
  0
LINE
  5
285
100
AcDbEntity
  8
3
  6
CONTINUOUS
 62
     2
100
AcDbLine
 10
59.87777
 20
568.262678
 30
0.0
 11
44.505954
 21
568.262678
 31
0.0
  0
LINE
  5
286
100
AcDbEntity
  8
3
  6
CONTINUOUS
 62
     2
100
AcDbLine
 10
58.990278
 20
565.262678
 30
0.0
 11
44.504584
 21
565.262678
 31
0.0
  0
LINE
  5
287
100
AcDbEntity
  8
3
  6
CONTINUOUS
 62
     2
100
AcDbLine
 10
58.990278
 20
564.662678
 30
0.0
 11
44.505632
 21
564.662678
 31
0.0
  0
LINE
  5
288
100
AcDbEntity
  8
3
  6
CONTINUOUS
 62
     2
100
AcDbLine
 10
58.990278
 20
564.062678
 30
0.0
 11
44.506678
 21
564.062678
 31
0.0
  0
LINE
  5
289
100
AcDbEntity
  8
3
  6
CONTINUOUS
 62
     2
100
AcDbLine
 10
58.990278
 20
563.462678
 30
0.0
 11
44.507726
 21
563.462678
 31
0.0
  0
LINE
  5
28A
100
AcDbEntity
  8
3
  6
CONTINUOUS
 62
     2
100
AcDbLine
 10
51.960378
 20
562.862678
 30
0.0
 11
44.508774
 21
562.862678
 31
0.0
  0
LINE
  5
28B
100
AcDbEntity
  8
3
  6
CONTINUOUS
 62
     2
100
AcDbLine
 10
51.960378
 20
562.262678
 30
0.0
 11
44.50982
 21
562.262678
 31
0.0
  0
LINE
  5
28C
100
AcDbEntity
  8
3
  6
CONTINUOUS
 62
     2
100
AcDbLine
 10
51.958392
 20
561.662678
 30
0.0
 11
44.510868
 21
561.662678
 31
0.0
  0
LINE
  5
28D
100
AcDbEntity
  8
3
  6
CONTINUOUS
 62
     2
100
AcDbLine
 10
44.505954
 20
561.062678
 30
0.0
 11
51.95944
 21
561.062678
 31
0.0
  0
LINE
  5
28E
100
AcDbEntity
  8
3
  6
CONTINUOUS
 62
     2
100
AcDbLine
 10
44.512884
 20
560.507272
 30
0.0
 11
51.960378
 21
560.52559
 31
0.0
  0
LINE
  5
28F
100
AcDbEntity
  8
3
  6
CONTINUOUS
 62
     2
100
AcDbLine
 10
51.960378
 20
566.462678
 30
0.0
 11
51.960378
 21
565.262678
 31
0.0
  0
LINE
  5
290
100
AcDbEntity
  8
3
  6
CONTINUOUS
 62
     2
100
AcDbLine
 10
44.512884
 20
560.507272
 30
0.0
 11
44.512884
 21
568.560658
 31
0.0
  0
LINE
  5
291
100
AcDbEntity
  8
3
  6
CONTINUOUS
 62
     2
100
AcDbLine
 10
59.87777
 20
566.462678
 30
0.0
 11
59.87777
 21
568.560658
 31
0.0
  0
LINE
  5
292
100
AcDbEntity
  8
3
  6
CONTINUOUS
 62
     2
100
AcDbLine
 10
51.960378
 20
563.462678
 30
0.0
 11
51.960378
 21
560.52559
 31
0.0
  0
LINE
  5
293
100
AcDbEntity
  8
3
  6
CONTINUOUS
 62
     2
100
AcDbLine
 10
58.990278
 20
563.462678
 30
0.0
 11
58.990278
 21
565.262678
 31
0.0
  0
LINE
  5
294
100
AcDbEntity
  8
3
  6
CONTINUOUS
 62
     2
100
AcDbLine
 10
44.512884
 20
568.560658
 30
0.0
 11
59.87777
 21
568.560658
 31
0.0
  0
LINE
  5
295
100
AcDbEntity
  8
3
  6
CONTINUOUS
 62
     2
100
AcDbLine
 10
69.36045
 20
567.082038
 30
0.0
 11
62.939394
 21
567.082038
 31
0.0
  0
LINE
  5
296
100
AcDbEntity
  8
3
  6
CONTINUOUS
 62
     2
100
AcDbLine
 10
71.634056
 20
567.082038
 30
0.0
 11
77.911066
 21
567.082038
 31
0.0
  0
LINE
  5
297
100
AcDbEntity
  8
3
  6
CONTINUOUS
 62
     2
100
AcDbLine
 10
69.354072
 20
567.682038
 30
0.0
 11
62.940362
 21
567.682038
 31
0.0
  0
LINE
  5
298
100
AcDbEntity
  8
3
  6
CONTINUOUS
 62
     2
100
AcDbLine
 10
71.63301
 20
567.682038
 30
0.0
 11
77.910018
 21
567.682038
 31
0.0
  0
LINE
  5
299
100
AcDbEntity
  8
3
  6
CONTINUOUS
 62
     2
100
AcDbLine
 10
69.347696
 20
568.282038
 30
0.0
 11
62.94133
 21
568.282038
 31
0.0
  0
LINE
  5
29A
100
AcDbEntity
  8
3
  6
CONTINUOUS
 62
     2
100
AcDbLine
 10
71.631962
 20
568.282038
 30
0.0
 11
77.908972
 21
568.282038
 31
0.0
  0
LINE
  5
29B
100
AcDbEntity
  8
3
  6
CONTINUOUS
 62
     2
100
AcDbLine
 10
69.366826
 20
566.482038
 30
0.0
 11
62.938426
 21
566.482038
 31
0.0
  0
LINE
  5
29C
100
AcDbEntity
  8
3
  6
CONTINUOUS
 62
     2
100
AcDbLine
 10
71.635104
 20
566.482038
 30
0.0
 11
77.912114
 21
566.482038
 31
0.0
  0
LINE
  5
29D
100
AcDbEntity
  8
3
  6
CONTINUOUS
 62
     2
100
AcDbLine
 10
69.373204
 20
565.882038
 30
0.0
 11
62.937458
 21
565.882038
 31
0.0
  0
LINE
  5
29E
100
AcDbEntity
  8
3
  6
CONTINUOUS
 62
     2
100
AcDbLine
 10
71.63615
 20
565.882038
 30
0.0
 11
77.91316
 21
565.882038
 31
0.0
  0
LINE
  5
29F
100
AcDbEntity
  8
3
  6
CONTINUOUS
 62
     2
100
AcDbLine
 10
69.37958
 20
565.282038
 30
0.0
 11
62.93649
 21
565.282038
 31
0.0
  0
LINE
  5
2A0
100
AcDbEntity
  8
3
  6
CONTINUOUS
 62
     2
100
AcDbLine
 10
71.637198
 20
565.282038
 30
0.0
 11
77.914208
 21
565.282038
 31
0.0
  0
LINE
  5
2A1
100
AcDbEntity
  8
3
  6
CONTINUOUS
 62
     2
100
AcDbLine
 10
69.385958
 20
564.682038
 30
0.0
 11
62.935522
 21
564.682038
 31
0.0
  0
LINE
  5
2A2
100
AcDbEntity
  8
3
  6
CONTINUOUS
 62
     2
100
AcDbLine
 10
71.638246
 20
564.682038
 30
0.0
 11
77.915254
 21
564.682038
 31
0.0
  0
LINE
  5
2A3
100
AcDbEntity
  8
3
  6
CONTINUOUS
 62
     2
100
AcDbLine
 10
69.392334
 20
564.082038
 30
0.0
 11
62.919816
 21
564.082038
 31
0.0
  0
LINE
  5
2A4
100
AcDbEntity
  8
3
  6
CONTINUOUS
 62
     2
100
AcDbLine
 10
71.638296
 20
564.082038
 30
0.0
 11
77.916302
 21
564.082038
 31
0.0
  0
LINE
  5
2A5
100
AcDbEntity
  8
3
  6
CONTINUOUS
 62
     2
100
AcDbLine
 10
69.59815
 20
563.482038
 30
0.0
 11
62.959846
 21
563.482038
 31
0.0
  0
LINE
  5
2A6
100
AcDbEntity
  8
3
  6
CONTINUOUS
 62
     2
100
AcDbLine
 10
71.430924
 20
563.482038
 30
0.0
 11
77.903226
 21
563.482038
 31
0.0
  0
LINE
  5
2A7
100
AcDbEntity
  8
3
  6
CONTINUOUS
 62
     2
100
AcDbLine
 10
77.791912
 20
562.882038
 30
0.0
 11
63.10547
 21
562.882038
 31
0.0
  0
LINE
  5
2A8
100
AcDbEntity
  8
3
  6
CONTINUOUS
 62
     2
100
AcDbLine
 10
77.555466
 20
562.282038
 30
0.0
 11
63.371504
 21
562.282038
 31
0.0
  0
LINE
  5
2A9
100
AcDbEntity
  8
3
  6
CONTINUOUS
 62
     2
100
AcDbLine
 10
77.15887
 20
561.682038
 30
0.0
 11
63.793526
 21
561.682038
 31
0.0
  0
LINE
  5
2AA
100
AcDbEntity
  8
3
  6
CONTINUOUS
 62
     2
100
AcDbLine
 10
76.502368
 20
561.082038
 30
0.0
 11
64.467512
 21
561.082038
 31
0.0
  0
LINE
  5
2AB
100
AcDbEntity
  8
3
  6
CONTINUOUS
 62
     2
100
AcDbLine
 10
62.94178
 20
568.560658
 30
0.0
 11
62.93499
 21
564.35242
 31
0.0
  0
ARC
  5
2AC
100
AcDbEntity
  8
3
  6
CONTINUOUS
 62
     2
100
AcDbCircle
 10
66.477152
 20
564.018034
 30
0.0
 40
3.55791
100
AcDbArc
 50
174.6071
 51
-96.9851
  0
ARC
  5
2AD
100
AcDbEntity
  8
3
  6
CONTINUOUS
 62
     2
100
AcDbCircle
 10
74.642008
 20
563.776746
 30
0.0
 40
3.274842
100
AcDbArc
 50
-90.7227
 51
0.2995
  0
ARC
  5
2AE
100
AcDbEntity
  8
3
  6
CONTINUOUS
 62
     2
100
AcDbCircle
 10
70.514538
 20
564.134594
 30
0.0
 40
1.124986
100
AcDbArc
 50
-175.7505
 51
1.4754
  0
LINE
  5
2AF
100
AcDbEntity
  8
3
  6
CONTINUOUS
 62
     2
100
AcDbLine
 10
71.631476
 20
568.560658
 30
0.0
 11
71.63915
 21
564.163556
 31
0.0
  0
LINE
  5
2B0
100
AcDbEntity
  8
3
  6
CONTINUOUS
 62
     2
100
AcDbLine
 10
77.916804
 20
568.560658
 30
0.0
 11
77.916804
 21
563.793864
 31
0.0
  0
LINE
  5
2B1
100
AcDbEntity
  8
3
  6
CONTINUOUS
 62
     2
100
AcDbLine
 10
69.392334
 20
564.082038
 30
0.0
 11
69.392334
 21
568.560658
 31
0.0
  0
LINE
  5
2B2
100
AcDbEntity
  8
3
  6
CONTINUOUS
 62
     2
100
AcDbLine
 10
65.89985
 20
560.507272
 30
0.0
 11
74.829446
 21
560.507272
 31
0.0
  0
LINE
  5
2B3
100
AcDbEntity
  8
3
  6
CONTINUOUS
 62
     2
100
AcDbLine
 10
62.94178
 20
568.560658
 30
0.0
 11
69.392334
 21
568.560658
 31
0.0
  0
LINE
  5
2B4
100
AcDbEntity
  8
3
  6
CONTINUOUS
 62
     2
100
AcDbLine
 10
71.631476
 20
568.560658
 30
0.0
 11
77.916804
 21
568.560658
 31
0.0
  0
LINE
  5
2B5
100
AcDbEntity
  8
3
  6
CONTINUOUS
 62
     2
100
AcDbLine
 10
80.684664
 20
561.152192
 30
0.0
 11
87.202264
 21
561.152192
 31
0.0
  0
LINE
  5
2B6
100
AcDbEntity
  8
3
  6
CONTINUOUS
 62
     2
100
AcDbLine
 10
95.347602
 20
561.152192
 30
0.0
 11
89.881296
 21
561.152192
 31
0.0
  0
LINE
  5
2B7
100
AcDbEntity
  8
3
  6
CONTINUOUS
 62
     2
100
AcDbLine
 10
80.683618
 20
561.752192
 30
0.0
 11
87.201216
 21
561.752192
 31
0.0
  0
LINE
  5
2B8
100
AcDbEntity
  8
3
  6
CONTINUOUS
 62
     2
100
AcDbLine
 10
94.784428
 20
561.752192
 30
0.0
 11
89.320494
 21
561.752192
 31
0.0
  0
LINE
  5
2B9
100
AcDbEntity
  8
3
  6
CONTINUOUS
 62
     2
100
AcDbLine
 10
80.68257
 20
562.352192
 30
0.0
 11
87.200168
 21
562.352192
 31
0.0
  0
LINE
  5
2BA
100
AcDbEntity
  8
3
  6
CONTINUOUS
 62
     2
100
AcDbLine
 10
94.221252
 20
562.352192
 30
0.0
 11
88.75969
 21
562.352192
 31
0.0
  0
LINE
  5
2BB
100
AcDbEntity
  8
3
  6
CONTINUOUS
 62
     2
100
AcDbLine
 10
80.681522
 20
562.952192
 30
0.0
 11
93.658078
 21
562.952192
 31
0.0
  0
LINE
  5
2BC
100
AcDbEntity
  8
3
  6
CONTINUOUS
 62
     2
100
AcDbLine
 10
80.680476
 20
563.552192
 30
0.0
 11
94.50928
 21
563.552192
 31
0.0
  0
LINE
  5
2BD
100
AcDbEntity
  8
3
  6
CONTINUOUS
 62
     2
100
AcDbLine
 10
80.679428
 20
564.152192
 30
0.0
 11
95.161972
 21
564.152192
 31
0.0
  0
LINE
  5
2BE
100
AcDbEntity
  8
3
  6
CONTINUOUS
 62
     2
100
AcDbLine
 10
95.51894
 20
564.752192
 30
0.0
 11
80.678382
 21
564.752192
 31
0.0
  0
LINE
  5
2BF
100
AcDbEntity
  8
3
  6
CONTINUOUS
 62
     2
100
AcDbLine
 10
80.677334
 20
565.352192
 30
0.0
 11
87.209008
 21
565.352192
 31
0.0
  0
LINE
  5
2C0
100
AcDbEntity
  8
3
  6
CONTINUOUS
 62
     2
100
AcDbLine
 10
95.700528
 20
565.352192
 30
0.0
 11
90.068944
 21
565.352192
 31
0.0
  0
LINE
  5
2C1
100
AcDbEntity
  8
3
  6
CONTINUOUS
 62
     2
100
AcDbLine
 10
80.676286
 20
565.952192
 30
0.0
 11
87.223226
 21
565.952192
 31
0.0
  0
LINE
  5
2C2
100
AcDbEntity
  8
3
  6
CONTINUOUS
 62
     2
100
AcDbLine
 10
95.741926
 20
565.952192
 30
0.0
 11
90.019362
 21
565.952192
 31
0.0
  0
LINE
  5
2C3
100
AcDbEntity
  8
3
  6
CONTINUOUS
 62
     2
100
AcDbLine
 10
80.67524
 20
566.552192
 30
0.0
 11
95.64973
 21
566.552192
 31
0.0
  0
LINE
  5
2C4
100
AcDbEntity
  8
3
  6
CONTINUOUS
 62
     2
100
AcDbLine
 10
80.674192
 20
567.152192
 30
0.0
 11
95.408596
 21
567.152192
 31
0.0
  0
LINE
  5
2C5
100
AcDbEntity
  8
3
  6
CONTINUOUS
 62
     2
100
AcDbLine
 10
80.673146
 20
567.752192
 30
0.0
 11
94.964174
 21
567.752192
 31
0.0
  0
LINE
  5
2C6
100
AcDbEntity
  8
3
  6
CONTINUOUS
 62
     2
100
AcDbLine
 10
80.672098
 20
568.352192
 30
0.0
 11
94.08947
 21
568.352192
 31
0.0
  0
LINE
  5
2C7
100
AcDbEntity
  8
3
  6
CONTINUOUS
 62
     2
100
AcDbLine
 10
87.203388
 20
560.507272
 30
0.0
 11
87.199394
 21
562.796662
 31
0.0
  0
LINE
  5
2C8
100
AcDbEntity
  8
3
  6
CONTINUOUS
 62
     2
100
AcDbLine
 10
87.199394
 20
562.796662
 30
0.0
 11
88.342392
 21
562.798656
 31
0.0
  0
LINE
  5
2C9
100
AcDbEntity
  8
3
  6
CONTINUOUS
 62
     2
100
AcDbLine
 10
90.484084
 20
560.507272
 30
0.0
 11
88.342392
 21
562.798656
 31
0.0
  0
LINE
  5
2CA
100
AcDbEntity
  8
3
  6
CONTINUOUS
 62
     2
100
AcDbLine
 10
95.95294
 20
560.507272
 30
0.0
 11
93.477624
 21
563.144444
 31
0.0
  0
ARC
  5
2CB
100
AcDbEntity
  8
3
  6
CONTINUOUS
 62
     2
100
AcDbCircle
 10
93.008914
 20
565.839326
 30
0.0
 40
2.735342
100
AcDbArc
 50
-80.1336
 51
78.8176
  0
ARC
  5
2CC
100
AcDbEntity
  8
3
  6
CONTINUOUS
 62
     2
100
AcDbCircle
 10
89.336538
 20
565.679488
 30
0.0
 40
0.881456
100
AcDbArc
 50
103.9972
 51
107.102729
  0
ARC
  5
2CD
100
AcDbEntity
  8
3
  6
CONTINUOUS
 62
     2
100
AcDbCircle
 10
89.336538
 20
565.679488
 30
0.0
 40
0.881456
100
AcDbArc
 50
-87.878904
 51
76.0028
  0
LINE
  5
2CE
100
AcDbEntity
  8
3
  6
CONTINUOUS
 62
     2
100
AcDbLine
 10
80.672098
 20
568.522736
 30
0.0
 11
80.672098
 21
560.507272
 31
0.0
  0
LINE
  5
2CF
100
AcDbEntity
  8
3
  6
CONTINUOUS
 62
     2
100
AcDbLine
 10
93.539386
 20
568.522736
 30
0.0
 11
80.672098
 21
568.522736
 31
0.0
  0
LINE
  5
2D0
100
AcDbEntity
  8
3
  6
CONTINUOUS
 62
     2
100
AcDbLine
 10
87.221154
 20
566.552192
 30
0.0
 11
87.221154
 21
564.752192
 31
0.0
  0
LINE
  5
2D1
100
AcDbEntity
  8
3
  6
CONTINUOUS
 62
     2
100
AcDbLine
 10
80.672098
 20
560.507272
 30
0.0
 11
87.203388
 21
560.507272
 31
0.0
  0
LINE
  5
2D2
100
AcDbEntity
  8
3
  6
CONTINUOUS
 62
     2
100
AcDbLine
 10
90.484084
 20
560.507272
 30
0.0
 11
95.95294
 21
560.507272
 31
0.0
  0
LINE
  5
2D3
100
AcDbEntity
  8
3
  6
CONTINUOUS
 62
     2
100
AcDbLine
 10
105.20735
 20
565.658634
 30
0.0
 11
98.787626
 21
565.658634
 31
0.0
  0
LINE
  5
2D4
100
AcDbEntity
  8
3
  6
CONTINUOUS
 62
     2
100
AcDbLine
 10
107.342478
 20
565.658634
 30
0.0
 11
113.73174
 21
565.658634
 31
0.0
  0
LINE
  5
2D5
100
AcDbEntity
  8
3
  6
CONTINUOUS
 62
     2
100
AcDbLine
 10
105.206302
 20
566.258634
 30
0.0
 11
98.787386
 21
566.258634
 31
0.0
  0
LINE
  5
2D6
100
AcDbEntity
  8
3
  6
CONTINUOUS
 62
     2
100
AcDbLine
 10
107.344012
 20
566.258634
 30
0.0
 11
113.73489
 21
566.258634
 31
0.0
  0
LINE
  5
2D7
100
AcDbEntity
  8
3
  6
CONTINUOUS
 62
     2
100
AcDbLine
 10
105.205254
 20
566.858634
 30
0.0
 11
98.787144
 21
566.858634
 31
0.0
  0
LINE
  5
2D8
100
AcDbEntity
  8
3
  6
CONTINUOUS
 62
     2
100
AcDbLine
 10
107.345548
 20
566.858634
 30
0.0
 11
113.738042
 21
566.858634
 31
0.0
  0
LINE
  5
2D9
100
AcDbEntity
  8
3
  6
CONTINUOUS
 62
     2
100
AcDbLine
 10
105.204208
 20
567.458634
 30
0.0
 11
98.786902
 21
567.458634
 31
0.0
  0
LINE
  5
2DA
100
AcDbEntity
  8
3
  6
CONTINUOUS
 62
     2
100
AcDbLine
 10
107.347082
 20
567.458634
 30
0.0
 11
113.741192
 21
567.458634
 31
0.0
  0
LINE
  5
2DB
100
AcDbEntity
  8
3
  6
CONTINUOUS
 62
     2
100
AcDbLine
 10
105.20316
 20
568.058634
 30
0.0
 11
98.78666
 21
568.058634
 31
0.0
  0
LINE
  5
2DC
100
AcDbEntity
  8
3
  6
CONTINUOUS
 62
     2
100
AcDbLine
 10
107.348618
 20
568.058634
 30
0.0
 11
113.744344
 21
568.058634
 31
0.0
  0
LINE
  5
2DD
100
AcDbEntity
  8
3
  6
CONTINUOUS
 62
     2
100
AcDbLine
 10
105.208396
 20
565.058634
 30
0.0
 11
98.787868
 21
565.058634
 31
0.0
  0
LINE
  5
2DE
100
AcDbEntity
  8
3
  6
CONTINUOUS
 62
     2
100
AcDbLine
 10
107.340942
 20
565.058634
 30
0.0
 11
113.728588
 21
565.058634
 31
0.0
  0
LINE
  5
2DF
100
AcDbEntity
  8
3
  6
CONTINUOUS
 62
     2
100
AcDbLine
 10
105.209444
 20
564.458634
 30
0.0
 11
98.743026
 21
564.458634
 31
0.0
  0
LINE
  5
2E0
100
AcDbEntity
  8
3
  6
CONTINUOUS
 62
     2
100
AcDbLine
 10
107.339408
 20
564.458634
 30
0.0
 11
113.725438
 21
564.458634
 31
0.0
  0
LINE
  5
2E1
100
AcDbEntity
  8
3
  6
CONTINUOUS
 62
     2
100
AcDbLine
 10
105.216606
 20
563.858634
 30
0.0
 11
98.725968
 21
563.858634
 31
0.0
  0
LINE
  5
2E2
100
AcDbEntity
  8
3
  6
CONTINUOUS
 62
     2
100
AcDbLine
 10
107.334322
 20
563.858634
 30
0.0
 11
113.722288
 21
563.858634
 31
0.0
  0
LINE
  5
2E3
100
AcDbEntity
  8
3
  6
CONTINUOUS
 62
     2
100
AcDbLine
 10
105.486678
 20
563.258634
 30
0.0
 11
98.810842
 21
563.258634
 31
0.0
  0
LINE
  5
2E4
100
AcDbEntity
  8
3
  6
CONTINUOUS
 62
     2
100
AcDbLine
 10
107.06425
 20
563.258634
 30
0.0
 11
113.671002
 21
563.258634
 31
0.0
  0
LINE
  5
2E5
100
AcDbEntity
  8
3
  6
CONTINUOUS
 62
     2
100
AcDbLine
 10
113.505484
 20
562.658634
 30
0.0
 11
99.00553
 21
562.658634
 31
0.0
  0
LINE
  5
2E6
100
AcDbEntity
  8
3
  6
CONTINUOUS
 62
     2
100
AcDbLine
 10
113.205404
 20
562.058634
 30
0.0
 11
99.331604
 21
562.058634
 31
0.0
  0
LINE
  5
2E7
100
AcDbEntity
  8
3
  6
CONTINUOUS
 62
     2
100
AcDbLine
 10
112.719246
 20
561.458634
 30
0.0
 11
99.840894
 21
561.458634
 31
0.0
  0
LINE
  5
2E8
100
AcDbEntity
  8
3
  6
CONTINUOUS
 62
     2
100
AcDbLine
 10
111.873784
 20
560.858634
 30
0.0
 11
100.700264
 21
560.858634
 31
0.0
  0
LINE
  5
2E9
100
AcDbEntity
  8
3
  6
CONTINUOUS
 62
     2
100
AcDbLine
 10
105.202284
 20
568.560658
 30
0.0
 11
105.210304
 21
563.965266
 31
0.0
  0
ARC
  5
2EA
100
AcDbEntity
  8
3
  6
CONTINUOUS
 62
     2
100
AcDbCircle
 10
106.275464
 20
563.974466
 30
0.0
 40
1.06517
100
AcDbArc
 50
-179.5053
 51
-4.0374
  0
LINE
  5
2EB
100
AcDbEntity
  8
3
  6
CONTINUOUS
 62
     2
100
AcDbLine
 10
107.3499
 20
568.560658
 30
0.0
 11
107.337978
 21
563.89947
 31
0.0
  0
LINE
  5
2EC
100
AcDbEntity
  8
3
  6
CONTINUOUS
 62
     2
100
AcDbLine
 10
113.74698
 20
568.560658
 30
0.0
 11
113.720618
 21
563.540662
 31
0.0
  0
LINE
  5
2ED
100
AcDbEntity
  8
3
  6
CONTINUOUS
 62
     2
100
AcDbLine
 10
98.786458
 20
568.560658
 30
0.0
 11
98.78855
 21
563.362848
 31
0.0
  0
ARC
  5
2EE
100
AcDbEntity
  8
3
  6
CONTINUOUS
 62
     2
100
AcDbCircle
 10
102.294474
 20
564.057424
 30
0.0
 40
3.57404
100
AcDbArc
 50
-168.7939
 51
-91.112
  0
ARC
  5
2EF
100
AcDbEntity
  8
3
  6
CONTINUOUS
 62
     2
100
AcDbCircle
 10
110.393706
 20
563.839894
 30
0.0
 40
3.340328
100
AcDbArc
 50
-94.6516
 51
-5.1396
  0
LINE
  5
2F0
100
AcDbEntity
  8
3
  6
CONTINUOUS
 62
     2
100
AcDbLine
 10
107.3499
 20
568.560658
 30
0.0
 11
113.74698
 21
568.560658
 31
0.0
  0
LINE
  5
2F1
100
AcDbEntity
  8
3
  6
CONTINUOUS
 62
     2
100
AcDbLine
 10
110.166948
 20
560.507272
 30
0.0
 11
101.881946
 21
560.507272
 31
0.0
  0
LINE
  5
2F2
100
AcDbEntity
  8
3
  6
CONTINUOUS
 62
     2
100
AcDbLine
 10
98.786458
 20
568.560658
 30
0.0
 11
105.202284
 21
568.560658
 31
0.0
  0
LINE
  5
2F3
100
AcDbEntity
  8
3
  6
CONTINUOUS
 62
     2
100
AcDbLine
 10
101.881946
 20
560.507272
 30
0.0
 11
110.166948
 21
560.507272
 31
0.0
  0
LINE
  5
2F4
100
AcDbEntity
  8
3
  6
CONTINUOUS
 62
     2
100
AcDbLine
 10
116.667114
 20
565.11897
 30
0.0
 11
125.329316
 21
565.11897
 31
0.0
  0
LINE
  5
2F5
100
AcDbEntity
  8
3
  6
CONTINUOUS
 62
     2
100
AcDbLine
 10
125.354536
 20
565.11897
 30
0.0
 11
131.755272
 21
565.11897
 31
0.0
  0
LINE
  5
2F6
100
AcDbEntity
  8
3
  6
CONTINUOUS
 62
     2
100
AcDbLine
 10
116.666094
 20
565.71897
 30
0.0
 11
124.863502
 21
565.71897
 31
0.0
  0
LINE
  5
2F7
100
AcDbEntity
  8
3
  6
CONTINUOUS
 62
     2
100
AcDbLine
 10
125.353488
 20
565.71897
 30
0.0
 11
131.755288
 21
565.71897
 31
0.0
  0
LINE
  5
2F8
100
AcDbEntity
  8
3
  6
CONTINUOUS
 62
     2
100
AcDbLine
 10
116.665076
 20
566.31897
 30
0.0
 11
124.397688
 21
566.31897
 31
0.0
  0
LINE
  5
2F9
100
AcDbEntity
  8
3
  6
CONTINUOUS
 62
     2
100
AcDbLine
 10
125.352442
 20
566.31897
 30
0.0
 11
131.755306
 21
566.31897
 31
0.0
  0
LINE
  5
2FA
100
AcDbEntity
  8
3
  6
CONTINUOUS
 62
     2
100
AcDbLine
 10
116.664056
 20
566.91897
 30
0.0
 11
123.931874
 21
566.91897
 31
0.0
  0
LINE
  5
2FB
100
AcDbEntity
  8
3
  6
CONTINUOUS
 62
     2
100
AcDbLine
 10
125.351394
 20
566.91897
 30
0.0
 11
131.755322
 21
566.91897
 31
0.0
  0
LINE
  5
2FC
100
AcDbEntity
  8
3
  6
CONTINUOUS
 62
     2
100
AcDbLine
 10
116.663036
 20
567.51897
 30
0.0
 11
123.46606
 21
567.51897
 31
0.0
  0
LINE
  5
2FD
100
AcDbEntity
  8
3
  6
CONTINUOUS
 62
     2
100
AcDbLine
 10
125.350346
 20
567.51897
 30
0.0
 11
131.75534
 21
567.51897
 31
0.0
  0
LINE
  5
2FE
100
AcDbEntity
  8
3
  6
CONTINUOUS
 62
     2
100
AcDbLine
 10
116.662016
 20
568.11897
 30
0.0
 11
123.000246
 21
568.11897
 31
0.0
  0
LINE
  5
2FF
100
AcDbEntity
  8
3
  6
CONTINUOUS
 62
     2
100
AcDbLine
 10
125.3493
 20
568.11897
 30
0.0
 11
131.755356
 21
568.11897
 31
0.0
  0
LINE
  5
300
100
AcDbEntity
  8
3
  6
CONTINUOUS
 62
     2
100
AcDbLine
 10
116.668134
 20
564.51897
 30
0.0
 11
131.755254
 21
564.51897
 31
0.0
  0
LINE
  5
301
100
AcDbEntity
  8
3
  6
CONTINUOUS
 62
     2
100
AcDbLine
 10
116.669154
 20
563.91897
 30
0.0
 11
123.05752
 21
563.91897
 31
0.0
  0
LINE
  5
302
100
AcDbEntity
  8
3
  6
CONTINUOUS
 62
     2
100
AcDbLine
 10
131.755238
 20
563.91897
 30
0.0
 11
123.070002
 21
563.91897
 31
0.0
  0
LINE
  5
303
100
AcDbEntity
  8
3
  6
CONTINUOUS
 62
     2
100
AcDbLine
 10
116.670174
 20
563.31897
 30
0.0
 11
123.058568
 21
563.31897
 31
0.0
  0
LINE
  5
304
100
AcDbEntity
  8
3
  6
CONTINUOUS
 62
     2
100
AcDbLine
 10
131.75522
 20
563.31897
 30
0.0
 11
123.525788
 21
563.31897
 31
0.0
  0
LINE
  5
305
100
AcDbEntity
  8
3
  6
CONTINUOUS
 62
     2
100
AcDbLine
 10
116.671194
 20
562.71897
 30
0.0
 11
123.059614
 21
562.71897
 31
0.0
  0
LINE
  5
306
100
AcDbEntity
  8
3
  6
CONTINUOUS
 62
     2
100
AcDbLine
 10
131.755204
 20
562.71897
 30
0.0
 11
123.981572
 21
562.71897
 31
0.0
  0
LINE
  5
307
100
AcDbEntity
  8
3
  6
CONTINUOUS
 62
     2
100
AcDbLine
 10
116.672214
 20
562.11897
 30
0.0
 11
123.060662
 21
562.11897
 31
0.0
  0
LINE
  5
308
100
AcDbEntity
  8
3
  6
CONTINUOUS
 62
     2
100
AcDbLine
 10
131.755186
 20
562.11897
 30
0.0
 11
124.437358
 21
562.11897
 31
0.0
  0
LINE
  5
309
100
AcDbEntity
  8
3
  6
CONTINUOUS
 62
     2
100
AcDbLine
 10
116.673234
 20
561.51897
 30
0.0
 11
123.061708
 21
561.51897
 31
0.0
  0
LINE
  5
30A
100
AcDbEntity
  8
3
  6
CONTINUOUS
 62
     2
100
AcDbLine
 10
131.75517
 20
561.51897
 30
0.0
 11
124.893144
 21
561.51897
 31
0.0
  0
LINE
  5
30B
100
AcDbEntity
  8
3
  6
CONTINUOUS
 62
     2
100
AcDbLine
 10
116.674254
 20
560.91897
 30
0.0
 11
123.062756
 21
560.91897
 31
0.0
  0
LINE
  5
30C
100
AcDbEntity
  8
3
  6
CONTINUOUS
 62
     2
100
AcDbLine
 10
131.755152
 20
560.91897
 30
0.0
 11
125.34893
 21
560.91897
 31
0.0
  0
LINE
  5
30D
100
AcDbEntity
  8
3
  6
CONTINUOUS
 62
     2
100
AcDbLine
 10
125.34853
 20
568.560658
 30
0.0
 11
125.354592
 21
565.086412
 31
0.0
  0
LINE
  5
30E
100
AcDbEntity
  8
3
  6
CONTINUOUS
 62
     2
100
AcDbLine
 10
131.75514
 20
560.507272
 30
0.0
 11
131.75537
 21
568.560658
 31
0.0
  0
LINE
  5
30F
100
AcDbEntity
  8
3
  6
CONTINUOUS
 62
     2
100
AcDbLine
 10
125.661672
 20
560.507272
 30
0.0
 11
123.057492
 21
563.935438
 31
0.0
  0
LINE
  5
310
100
AcDbEntity
  8
3
  6
CONTINUOUS
 62
     2
100
AcDbLine
 10
123.063474
 20
560.507272
 30
0.0
 11
123.057492
 21
563.935438
 31
0.0
  0
LINE
  5
311
100
AcDbEntity
  8
3
  6
CONTINUOUS
 62
     2
100
AcDbLine
 10
116.674954
 20
560.507272
 30
0.0
 11
116.661264
 21
568.560658
 31
0.0
  0
LINE
  5
312
100
AcDbEntity
  8
3
  6
CONTINUOUS
 62
     2
100
AcDbLine
 10
122.657338
 20
568.560658
 30
0.0
 11
125.354592
 21
565.086412
 31
0.0
  0
LINE
  5
313
100
AcDbEntity
  8
3
  6
CONTINUOUS
 62
     2
100
AcDbLine
 10
116.661264
 20
568.560658
 30
0.0
 11
122.657338
 21
568.560658
 31
0.0
  0
LINE
  5
314
100
AcDbEntity
  8
3
  6
CONTINUOUS
 62
     2
100
AcDbLine
 10
125.34853
 20
568.560658
 30
0.0
 11
131.75537
 21
568.560658
 31
0.0
  0
LINE
  5
315
100
AcDbEntity
  8
3
  6
CONTINUOUS
 62
     2
100
AcDbLine
 10
125.661672
 20
560.507272
 30
0.0
 11
131.75514
 21
560.507272
 31
0.0
  0
LINE
  5
316
100
AcDbEntity
  8
3
  6
CONTINUOUS
 62
     2
100
AcDbLine
 10
116.674954
 20
560.507272
 30
0.0
 11
123.063474
 21
560.507272
 31
0.0
  0
LINE
  5
317
100
AcDbEntity
  8
3
  6
CONTINUOUS
 62
     2
100
AcDbLine
 10
149.97631
 20
564.687238
 30
0.0
 11
143.302348
 21
564.687238
 31
0.0
  0
LINE
  5
318
100
AcDbEntity
  8
3
  6
CONTINUOUS
 62
     2
100
AcDbLine
 10
134.616936
 20
564.687238
 30
0.0
 11
141.1405
 21
564.687238
 31
0.0
  0
LINE
  5
319
100
AcDbEntity
  8
3
  6
CONTINUOUS
 62
     2
100
AcDbLine
 10
149.911894
 20
565.287238
 30
0.0
 11
143.3013
 21
565.287238
 31
0.0
  0
LINE
  5
31A
100
AcDbEntity
  8
3
  6
CONTINUOUS
 62
     2
100
AcDbLine
 10
134.69003
 20
565.287238
 30
0.0
 11
141.139452
 21
565.287238
 31
0.0
  0
LINE
  5
31B
100
AcDbEntity
  8
3
  6
CONTINUOUS
 62
     2
100
AcDbLine
 10
149.752392
 20
565.887238
 30
0.0
 11
143.240018
 21
565.887238
 31
0.0
  0
LINE
  5
31C
100
AcDbEntity
  8
3
  6
CONTINUOUS
 62
     2
100
AcDbLine
 10
134.8588
 20
565.887238
 30
0.0
 11
141.199992
 21
565.887238
 31
0.0
  0
LINE
  5
31D
100
AcDbEntity
  8
3
  6
CONTINUOUS
 62
     2
100
AcDbLine
 10
149.484884
 20
566.487238
 30
0.0
 11
142.720614
 21
566.487238
 31
0.0
  0
LINE
  5
31E
100
AcDbEntity
  8
3
  6
CONTINUOUS
 62
     2
100
AcDbLine
 10
135.13709
 20
566.487238
 30
0.0
 11
141.719396
 21
566.487238
 31
0.0
  0
LINE
  5
31F
100
AcDbEntity
  8
3
  6
CONTINUOUS
 62
     2
100
AcDbLine
 10
149.081638
 20
567.087238
 30
0.0
 11
135.554494
 21
567.087238
 31
0.0
  0
LINE
  5
320
100
AcDbEntity
  8
3
  6
CONTINUOUS
 62
     2
100
AcDbLine
 10
148.478006
 20
567.687238
 30
0.0
 11
136.181158
 21
567.687238
 31
0.0
  0
LINE
  5
321
100
AcDbEntity
  8
3
  6
CONTINUOUS
 62
     2
100
AcDbLine
 10
147.445716
 20
568.287238
 30
0.0
 11
137.282998
 21
568.287238
 31
0.0
  0
LINE
  5
322
100
AcDbEntity
  8
3
  6
CONTINUOUS
 62
     2
100
AcDbLine
 10
149.950264
 20
564.087238
 30
0.0
 11
143.303394
 21
564.087238
 31
0.0
  0
LINE
  5
323
100
AcDbEntity
  8
3
  6
CONTINUOUS
 62
     2
100
AcDbLine
 10
134.634264
 20
564.087238
 30
0.0
 11
141.141546
 21
564.087238
 31
0.0
  0
LINE
  5
324
100
AcDbEntity
  8
3
  6
CONTINUOUS
 62
     2
100
AcDbLine
 10
149.83192
 20
563.487238
 30
0.0
 11
143.303476
 21
563.487238
 31
0.0
  0
LINE
  5
325
100
AcDbEntity
  8
3
  6
CONTINUOUS
 62
     2
100
AcDbLine
 10
134.743224
 20
563.487238
 30
0.0
 11
141.14307
 21
563.487238
 31
0.0
  0
LINE
  5
326
100
AcDbEntity
  8
3
  6
CONTINUOUS
 62
     2
100
AcDbLine
 10
149.612296
 20
562.887238
 30
0.0
 11
143.085466
 21
562.887238
 31
0.0
  0
LINE
  5
327
100
AcDbEntity
  8
3
  6
CONTINUOUS
 62
     2
100
AcDbLine
 10
134.951952
 20
562.887238
 30
0.0
 11
141.36108
 21
562.887238
 31
0.0
  0
LINE
  5
328
100
AcDbEntity
  8
3
  6
CONTINUOUS
 62
     2
100
AcDbLine
 10
149.27124
 20
562.287238
 30
0.0
 11
135.27904
 21
562.287238
 31
0.0
  0
LINE
  5
329
100
AcDbEntity
  8
3
  6
CONTINUOUS
 62
     2
100
AcDbLine
 10
148.764632
 20
561.687238
 30
0.0
 11
135.76475
 21
561.687238
 31
0.0
  0
LINE
  5
32A
100
AcDbEntity
  8
3
  6
CONTINUOUS
 62
     2
100
AcDbLine
 10
147.970416
 20
561.087238
 30
0.0
 11
136.51574
 21
561.087238
 31
0.0
  0
ARC
  5
32B
100
AcDbEntity
  8
3
  6
CONTINUOUS
 62
     2
100
AcDbCircle
 10
138.629468
 20
564.502872
 30
0.0
 40
4.016766
100
AcDbArc
 50
95.97746
 51
-84.11555
  0
ARC
  5
32C
100
AcDbEntity
  8
3
  6
CONTINUOUS
 62
     2
100
AcDbCircle
 10
142.223274
 20
563.54012
 30
0.0
 40
1.081496
100
AcDbArc
 50
-177.7854
 51
1.6687
  0
LINE
  5
32D
100
AcDbEntity
  8
3
  6
CONTINUOUS
 62
     2
100
AcDbLine
 10
143.304294
 20
563.571614
 30
0.0
 11
143.300836
 21
565.55273
 31
0.0
  0
ARC
  5
32E
100
AcDbEntity
  8
3
  6
CONTINUOUS
 62
     2
100
AcDbCircle
 10
142.220004
 20
565.529054
 30
0.0
 40
1.081074
100
AcDbArc
 50
1.25498
 51
-179.2128
  0
LINE
  5
32F
100
AcDbEntity
  8
3
  6
CONTINUOUS
 62
     2
100
AcDbLine
 10
141.139056
 20
565.514198
 30
0.0
 11
141.142574
 21
563.498332
 31
0.0
  0
ARC
  5
330
100
AcDbEntity
  8
3
  6
CONTINUOUS
 62
     2
100
AcDbCircle
 10
145.970182
 20
564.56059
 30
0.0
 40
4.080282
100
AcDbArc
 50
-79.1092
 51
78.620328
  0
LINE
  5
331
100
AcDbEntity
  8
3
  6
CONTINUOUS
 62
     2
100
AcDbLine
 10
146.77526
 20
568.560658
 30
0.0
 11
138.211174
 21
568.560658
 31
0.0
  0
LINE
  5
332
100
AcDbEntity
  8
3
  6
CONTINUOUS
 62
     2
100
AcDbLine
 10
139.041278
 20
560.507272
 30
0.0
 11
146.741102
 21
560.507272
 31
0.0
  0
LINE
  5
333
100
AcDbEntity
  8
4
  6
CONTINUOUS
 62
     5
100
AcDbLine
 10
280.0
 20
556.0
 30
0.0
 11
280.0
 21
552.0
 31
0.0
  0
LINE
  5
334
100
AcDbEntity
  8
4
  6
CONTINUOUS
 62
     5
100
AcDbLine
 10
160.0
 20
556.0
 30
0.0
 11
160.0
 21
552.0
 31
0.0
  0
LINE
  5
335
100
AcDbEntity
  8
4
  6
CONTINUOUS
 62
     5
100
AcDbLine
 10
404.0
 20
192.0
 30
0.0
 11
400.0
 21
192.0
 31
0.0
  0
LINE
  5
336
100
AcDbEntity
  8
4
  6
CONTINUOUS
 62
     5
100
AcDbLine
 10
404.0
 20
312.0
 30
0.0
 11
400.0
 21
312.0
 31
0.0
  0
LINE
  5
337
100
AcDbEntity
  8
4
  6
CONTINUOUS
 62
     5
100
AcDbLine
 10
404.0
 20
432.0
 30
0.0
 11
400.0
 21
432.0
 31
0.0
  0
LINE
  5
338
100
AcDbEntity
  8
4
  6
CONTINUOUS
 62
     5
100
AcDbLine
 10
36.0
 20
192.0
 30
0.0
 11
40.0
 21
192.0
 31
0.0
  0
LINE
  5
339
100
AcDbEntity
  8
4
  6
CONTINUOUS
 62
     5
100
AcDbLine
 10
36.0
 20
312.0
 30
0.0
 11
40.0
 21
312.0
 31
0.0
  0
LINE
  5
33A
100
AcDbEntity
  8
4
  6
CONTINUOUS
 62
     5
100
AcDbLine
 10
36.0
 20
432.0
 30
0.0
 11
40.0
 21
432.0
 31
0.0
  0
TEXT
  5
33B
100
AcDbEntity
  8
2
  6
CONTINUOUS
 62
     3
100
AcDbText
 10
40.698456
 20
72.908318
 30
0.0
 40
5.0
  1
DRAWN
 41
0.5
 11
40.698456
 21
72.908318
 31
0.0
100
AcDbText
 73
     1
  0
TEXT
  5
33C
100
AcDbEntity
  8
2
  6
CONTINUOUS
 62
     3
100
AcDbText
 10
40.698456
 20
60.82565
 30
0.0
 40
5.0
  1
CHECKED
 41
0.5
 11
40.698456
 21
60.82565
 31
0.0
100
AcDbText
 73
     1
  0
TEXT
  5
33D
100
AcDbEntity
  8
2
  6
CONTINUOUS
 62
     3
100
AcDbText
 10
40.698456
 20
48.425014
 30
0.0
 40
5.0
  1
APPROVED
 41
0.5
 11
40.698456
 21
48.425014
 31
0.0
100
AcDbText
 73
     1
  0
TEXT
  5
33E
100
AcDbEntity
  8
2
  6
CONTINUOUS
 62
     3
100
AcDbText
 10
40.698456
 20
36.978272
 30
0.0
 40
5.0
  1
SCALE
 41
0.5
 11
40.698456
 21
36.978272
 31
0.0
100
AcDbText
 73
     1
  0
TEXT
  5
33F
100
AcDbEntity
  8
2
  6
CONTINUOUS
 62
     3
100
AcDbText
 10
40.698456
 20
25.531532
 30
0.0
 40
5.0
  1
DWG.No.
 41
0.564516
 11
40.698456
 21
25.531532
 31
0.0
100
AcDbText
 73
     1
  0
TEXT
  5
340
100
AcDbEntity
  8
2
  6
CONTINUOUS
 62
     3
100
AcDbText
 10
88.711182
 20
37.296238
 30
0.0
 40
5.0
  1
MASS
 41
0.5
 11
88.711182
 21
37.296238
 31
0.0
100
AcDbText
 73
     1
  0
TEXT
  5
341
100
AcDbEntity
  8
2
  6
CONTINUOUS
 62
     3
100
AcDbText
 10
220.666688
 20
72.908318
 30
0.0
 40
5.0
  1
TITLE
 41
0.5
 11
220.666688
 21
72.908318
 31
0.0
100
AcDbText
 73
     1
  0
TEXT
  5
342
100
AcDbEntity
  8
2
  6
CONTINUOUS
 62
     3
100
AcDbText
 10
222.25647
 20
60.18972
 30
0.0
 40
5.0
  1
名称
 41
0.833333
 11
222.25647
 21
60.18972
 31
0.0
100
AcDbText
 73
     1
  0
TEXT
  5
343
100
AcDbEntity
  8
2
  6
CONTINUOUS
 62
     3
100
AcDbText
 10
221.938538
 20
36.660308
 30
0.0
 40
5.0
  1
NAME
 41
0.5
 11
221.938538
 21
36.660308
 31
0.0
100
AcDbText
 73
     1
  0
TEXT
  5
344
100
AcDbEntity
  8
3
  6
CONTINUOUS
 62
     2
100
AcDbText
 10
240.827065
 20
45.955688
 30
0.0
 40
8.0
  1
外寸図
 41
0.833333
 11
240.827065
 21
45.955688
 31
0.0
100
AcDbText
 73
     1
  0
TEXT
  5
345
100
AcDbEntity
  8
3
  6
CONTINUOUS
 62
     2
100
AcDbText
 10
240.827065
 20
21.955688
 30
0.0
 40
7.0
  1
OUTLINE DRAWING
 41
0.513699
 11
240.827065
 21
21.955688
 31
0.0
100
AcDbText
 73
     1
  0
TEXT
  5
346
100
AcDbEntity
  8
2
  6
CONTINUOUS
 62
     3
100
AcDbText
 10
119.454671
 20
33.162694
 30
0.0
 40
5.0
  1
kg
 41
0.5
 11
119.454671
 21
33.162694
 31
0.0
100
AcDbText
 73
     1
  0
TEXT
  5
347
100
AcDbEntity
  8
4
  6
CONTINUOUS
 62
     5
100
AcDbText
 10
32.0
 20
252.0
 30
0.0
 40
8.0
  1
C
 41
0.5
 11
32.0
 21
252.0
 31
0.0
100
AcDbText
 73
     1
  0
TEXT
  5
348
100
AcDbEntity
  8
4
  6
CONTINUOUS
 62
     5
100
AcDbText
 10
32.0
 20
372.0
 30
0.0
 40
8.0
  1
B
 41
0.5
 11
32.0
 21
372.0
 31
0.0
100
AcDbText
 73
     1
  0
TEXT
  5
349
100
AcDbEntity
  8
4
  6
CONTINUOUS
 62
     5
100
AcDbText
 10
32.0
 20
492.0
 30
0.0
 40
8.0
  1
A
 41
0.5
 11
32.0
 21
492.0
 31
0.0
100
AcDbText
 73
     1
  0
TEXT
  5
34A
100
AcDbEntity
  8
4
  6
CONTINUOUS
 62
     5
100
AcDbText
 10
32.0
 20
132.0
 30
0.0
 40
8.0
  1
D
 41
0.5
 11
32.0
 21
132.0
 31
0.0
100
AcDbText
 73
     1
  0
TEXT
  5
34B
100
AcDbEntity
  8
4
  6
CONTINUOUS
 62
     5
100
AcDbText
 10
340.0
 20
552.0
 30
0.0
 40
8.0
  1
3
 41
0.5
 11
340.0
 21
552.0
 31
0.0
100
AcDbText
 73
     1
  0
TEXT
  5
34C
100
AcDbEntity
  8
4
  6
CONTINUOUS
 62
     5
100
AcDbText
 10
220.0
 20
552.0
 30
0.0
 40
8.0
  1
2
 41
0.5
 11
220.0
 21
552.0
 31
0.0
100
AcDbText
 73
     1
  0
TEXT
  5
34D
100
AcDbEntity
  8
4
  6
CONTINUOUS
 62
     5
100
AcDbText
 10
100.0
 20
552.0
 30
0.0
 40
8.0
  1
1
 41
0.5
 11
100.0
 21
552.0
 31
0.0
100
AcDbText
 73
     1
  0
LINE
  5
34E
100
AcDbEntity
  8
2
  6
CONTINUOUS
 62
     3
100
AcDbLine
 10
220.0
 20
80.0
 30
0.0
 11
220.0
 21
20.0
 31
0.0
  0
LINE
  5
34F
100
AcDbEntity
  8
2
  6
HIDDEN
 62
     3
100
AcDbLine
 10
128.0
 20
56.0
 30
0.0
 11
220.0
 21
56.0
 31
0.0
  0
LINE
  5
350
100
AcDbEntity
  8
2
  6
HIDDEN
 62
     3
100
AcDbLine
 10
40.0
 20
68.0
 30
0.0
 11
220.0
 21
68.0
 31
0.0
  0
LINE
  5
351
100
AcDbEntity
  8
2
  6
HIDDEN
 62
     3
100
AcDbLine
 10
184.0
 20
80.0
 30
0.0
 11
184.0
 21
44.0
 31
0.0
  0
LINE
  5
352
100
AcDbEntity
  8
2
  6
CONTINUOUS
 62
     3
100
AcDbLine
 10
88.0
 20
32.0
 30
0.0
 11
88.0
 21
44.0
 31
0.0
  0
LINE
  5
353
100
AcDbEntity
  8
2
  6
CONTINUOUS
 62
     3
100
AcDbLine
 10
40.0
 20
32.0
 30
0.0
 11
220.0
 21
32.0
 31
0.0
  0
LINE
  5
354
100
AcDbEntity
  8
2
  6
CONTINUOUS
 62
     3
100
AcDbLine
 10
40.0
 20
44.0
 30
0.0
 11
220.0
 21
44.0
 31
0.0
  0
LINE
  5
355
100
AcDbEntity
  8
2
  6
CONTINUOUS
 62
     3
100
AcDbLine
 10
128.0
 20
80.0
 30
0.0
 11
128.0
 21
20.0
 31
0.0
  0
LINE
  5
356
100
AcDbEntity
  8
2
  6
CONTINUOUS
 62
     3
100
AcDbLine
 10
220.0
 20
32.0
 30
0.0
 11
400.0
 21
32.0
 31
0.0
  0
LINE
  5
357
100
AcDbEntity
  8
2
  6
CONTINUOUS
 62
     3
100
AcDbLine
 10
220.0
 20
44.0
 30
0.0
 11
400.0
 21
44.0
 31
0.0
  0
LINE
  5
358
100
AcDbEntity
  8
2
  6
CONTINUOUS
 62
     3
100
AcDbLine
 10
220.0
 20
56.0
 30
0.0
 11
400.0
 21
56.0
 31
0.0
  0
LINE
  5
359
100
AcDbEntity
  8
2
  6
CONTINUOUS
 62
     3
100
AcDbLine
 10
220.0
 20
68.0
 30
0.0
 11
400.0
 21
68.0
 31
0.0
  0
LINE
  5
35A
100
AcDbEntity
  8
2
  6
CONTINUOUS
 62
     3
100
AcDbLine
 10
40.0
 20
56.0
 30
0.0
 11
128.0
 21
56.0
 31
0.0
  0
LINE
  5
35B
100
AcDbEntity
  8
3
  6
CONTINUOUS
 62
     2
100
AcDbLine
 10
400.0
 20
80.0
 30
0.0
 11
40.0
 21
80.0
 31
0.0
  0
LINE
  5
35C
100
AcDbEntity
  8
4
  6
CONTINUOUS
 62
     5
100
AcDbLine
 10
40.0
 20
552.0
 30
0.0
 11
40.0
 21
20.0
 31
0.0
  0
TEXT
  5
35D
100
AcDbEntity
  8
3
  6
CONTINUOUS
 62
     2
100
AcDbText
 10
240.152853
 20
69.955688
 30
0.0
 40
8.0
  1
CI-3540
 41
0.5
 11
240.152853
 21
69.955688
 31
0.0
100
AcDbText
 73
     1
  0
TEXT
  5
35E
100
AcDbEntity
  8
3
  6
CONTINUOUS
 62
     2
100
AcDbText
 10
240.827065
 20
57.955688
 30
0.0
 40
8.0
  1
接続箱
 41
0.833333
 11
240.827065
 21
57.955688
 31
0.0
100
AcDbText
 73
     1
  0
TEXT
  5
35F
100
AcDbEntity
  8
3
  6
CONTINUOUS
 62
     2
100
AcDbText
 10
153.294584
 20
21.955688
 30
0.0
 40
7.0
  1
66-025-5000-G1
 41
0.5
 11
153.294584
 21
21.955688
 31
0.0
100
AcDbText
 73
     1
  0
TEXT
  5
360
100
AcDbEntity
  8
3
  6
CONTINUOUS
 62
     2
100
AcDbText
 10
103.935546
 20
33.875752
 30
0.0
 40
7.0
  1
3
 41
0.5
 11
103.935546
 21
33.875752
 31
0.0
100
AcDbText
 73
     1
  0
TEXT
  5
361
100
AcDbEntity
  8
3
  6
CONTINUOUS
 62
     2
100
AcDbText
 10
63.641448
 20
34.169868
 30
0.0
 40
7.0
  1
1/2
 41
0.5
 11
63.641448
 21
34.169868
 31
0.0
100
AcDbText
 73
     1
  0
TEXT
  5
362
100
AcDbEntity
  8
3
  6
CONTINUOUS
 62
     2
100
AcDbText
 10
240.827065
 20
33.955688
 30
0.0
 40
7.0
  1
JUNCTION BOX
 41
0.517241
 11
240.827065
 21
33.955688
 31
0.0
100
AcDbText
 73
     1
  0
TEXT
  5
363
100
AcDbEntity
  8
97
  6
CONTINUOUS
 62
     3
100
AcDbText
 10
314.786861
 20
117.641791
 30
0.0
 40
5.0
  1
DIMENSION
 41
0.5
 11
314.786861
 21
117.641791
 31
0.0
100
AcDbText
 73
     1
  0
TEXT
  5
364
100
AcDbEntity
  8
97
  6
CONTINUOUS
 62
     3
100
AcDbText
 10
307.973502
 20
123.641791
 30
0.0
 40
6.0
  1
寸法区分(mm)
 41
0.681818
 11
307.973502
 21
123.641791
 31
0.0
100
AcDbText
 73
     1
  0
TEXT
  5
365
100
AcDbEntity
  8
97
  6
CONTINUOUS
 62
     3
100
AcDbText
 10
356.875499
 20
117.641791
 30
0.0
 40
5.0
  1
TOLERANCE
 41
0.5
 11
356.875499
 21
117.641791
 31
0.0
100
AcDbText
 73
     1
  0
LINE
  5
366
100
AcDbEntity
  8
97
  6
CONTINUOUS
 62
     3
100
AcDbLine
 10
295.236499
 20
117.641791
 30
0.0
 11
383.236499
 21
117.641791
 31
0.0
  0
LINE
  5
367
100
AcDbEntity
  8
97
  6
CONTINUOUS
 62
     3
100
AcDbLine
 10
295.236499
 20
109.641791
 30
0.0
 11
383.236499
 21
109.641791
 31
0.0
  0
LINE
  5
368
100
AcDbEntity
  8
97
  6
CONTINUOUS
 62
     3
100
AcDbLine
 10
295.236499
 20
101.641791
 30
0.0
 11
383.236499
 21
101.641791
 31
0.0
  0
TEXT
  5
369
100
AcDbEntity
  8
97
  6
CONTINUOUS
 62
     3
100
AcDbText
 10
357.236499
 20
123.641791
 30
0.0
 40
6.0
  1
公差(mm)
 41
0.625
 11
357.236499
 21
123.641791
 31
0.0
100
AcDbText
 73
     1
  0
TEXT
  5
36A
100
AcDbEntity
  8
97
  6
CONTINUOUS
 62
     3
100
AcDbText
 10
327.236499
 20
133.641791
 30
0.0
 40
5.0
  1
TABLE 1
 41
0.530303
 11
327.236499
 21
133.641791
 31
0.0
100
AcDbText
 73
     1
  0
LINE
  5
36B
100
AcDbEntity
  8
97
  6
CONTINUOUS
 62
     3
100
AcDbLine
 10
327.836499
 20
139.041791
 30
0.0
 11
343.236499
 21
139.041791
 31
0.0
  0
TEXT
  5
36C
100
AcDbEntity
  8
97
  6
CONTINUOUS
 62
     3
100
AcDbText
 10
329.836499
 20
139.041791
 30
0.0
 40
6.0
  1
表１
 41
0.833333
 11
329.836499
 21
139.041791
 31
0.0
100
AcDbText
 73
     1
  0
TEXT
  5
36D
100
AcDbEntity
  8
97
  6
CONTINUOUS
 62
     3
100
AcDbText
 10
324.38354
 20
110.271271
 30
0.0
 40
6.0
  1
L ≦  120
 41
0.642857
 11
324.38354
 21
110.271271
 31
0.0
100
AcDbText
 73
     1
  0
TEXT
  5
36E
100
AcDbEntity
  8
97
  6
CONTINUOUS
 62
     3
100
AcDbText
 10
303.38354
 20
102.271271
 30
0.0
 40
6.0
  1
120 ＜ L ≦  250
 41
0.645161
 11
303.38354
 21
102.271271
 31
0.0
100
AcDbText
 73
     1
  0
TEXT
  5
36F
100
AcDbEntity
  8
97
  6
CONTINUOUS
 62
     3
100
AcDbText
 10
303.38354
 20
94.271271
 30
0.0
 40
6.0
  1
250 ＜ L ≦  400
 41
0.645161
 11
303.38354
 21
94.271271
 31
0.0
100
AcDbText
 73
     1
  0
LINE
  5
370
100
AcDbEntity
  8
97
  6
CONTINUOUS
 62
     3
100
AcDbLine
 10
355.236499
 20
129.641791
 30
0.0
 11
355.236499
 21
85.641791
 31
0.0
  0
INSERT
  5
378
100
AcDbEntity
  8
97
  6
CONTINUOUS
 62
     3
100
AcDbBlockReference
  2
*G0
 10
0.0
 20
0.0
 30
0.0
  0
LINE
  5
379
100
AcDbEntity
  8
97
  6
CONTINUOUS
 62
     3
100
AcDbLine
 10
295.236499
 20
93.641791
 30
0.0
 11
383.236499
 21
93.641791
 31
0.0
  0
TEXT
  5
37A
100
AcDbEntity
  8
97
  6
CONTINUOUS
 62
     3
100
AcDbText
 10
303.38354
 20
86.271271
 30
0.0
 40
6.0
  1
250 ＜ L ≦  400
 41
0.645161
 11
303.38354
 21
86.271271
 31
0.0
100
AcDbText
 73
     1
  0
TEXT
  5
37B
100
AcDbEntity
  8
97
  6
CONTINUOUS
 62
     3
100
AcDbText
 10
359.739273
 20
109.915895
 30
0.0
 40
6.0
  1
%%p3.0
 41
0.694444
 11
359.739273
 21
109.915895
 31
0.0
100
AcDbText
 73
     1
  0
TEXT
  5
37C
100
AcDbEntity
  8
97
  6
CONTINUOUS
 62
     3
100
AcDbText
 10
359.739273
 20
101.915895
 30
0.0
 40
6.0
  1
%%p3.5
 41
0.694444
 11
359.739273
 21
101.915895
 31
0.0
100
AcDbText
 73
     1
  0
TEXT
  5
37D
100
AcDbEntity
  8
97
  6
CONTINUOUS
 62
     3
100
AcDbText
 10
359.739273
 20
93.915895
 30
0.0
 40
6.0
  1
%%p4.5
 41
0.694444
 11
359.739273
 21
93.915895
 31
0.0
100
AcDbText
 73
     1
  0
TEXT
  5
37E
100
AcDbEntity
  8
97
  6
CONTINUOUS
 62
     3
100
AcDbText
 10
359.739273
 20
85.915895
 30
0.0
 40
6.0
  1
%%p5.5
 41
0.694444
 11
359.739273
 21
85.915895
 31
0.0
100
AcDbText
 73
     1
  0
TEXT
  5
37F
100
AcDbEntity
  8
1
  6
CONTINUOUS
 62
     4
100
AcDbText
 10
76.5
 20
99.751186
 30
0.0
 40
6.0
  1
TABLE 1 INDICATES TOLERANCE OF DIMENSIONS.
 41
0.530303
 11
76.5
 21
99.751186
 31
0.0
100
AcDbText
 73
     1
  0
TEXT
  5
380
100
AcDbEntity
  8
1
  6
CONTINUOUS
 62
     4
100
AcDbText
 10
76.5
 20
114.751186
 30
0.0
 40
6.0
  1
指定なき寸法公差は表１による。
 41
0.833333
 11
76.5
 21
114.751186
 31
0.0
100
AcDbText
 73
     1
  0
TEXT
  5
381
100
AcDbEntity
  8
1
  6
CONTINUOUS
 62
     4
100
AcDbText
 10
76.5
 20
106.751186
 30
0.0
 40
6.0
  1
NOTE
 41
0.5
 11
76.5
 21
106.751186
 31
0.0
100
AcDbText
 73
     1
  0
TEXT
  5
382
100
AcDbEntity
  8
1
  6
CONTINUOUS
 62
     4
100
AcDbText
 10
76.5
 20
121.751186
 30
0.0
 40
6.0
  1
注記
 41
0.833333
 11
76.5
 21
121.751186
 31
0.0
100
AcDbText
 73
     1
  0
CIRCLE
  5
383
100
AcDbEntity
  8
1
  6
CONTINUOUS
 62
     4
100
AcDbCircle
 10
246.982255
 20
182.978184
 30
0.0
 40
2.5
  0
CIRCLE
  5
384
100
AcDbEntity
  8
1
  6
CONTINUOUS
 62
     4
100
AcDbCircle
 10
246.982255
 20
182.978184
 30
0.0
 40
1.25
  0
LINE
  5
385
100
AcDbEntity
  8
1
  6
CONTINUOUS
 62
     4
100
AcDbLine
 10
246.982255
 20
182.978184
 30
0.0
 11
214.199896
 21
157.220877
 31
0.0
  0
TEXT
  5
386
100
AcDbEntity
  8
1
  6
CONTINUOUS
 62
     4
100
AcDbText
 10
264.5
 20
290.692537
 30
0.0
 40
6.0
  1
A25
 41
0.5
 11
264.5
 21
290.692537
 31
0.0
100
AcDbText
 73
     1
  0
TEXT
  5
387
100
AcDbEntity
  8
1
  6
CONTINUOUS
 62
     4
100
AcDbText
 10
106.5
 20
297.692537
 30
0.0
 40
6.0
  1
A20
 41
0.5
 11
106.5
 21
297.692537
 31
0.0
100
AcDbText
 73
     1
  0
TEXT
  5
388
100
AcDbEntity
  8
1
  6
CONTINUOUS
 62
     4
100
AcDbText
 10
156.5
 20
297.692537
 30
0.0
 40
6.0
  1
A20
 41
0.5
 11
156.5
 21
297.692537
 31
0.0
100
AcDbText
 73
     1
  0
TEXT
  5
389
100
AcDbEntity
  8
1
  6
CONTINUOUS
 62
     4
100
AcDbText
 10
206.5
 20
297.692537
 30
0.0
 40
6.0
  1
A20
 41
0.5
 11
206.5
 21
297.692537
 31
0.0
100
AcDbText
 73
     1
  0
TEXT
  5
38A
100
AcDbEntity
  8
1
  6
CONTINUOUS
 62
     4
100
AcDbText
 10
184.199896
 20
157.220877
 30
0.0
 40
6.0
  1
アース端子
 41
0.833333
 11
184.199896
 21
157.220877
 31
0.0
100
AcDbText
 73
     1
  0
TEXT
  5
38B
100
AcDbEntity
  8
1
  6
CONTINUOUS
 62
     4
100
AcDbText
 10
178.199896
 20
151.220877
 30
0.0
 40
6.0
  1
GND TERMINAL
 41
0.517241
 11
178.199896
 21
151.220877
 31
0.0
100
AcDbText
 73
     1
  0
LINE
  5
38C
100
AcDbEntity
  8
1
  6
CONTINUOUS
 62
     4
100
AcDbLine
 10
214.199896
 20
157.220877
 30
0.0
 11
184.199896
 21
157.220877
 31
0.0
  0
TEXT
  5
38D
100
AcDbEntity
  8
1
  6
CONTINUOUS
 62
     4
100
AcDbText
 10
171.966666
 20
442.029851
 30
0.0
 40
6.0
  1
NAMEPLATE
 41
0.5
 11
171.966666
 21
442.029851
 31
0.0
100
AcDbText
 73
     1
  0
TEXT
  5
38E
100
AcDbEntity
  8
1
  6
CONTINUOUS
 62
     4
100
AcDbText
 10
171.966666
 20
451.029851
 30
0.0
 40
6.0
  1
銘板
 41
0.833333
 11
171.966666
 21
451.029851
 31
0.0
100
AcDbText
 73
     1
  0
LINE
  5
38F
100
AcDbEntity
  8
1
  6
CONTINUOUS
 62
     4
100
AcDbLine
 10
82.517666
 20
367.893108
 30
0.0
 11
84.572329
 21
371.32507
 31
0.0
  0
LINE
  5
390
100
AcDbEntity
  8
1
  6
CONTINUOUS
 62
     4
100
AcDbLine
 10
82.517666
 20
367.893108
 30
0.0
 11
86.013037
 21
369.837943
 31
0.0
  0
POLYLINE
  5
391
100
AcDbEntity
  8
1
  6
CONTINUOUS
 62
     4
100
AcDb2dPolyline
 66
     1
 10
0.0
 20
0.0
 30
0.0
  0
VERTEX
  5
392
100
AcDbEntity
  8
1
  6
CONTINUOUS
 62
     4
100
AcDbVertex
100
AcDb2dVertex
 10
82.517666
 20
367.893108
 30
0.0
  0
VERTEX
  5
393
100
AcDbEntity
  8
1
  6
CONTINUOUS
 62
     4
100
AcDbVertex
100
AcDb2dVertex
 10
105.017666
 20
389.690798
 30
0.0
  0
VERTEX
  5
394
100
AcDbEntity
  8
1
  6
CONTINUOUS
 62
     4
100
AcDbVertex
100
AcDb2dVertex
 10
126.786878
 20
389.690798
 30
0.0
  0
SEQEND
  5
395
100
AcDbEntity
  8
1
  6
CONTINUOUS
 62
     4
  0
TEXT
  5
396
100
AcDbEntity
  8
1
  6
CONTINUOUS
 62
     4
100
AcDbText
 10
105.786878
 20
389.690798
 30
0.0
 40
6.0
  1
4-%%c6.3
 41
0.625
 11
105.786878
 21
389.690798
 31
0.0
100
AcDbText
 73
     1
  0
TEXT
  5
397
100
AcDbEntity
  8
1
  6
CONTINUOUS
 62
     4
100
AcDbText
 10
105.786878
 20
383.690798
 30
0.0
 40
6.0
  1
FIXING HOLES
 41
0.517241
 11
105.786878
 21
383.690798
 31
0.0
100
AcDbText
 73
     1
  0
TEXT
  5
398
100
AcDbEntity
  8
1
  6
CONTINUOUS
 62
     4
100
AcDbText
 10
107.028255
 20
396.213375
 30
0.0
 40
6.0
  1
取付穴
 41
0.833333
 11
107.028255
 21
396.213375
 31
0.0
100
AcDbText
 73
     1
  0
DIMENSION
  5
3A4
100
AcDbEntity
  8
7
  6
CONTINUOUS
 62
     4
100
AcDbDimension
  2
*D1
 10
70.0
 20
516.0
 30
0.0
 11
75.0
 21
519.0
 31
0.0
  1
10
100
AcDbAlignedDimension
 13
70.0
 23
497.0
 33
0.0
 14
80.0
 24
478.0
 34
0.0
100
AcDbRotatedDimension
  0
DIMENSION
  5
3AF
100
AcDbEntity
  8
7
  6
CONTINUOUS
 62
     4
100
AcDbDimension
  2
*D2
 10
80.0
 20
516.0
 30
0.0
 11
200.0
 21
519.0
 31
0.0
  1
240
100
AcDbAlignedDimension
 13
80.0
 23
516.0
 33
0.0
 14
320.0
 24
478.0
 34
0.0
100
AcDbRotatedDimension
  0
DIMENSION
  5
3BA
100
AcDbEntity
  8
7
  6
CONTINUOUS
 62
     4
100
AcDbDimension
  2
*D3
 10
320.0
 20
516.0
 30
0.0
 11
325.0
 21
519.0
 31
0.0
  1
(10)
100
AcDbAlignedDimension
 13
320.0
 23
516.0
 33
0.0
 14
330.0
 24
503.0
 34
0.0
100
AcDbRotatedDimension
  0
DIMENSION
  5
3C6
100
AcDbEntity
  8
7
  6
CONTINUOUS
 62
     4
100
AcDbDimension
  2
*D4
 10
370.0
 20
341.0
 30
0.0
 11
367.0
 21
421.0
 31
0.0
  1
160
100
AcDbAlignedDimension
 13
326.0
 23
341.0
 33
0.0
 14
326.0
 24
501.0
 34
0.0
 50
90.0
100
AcDbRotatedDimension
  0
DIMENSION
  5
3D2
100
AcDbEntity
  8
7
  6
CONTINUOUS
 62
     4
100
AcDbDimension
  2
*D5
 10
350.0
 20
341.0
 30
0.0
 11
347.0
 21
353.5
 31
0.0
  1
25
100
AcDbAlignedDimension
 13
326.0
 23
341.0
 33
0.0
 14
322.0
 24
366.0
 34
0.0
 50
90.0
100
AcDbRotatedDimension
  0
DIMENSION
  5
3DD
100
AcDbEntity
  8
7
  6
CONTINUOUS
 62
     4
100
AcDbDimension
  2
*D6
 10
350.0
 20
366.0
 30
0.0
 11
347.0
 21
421.0
 31
0.0
  1
110
100
AcDbAlignedDimension
 13
350.0
 23
366.0
 33
0.0
 14
322.0
 24
476.0
 34
0.0
 50
90.0
100
AcDbRotatedDimension
  0
DIMENSION
  5
3E8
100
AcDbEntity
  8
7
  6
CONTINUOUS
 62
     4
100
AcDbDimension
  2
*D7
 10
350.0
 20
476.0
 30
0.0
 11
347.0
 21
488.5
 31
0.0
  1
（25）
100
AcDbAlignedDimension
 13
350.0
 23
476.0
 33
0.0
 14
326.0
 24
501.0
 34
0.0
 50
90.0
100
AcDbRotatedDimension
  0
LINE
  5
3E9
100
AcDbEntity
  8
7
  6
CENTER
 62
     4
100
AcDbLine
 10
200.0
 20
268.41791
 30
0.0
 11
200.0
 21
164.61194
 31
0.0
  0
DIMENSION
  5
3F5
100
AcDbEntity
  8
7
  6
CONTINUOUS
 62
     4
100
AcDbDimension
  2
*D8
 10
70.0
 20
531.0
 30
0.0
 11
200.0
 21
534.0
 31
0.0
  1
260
100
AcDbAlignedDimension
 13
70.0
 23
497.0
 33
0.0
 14
330.0
 24
497.0
 34
0.0
100
AcDbRotatedDimension
  0
DIMENSION
  5
401
100
AcDbEntity
  8
7
  6
CONTINUOUS
 62
     4
100
AcDbDimension
  2
*D9
 10
70.0
 20
280.062314
 30
0.0
 11
94.75
 21
283.062314
 31
0.0
  1
49.5
100
AcDbAlignedDimension
 13
70.0
 23
345.0
 33
0.0
 14
119.5
 24
299.6
 34
0.0
100
AcDbRotatedDimension
  0
DIMENSION
  5
40C
100
AcDbEntity
  8
7
  6
CONTINUOUS
 62
     4
100
AcDbDimension
  2
*D10
 10
119.5
 20
280.062314
 30
0.0
 11
144.5
 21
283.062314
 31
0.0
  1
50
100
AcDbAlignedDimension
 13
119.5
 23
280.062314
 33
0.0
 14
169.5
 24
299.6
 34
0.0
100
AcDbRotatedDimension
  0
DIMENSION
  5
417
100
AcDbEntity
  8
7
  6
CONTINUOUS
 62
     4
100
AcDbDimension
  2
*D11
 10
169.5
 20
280.062314
 30
0.0
 11
194.5
 21
283.062314
 31
0.0
  1
50
100
AcDbAlignedDimension
 13
169.5
 23
280.062314
 33
0.0
 14
219.5
 24
299.6
 34
0.0
100
AcDbRotatedDimension
  0
DIMENSION
  5
422
100
AcDbEntity
  8
7
  6
CONTINUOUS
 62
     4
100
AcDbDimension
  2
*D12
 10
219.5
 20
280.062314
 30
0.0
 11
248.5
 21
283.062314
 31
0.0
  1
58
100
AcDbAlignedDimension
 13
219.5
 23
280.062314
 33
0.0
 14
277.5
 24
290.0
 34
0.0
100
AcDbRotatedDimension
  0
DIMENSION
  5
42D
100
AcDbEntity
  8
7
  6
CONTINUOUS
 62
     4
100
AcDbDimension
  2
*D13
 10
277.5
 20
280.062314
 30
0.0
 11
303.75
 21
283.062314
 31
0.0
  1
(52.5)
100
AcDbAlignedDimension
 13
277.5
 23
280.062314
 33
0.0
 14
330.0
 24
345.0
 34
0.0
100
AcDbRotatedDimension
  0
LINE
  5
42E
100
AcDbEntity
  8
7
  6
CENTER
 62
     4
100
AcDbLine
 10
277.5
 20
351.0
 30
0.0
 11
277.5
 21
292.0
 31
0.0
  0
LINE
  5
42F
100
AcDbEntity
  8
7
  6
CENTER
 62
     4
100
AcDbLine
 10
219.5
 20
351.0
 30
0.0
 11
219.5
 21
301.6
 31
0.0
  0
LINE
  5
430
100
AcDbEntity
  8
7
  6
CENTER
 62
     4
100
AcDbLine
 10
169.5
 20
351.0
 30
0.0
 11
169.5
 21
301.6
 31
0.0
  0
LINE
  5
431
100
AcDbEntity
  8
7
  6
CENTER
 62
     4
100
AcDbLine
 10
119.5
 20
351.0
 30
0.0
 11
119.5
 21
301.6
 31
0.0
  0
LINE
  5
432
100
AcDbEntity
  8
7
  6
CENTER
 62
     4
100
AcDbLine
 10
200.0
 20
507.940299
 30
0.0
 11
200.0
 21
330.626866
 31
0.0
  0
DIMENSION
  5
43E
100
AcDbEntity
  8
7
  6
CONTINUOUS
 62
     4
100
AcDbDimension
  2
*D14
 10
57.312
 20
170.0
 30
0.0
 11
54.312
 21
192.3
 31
0.0
  1
44.6
100
AcDbAlignedDimension
 13
73.0
 23
170.0
 33
0.0
 14
96.054132
 24
214.6
 34
0.0
 50
90.0
100
AcDbRotatedDimension
  0
LINE
  5
43F
100
AcDbEntity
  8
7
  6
CENTER
 62
     4
100
AcDbLine
 10
198.054132
 20
214.6
 30
0.0
 11
239.882721
 21
214.6
 31
0.0
  0
LINE
  5
440
100
AcDbEntity
  8
7
  6
CENTER
 62
     4
100
AcDbLine
 10
148.054132
 20
214.6
 30
0.0
 11
189.882721
 21
214.6
 31
0.0
  0
LINE
  5
441
100
AcDbEntity
  8
7
  6
CENTER
 62
     4
100
AcDbLine
 10
98.054132
 20
214.6
 30
0.0
 11
139.882721
 21
214.6
 31
0.0
  0
DIMENSION
  5
44D
100
AcDbEntity
  8
7
  6
CONTINUOUS
 62
     4
100
AcDbDimension
  2
*D15
 10
370.0
 20
170.0
 30
0.0
 11
367.0
 21
215.5
 31
0.0
  1
91
100
AcDbAlignedDimension
 13
327.0
 23
170.0
 33
0.0
 14
330.0
 24
261.0
 34
0.0
 50
90.0
100
AcDbRotatedDimension
  0
DIMENSION
  5
459
100
AcDbEntity
  8
7
  6
CONTINUOUS
 62
     4
100
AcDbDimension
  2
*D16
 10
350.0
 20
170.0
 30
0.0
 11
347.0
 21
193.5
 31
0.0
  1
47
100
AcDbAlignedDimension
 13
327.0
 23
170.0
 33
0.0
 14
304.579636
 24
217.0
 34
0.0
 50
90.0
100
AcDbRotatedDimension
  0
LINE
  5
45A
100
AcDbEntity
  8
7
  6
CENTER
 62
     4
100
AcDbLine
 10
251.787778
 20
217.0
 30
0.0
 11
302.579636
 21
217.0
 31
0.0
  0
DIMENSION
  5
466
100
AcDbEntity
  8
7
  6
CONTINUOUS
 62
     4
100
AcDbDimension
  2
*D17
 10
70.0
 20
147.712326
 30
0.0
 11
152.25
 21
150.712326
 31
0.0
  1
164.5
100
AcDbAlignedDimension
 13
70.0
 23
171.0
 33
0.0
 14
234.5
 24
177.5
 34
0.0
100
AcDbRotatedDimension
  0
DIMENSION
  5
471
100
AcDbEntity
  8
7
  6
CONTINUOUS
 62
     4
100
AcDbDimension
  2
*D18
 10
234.5
 20
147.712326
 30
0.0
 11
249.5
 21
150.712326
 31
0.0
  1
30
100
AcDbAlignedDimension
 13
234.5
 23
147.712326
 33
0.0
 14
264.5
 24
177.5
 34
0.0
100
AcDbRotatedDimension
  0
LINE
  5
472
100
AcDbEntity
  8
7
  6
CENTER
 62
     4
100
AcDbLine
 10
277.5
 20
240.0
 30
0.0
 11
277.5
 21
190.6
 31
0.0
  0
LINE
  5
473
100
AcDbEntity
  8
7
  6
CENTER
 62
     4
100
AcDbLine
 10
219.5
 20
237.6
 30
0.0
 11
219.5
 21
188.2
 31
0.0
  0
LINE
  5
474
100
AcDbEntity
  8
7
  6
CENTER
 62
     4
100
AcDbLine
 10
169.5
 20
237.6
 30
0.0
 11
169.5
 21
188.2
 31
0.0
  0
LINE
  5
475
100
AcDbEntity
  8
7
  6
CENTER
 62
     4
100
AcDbLine
 10
119.5
 20
237.6
 30
0.0
 11
119.5
 21
188.2
 31
0.0
  0
ARC
  5
476
100
AcDbEntity
  8
1
  6
CONTINUOUS
 62
     4
100
AcDbCircle
 10
264.5
 20
183.0
 30
0.0
 40
4.25
100
AcDbArc
 50
-13.034281
 51
103.034281
  0
LINE
  5
477
100
AcDbEntity
  8
1
  6
CONTINUOUS
 62
     4
100
AcDbLine
 10
265.405867
 20
179.61926
 30
0.0
 11
265.45852
 21
178.8595
 31
0.0
  0
LINE
  5
478
100
AcDbEntity
  8
1
  6
CONTINUOUS
 62
     4
100
AcDbLine
 10
268.6405
 20
182.041481
 30
0.0
 11
267.880741
 21
182.094133
 31
0.0
  0
LINE
  5
479
100
AcDbEntity
  8
1
  6
CONTINUOUS
 62
     4
100
AcDbLine
 10
263.594133
 20
186.38074
 30
0.0
 11
263.541481
 21
187.1405
 31
0.0
  0
LINE
  5
47A
100
AcDbEntity
  8
1
  6
CONTINUOUS
 62
     4
100
AcDbLine
 10
265.45852
 20
178.8595
 30
0.0
 11
270.156854
 21
174.161165
 31
0.0
  0
LINE
  5
47B
100
AcDbEntity
  8
1
  6
CONTINUOUS
 62
     4
100
AcDbLine
 10
268.6405
 20
182.041481
 30
0.0
 11
273.338835
 21
177.343146
 31
0.0
  0
LINE
  5
47C
100
AcDbEntity
  8
1
  6
CONTINUOUS
 62
     4
100
AcDbLine
 10
267.880741
 20
182.094133
 30
0.0
 11
272.985282
 21
176.989592
 31
0.0
  0
LINE
  5
47D
100
AcDbEntity
  8
1
  6
CONTINUOUS
 62
     4
100
AcDbLine
 10
265.405867
 20
179.61926
 30
0.0
 11
270.510408
 21
174.514719
 31
0.0
  0
ARC
  5
47E
100
AcDbEntity
  8
1
  6
CONTINUOUS
 62
     4
100
AcDbCircle
 10
257.252156
 20
190.247845
 30
0.0
 40
1.75
100
AcDbArc
 50
45.0
 51
-135.0
  0
ARC
  5
47F
100
AcDbEntity
  8
1
  6
CONTINUOUS
 62
     4
100
AcDbCircle
 10
257.252156
 20
190.247845
 30
0.0
 40
2.25
100
AcDbArc
 50
45.0
 51
-135.0
  0
ARC
  5
480
100
AcDbEntity
  8
1
  6
CONTINUOUS
 62
     4
100
AcDbCircle
 10
271.747845
 20
175.752156
 30
0.0
 40
2.25
100
AcDbArc
 50
-135.0
 51
45.0
  0
ARC
  5
481
100
AcDbEntity
  8
1
  6
CONTINUOUS
 62
     4
100
AcDbCircle
 10
271.747845
 20
175.752156
 30
0.0
 40
1.75
100
AcDbArc
 50
-135.0
 51
45.0
  0
ARC
  5
482
100
AcDbEntity
  8
1
  6
CONTINUOUS
 62
     4
100
AcDbCircle
 10
264.5
 20
183.0
 30
0.0
 40
4.25
100
AcDbArc
 50
166.965719
 51
-76.965719
  0
CIRCLE
  5
483
100
AcDbEntity
  8
1
  6
CONTINUOUS
 62
     4
100
AcDbCircle
 10
264.5
 20
183.0
 30
0.0
 40
3.5
  0
LINE
  5
484
100
AcDbEntity
  8
1
  6
CONTINUOUS
 62
     4
100
AcDbLine
 10
258.489592
 20
191.485281
 30
0.0
 11
263.594133
 21
186.38074
 31
0.0
  0
LINE
  5
485
100
AcDbEntity
  8
1
  6
CONTINUOUS
 62
     4
100
AcDbLine
 10
256.014719
 20
189.010408
 30
0.0
 11
261.11926
 21
183.905867
 31
0.0
  0
LINE
  5
486
100
AcDbEntity
  8
1
  6
CONTINUOUS
 62
     4
100
AcDbLine
 10
258.843146
 20
191.838835
 30
0.0
 11
263.541481
 21
187.1405
 31
0.0
  0
LINE
  5
487
100
AcDbEntity
  8
1
  6
CONTINUOUS
 62
     4
100
AcDbLine
 10
255.661165
 20
188.656854
 30
0.0
 11
260.3595
 21
183.95852
 31
0.0
  0
LINE
  5
488
100
AcDbEntity
  8
1
  6
CONTINUOUS
 62
     4
100
AcDbLine
 10
274.5
 20
189.5
 30
0.0
 11
274.5
 21
176.5
 31
0.0
  0
LINE
  5
489
100
AcDbEntity
  8
1
  6
CONTINUOUS
 62
     4
100
AcDbLine
 10
224.5
 20
189.5
 30
0.0
 11
224.5
 21
176.5
 31
0.0
  0
LINE
  5
48A
100
AcDbEntity
  8
1
  6
CONTINUOUS
 62
     4
100
AcDbLine
 10
261.181981
 20
189.5
 30
0.0
 11
274.5
 21
189.5
 31
0.0
  0
LINE
  5
48B
100
AcDbEntity
  8
1
  6
CONTINUOUS
 62
     4
100
AcDbLine
 10
267.81802
 20
176.5
 30
0.0
 11
243.869926
 21
176.5
 31
0.0
  0
LINE
  5
48C
100
AcDbEntity
  8
1
  6
CONTINUOUS
 62
     4
100
AcDbLine
 10
231.181981
 20
189.5
 30
0.0
 11
255.130074
 21
189.5
 31
0.0
  0
LINE
  5
48D
100
AcDbEntity
  8
1
  6
CONTINUOUS
 62
     4
100
AcDbLine
 10
224.5
 20
189.5
 30
0.0
 11
225.130074
 21
189.5
 31
0.0
  0
LINE
  5
48E
100
AcDbEntity
  8
1
  6
CONTINUOUS
 62
     4
100
AcDbLine
 10
237.81802
 20
176.5
 30
0.0
 11
224.5
 21
176.5
 31
0.0
  0
LINE
  5
48F
100
AcDbEntity
  8
1
  6
CONTINUOUS
 62
     4
100
AcDbLine
 10
274.5
 20
176.5
 30
0.0
 11
273.869926
 21
176.5
 31
0.0
  0
LINE
  5
490
100
AcDbEntity
  8
1
  6
CONTINUOUS
 62
     4
100
AcDbLine
 10
225.661165
 20
188.656854
 30
0.0
 11
230.3595
 21
183.95852
 31
0.0
  0
LINE
  5
491
100
AcDbEntity
  8
1
  6
CONTINUOUS
 62
     4
100
AcDbLine
 10
228.843146
 20
191.838835
 30
0.0
 11
233.541481
 21
187.1405
 31
0.0
  0
LINE
  5
492
100
AcDbEntity
  8
1
  6
CONTINUOUS
 62
     4
100
AcDbLine
 10
226.014719
 20
189.010408
 30
0.0
 11
231.11926
 21
183.905867
 31
0.0
  0
LINE
  5
493
100
AcDbEntity
  8
1
  6
CONTINUOUS
 62
     4
100
AcDbLine
 10
228.489592
 20
191.485281
 30
0.0
 11
233.594133
 21
186.38074
 31
0.0
  0
CIRCLE
  5
494
100
AcDbEntity
  8
1
  6
CONTINUOUS
 62
     4
100
AcDbCircle
 10
234.5
 20
183.0
 30
0.0
 40
3.5
  0
ARC
  5
495
100
AcDbEntity
  8
1
  6
CONTINUOUS
 62
     4
100
AcDbCircle
 10
234.5
 20
183.0
 30
0.0
 40
4.25
100
AcDbArc
 50
166.965719
 51
-76.965719
  0
ARC
  5
496
100
AcDbEntity
  8
1
  6
CONTINUOUS
 62
     4
100
AcDbCircle
 10
241.747845
 20
175.752156
 30
0.0
 40
1.75
100
AcDbArc
 50
-135.0
 51
45.0
  0
ARC
  5
497
100
AcDbEntity
  8
1
  6
CONTINUOUS
 62
     4
100
AcDbCircle
 10
241.747845
 20
175.752156
 30
0.0
 40
2.25
100
AcDbArc
 50
-135.0
 51
45.0
  0
ARC
  5
498
100
AcDbEntity
  8
1
  6
CONTINUOUS
 62
     4
100
AcDbCircle
 10
227.252156
 20
190.247845
 30
0.0
 40
2.25
100
AcDbArc
 50
45.0
 51
-135.0
  0
ARC
  5
499
100
AcDbEntity
  8
1
  6
CONTINUOUS
 62
     4
100
AcDbCircle
 10
227.252156
 20
190.247845
 30
0.0
 40
1.75
100
AcDbArc
 50
45.0
 51
-135.0
  0
LINE
  5
49A
100
AcDbEntity
  8
1
  6
CONTINUOUS
 62
     4
100
AcDbLine
 10
235.405867
 20
179.61926
 30
0.0
 11
240.510408
 21
174.514719
 31
0.0
  0
LINE
  5
49B
100
AcDbEntity
  8
1
  6
CONTINUOUS
 62
     4
100
AcDbLine
 10
237.880741
 20
182.094133
 30
0.0
 11
242.985282
 21
176.989592
 31
0.0
  0
LINE
  5
49C
100
AcDbEntity
  8
1
  6
CONTINUOUS
 62
     4
100
AcDbLine
 10
238.6405
 20
182.041481
 30
0.0
 11
243.338835
 21
177.343146
 31
0.0
  0
LINE
  5
49D
100
AcDbEntity
  8
1
  6
CONTINUOUS
 62
     4
100
AcDbLine
 10
235.45852
 20
178.8595
 30
0.0
 11
240.156854
 21
174.161165
 31
0.0
  0
LINE
  5
49E
100
AcDbEntity
  8
1
  6
CONTINUOUS
 62
     4
100
AcDbLine
 10
231.11926
 20
183.905867
 30
0.0
 11
230.3595
 21
183.95852
 31
0.0
  0
LINE
  5
49F
100
AcDbEntity
  8
1
  6
CONTINUOUS
 62
     4
100
AcDbLine
 10
233.594133
 20
186.38074
 30
0.0
 11
233.541481
 21
187.1405
 31
0.0
  0
LINE
  5
4A0
100
AcDbEntity
  8
1
  6
CONTINUOUS
 62
     4
100
AcDbLine
 10
238.6405
 20
182.041481
 30
0.0
 11
237.880741
 21
182.094133
 31
0.0
  0
LINE
  5
4A1
100
AcDbEntity
  8
1
  6
CONTINUOUS
 62
     4
100
AcDbLine
 10
235.405867
 20
179.61926
 30
0.0
 11
235.45852
 21
178.8595
 31
0.0
  0
ARC
  5
4A2
100
AcDbEntity
  8
1
  6
CONTINUOUS
 62
     4
100
AcDbCircle
 10
234.5
 20
183.0
 30
0.0
 40
4.25
100
AcDbArc
 50
-13.034281
 51
103.034281
  0
LINE
  5
4A3
100
AcDbEntity
  8
20
  6
CONTINUOUS
 62
   250
100
AcDbLine
 10
261.11926
 20
183.905867
 30
0.0
 11
260.3595
 21
183.95852
 31
0.0
  0
INSERT
  5
4AF
100
AcDbEntity
  8
1
  6
CONTINUOUS
 62
     4
100
AcDbBlockReference
  2
*G19
 10
0.0
 20
0.0
 30
0.0
  0
LINE
  5
4B0
100
AcDbEntity
  8
1
  6
CONTINUOUS
 62
     4
100
AcDbLine
 10
292.0
 20
303.0
 30
0.0
 11
292.0
 21
310.0
 31
0.0
  0
LINE
  5
4B1
100
AcDbEntity
  8
1
  6
CONTINUOUS
 62
     4
100
AcDbLine
 10
293.5
 20
303.0
 30
0.0
 11
293.5
 21
310.0
 31
0.0
  0
LINE
  5
4B2
100
AcDbEntity
  8
1
  6
CONTINUOUS
 62
     4
100
AcDbLine
 10
263.0
 20
303.0
 30
0.0
 11
263.0
 21
310.0
 31
0.0
  0
LINE
  5
4B3
100
AcDbEntity
  8
1
  6
CONTINUOUS
 62
     4
100
AcDbLine
 10
261.5
 20
303.0
 30
0.0
 11
261.5
 21
310.0
 31
0.0
  0
LINE
  5
4B4
100
AcDbEntity
  8
1
  6
CONTINUOUS
 62
     4
100
AcDbLine
 10
293.54435
 20
303.0
 30
0.0
 11
293.54435
 21
297.0
 31
0.0
  0
LINE
  5
4B5
100
AcDbEntity
  8
1
  6
CONTINUOUS
 62
     4
100
AcDbLine
 10
297.24935
 20
303.0
 30
0.0
 11
297.24935
 21
297.0
 31
0.0
  0
LINE
  5
4B6
100
AcDbEntity
  8
1
  6
CONTINUOUS
 62
     4
100
AcDbLine
 10
281.205
 20
303.0
 30
0.0
 11
281.205
 21
297.0
 31
0.0
  0
LINE
  5
4B7
100
AcDbEntity
  8
1
  6
CONTINUOUS
 62
     4
100
AcDbLine
 10
273.795
 20
303.0
 30
0.0
 11
273.795
 21
297.0
 31
0.0
  0
LINE
  5
4B8
100
AcDbEntity
  8
1
  6
CONTINUOUS
 62
     4
100
AcDbLine
 10
261.45565
 20
303.0
 30
0.0
 11
261.45565
 21
297.0
 31
0.0
  0
LINE
  5
4B9
100
AcDbEntity
  8
1
  6
CONTINUOUS
 62
     4
100
AcDbLine
 10
257.75065
 20
303.0
 30
0.0
 11
257.75065
 21
297.0
 31
0.0
  0
INSERT
  5
4C1
100
AcDbEntity
  8
1
  6
CONTINUOUS
 62
     4
100
AcDbBlockReference
  2
*G20
 10
0.0
 20
0.0
 30
0.0
  0
LINE
  5
4C2
100
AcDbEntity
  8
1
  6
CONTINUOUS
 62
     4
100
AcDbLine
 10
232.491377
 20
309.2
 30
0.0
 11
232.491377
 21
304.0
 31
0.0
  0
LINE
  5
4C3
100
AcDbEntity
  8
1
  6
CONTINUOUS
 62
     4
100
AcDbLine
 10
235.491377
 20
309.2
 30
0.0
 11
235.491377
 21
304.0
 31
0.0
  0
LINE
  5
4C4
100
AcDbEntity
  8
1
  6
CONTINUOUS
 62
     4
100
AcDbLine
 10
222.5
 20
309.2
 30
0.0
 11
222.5
 21
304.0
 31
0.0
  0
LINE
  5
4C5
100
AcDbEntity
  8
1
  6
CONTINUOUS
 62
     4
100
AcDbLine
 10
216.5
 20
309.2
 30
0.0
 11
216.5
 21
304.0
 31
0.0
  0
LINE
  5
4C6
100
AcDbEntity
  8
1
  6
CONTINUOUS
 62
     4
100
AcDbLine
 10
206.508623
 20
309.2
 30
0.0
 11
206.508623
 21
304.0
 31
0.0
  0
LINE
  5
4C7
100
AcDbEntity
  8
1
  6
CONTINUOUS
 62
     4
100
AcDbLine
 10
203.508623
 20
309.2
 30
0.0
 11
203.508623
 21
304.0
 31
0.0
  0
INSERT
  5
4CF
100
AcDbEntity
  8
1
  6
CONTINUOUS
 62
     4
100
AcDbBlockReference
  2
*G21
 10
0.0
 20
0.0
 30
0.0
  0
LINE
  5
4D0
100
AcDbEntity
  8
1
  6
CONTINUOUS
 62
     4
100
AcDbLine
 10
231.5
 20
314.0
 30
0.0
 11
231.5
 21
309.2
 31
0.0
  0
LINE
  5
4D1
100
AcDbEntity
  8
1
  6
CONTINUOUS
 62
     4
100
AcDbLine
 10
232.5
 20
314.0
 30
0.0
 11
232.5
 21
309.2
 31
0.0
  0
LINE
  5
4D2
100
AcDbEntity
  8
1
  6
CONTINUOUS
 62
     4
100
AcDbLine
 10
207.5
 20
314.0
 30
0.0
 11
207.5
 21
309.2
 31
0.0
  0
LINE
  5
4D3
100
AcDbEntity
  8
1
  6
CONTINUOUS
 62
     4
100
AcDbLine
 10
206.5
 20
314.0
 30
0.0
 11
206.5
 21
309.2
 31
0.0
  0
INSERT
  5
4DB
100
AcDbEntity
  8
1
  6
CONTINUOUS
 62
     4
100
AcDbBlockReference
  2
*G22
 10
0.0
 20
0.0
 30
0.0
  0
LINE
  5
4DC
100
AcDbEntity
  8
1
  6
CONTINUOUS
 62
     4
100
AcDbLine
 10
182.491377
 20
309.2
 30
0.0
 11
182.491377
 21
304.0
 31
0.0
  0
LINE
  5
4DD
100
AcDbEntity
  8
1
  6
CONTINUOUS
 62
     4
100
AcDbLine
 10
185.491377
 20
309.2
 30
0.0
 11
185.491377
 21
304.0
 31
0.0
  0
LINE
  5
4DE
100
AcDbEntity
  8
1
  6
CONTINUOUS
 62
     4
100
AcDbLine
 10
172.5
 20
309.2
 30
0.0
 11
172.5
 21
304.0
 31
0.0
  0
LINE
  5
4DF
100
AcDbEntity
  8
1
  6
CONTINUOUS
 62
     4
100
AcDbLine
 10
166.5
 20
309.2
 30
0.0
 11
166.5
 21
304.0
 31
0.0
  0
LINE
  5
4E0
100
AcDbEntity
  8
1
  6
CONTINUOUS
 62
     4
100
AcDbLine
 10
156.508623
 20
309.2
 30
0.0
 11
156.508623
 21
304.0
 31
0.0
  0
LINE
  5
4E1
100
AcDbEntity
  8
1
  6
CONTINUOUS
 62
     4
100
AcDbLine
 10
153.508623
 20
309.2
 30
0.0
 11
153.508623
 21
304.0
 31
0.0
  0
INSERT
  5
4E9
100
AcDbEntity
  8
1
  6
CONTINUOUS
 62
     4
100
AcDbBlockReference
  2
*G23
 10
0.0
 20
0.0
 30
0.0
  0
LINE
  5
4EA
100
AcDbEntity
  8
1
  6
CONTINUOUS
 62
     4
100
AcDbLine
 10
181.5
 20
314.0
 30
0.0
 11
181.5
 21
309.2
 31
0.0
  0
LINE
  5
4EB
100
AcDbEntity
  8
1
  6
CONTINUOUS
 62
     4
100
AcDbLine
 10
182.5
 20
314.0
 30
0.0
 11
182.5
 21
309.2
 31
0.0
  0
LINE
  5
4EC
100
AcDbEntity
  8
1
  6
CONTINUOUS
 62
     4
100
AcDbLine
 10
157.5
 20
314.0
 30
0.0
 11
157.5
 21
309.2
 31
0.0
  0
LINE
  5
4ED
100
AcDbEntity
  8
1
  6
CONTINUOUS
 62
     4
100
AcDbLine
 10
156.5
 20
314.0
 30
0.0
 11
156.5
 21
309.2
 31
0.0
  0
INSERT
  5
4F5
100
AcDbEntity
  8
1
  6
CONTINUOUS
 62
     4
100
AcDbBlockReference
  2
*G24
 10
0.0
 20
0.0
 30
0.0
  0
LINE
  5
4F6
100
AcDbEntity
  8
1
  6
CONTINUOUS
 62
     4
100
AcDbLine
 10
132.491377
 20
309.2
 30
0.0
 11
132.491377
 21
304.0
 31
0.0
  0
LINE
  5
4F7
100
AcDbEntity
  8
1
  6
CONTINUOUS
 62
     4
100
AcDbLine
 10
135.491377
 20
309.2
 30
0.0
 11
135.491377
 21
304.0
 31
0.0
  0
LINE
  5
4F8
100
AcDbEntity
  8
1
  6
CONTINUOUS
 62
     4
100
AcDbLine
 10
122.5
 20
309.2
 30
0.0
 11
122.5
 21
304.0
 31
0.0
  0
LINE
  5
4F9
100
AcDbEntity
  8
1
  6
CONTINUOUS
 62
     4
100
AcDbLine
 10
116.5
 20
309.2
 30
0.0
 11
116.5
 21
304.0
 31
0.0
  0
LINE
  5
4FA
100
AcDbEntity
  8
1
  6
CONTINUOUS
 62
     4
100
AcDbLine
 10
106.508623
 20
309.2
 30
0.0
 11
106.508623
 21
304.0
 31
0.0
  0
LINE
  5
4FB
100
AcDbEntity
  8
1
  6
CONTINUOUS
 62
     4
100
AcDbLine
 10
103.508623
 20
309.2
 30
0.0
 11
103.508623
 21
304.0
 31
0.0
  0
INSERT
  5
503
100
AcDbEntity
  8
1
  6
CONTINUOUS
 62
     4
100
AcDbBlockReference
  2
*G25
 10
0.0
 20
0.0
 30
0.0
  0
LINE
  5
504
100
AcDbEntity
  8
1
  6
CONTINUOUS
 62
     4
100
AcDbLine
 10
131.5
 20
314.0
 30
0.0
 11
131.5
 21
309.2
 31
0.0
  0
LINE
  5
505
100
AcDbEntity
  8
1
  6
CONTINUOUS
 62
     4
100
AcDbLine
 10
132.5
 20
314.0
 30
0.0
 11
132.5
 21
309.2
 31
0.0
  0
LINE
  5
506
100
AcDbEntity
  8
1
  6
CONTINUOUS
 62
     4
100
AcDbLine
 10
107.5
 20
314.0
 30
0.0
 11
107.5
 21
309.2
 31
0.0
  0
LINE
  5
507
100
AcDbEntity
  8
1
  6
CONTINUOUS
 62
     4
100
AcDbLine
 10
106.5
 20
314.0
 30
0.0
 11
106.5
 21
309.2
 31
0.0
  0
INSERT
  5
50F
100
AcDbEntity
  8
1
  6
CONTINUOUS
 62
     4
100
AcDbBlockReference
  2
*G26
 10
0.0
 20
0.0
 30
0.0
  0
INSERT
  5
517
100
AcDbEntity
  8
1
  6
CONTINUOUS
 62
     4
100
AcDbBlockReference
  2
*G27
 10
0.0
 20
0.0
 30
0.0
  0
CIRCLE
  5
518
100
AcDbEntity
  8
1
  6
CONTINUOUS
 62
     4
100
AcDbCircle
 10
80.0
 20
351.0
 30
0.0
 40
4.0
  0
LINE
  5
519
100
AcDbEntity
  8
1
  6
CONTINUOUS
 62
     4
100
AcDbLine
 10
82.12132
 20
353.12132
 30
0.0
 11
77.87868
 21
348.87868
 31
0.0
  0
LINE
  5
51A
100
AcDbEntity
  8
1
  6
CONTINUOUS
 62
     4
100
AcDbLine
 10
82.12132
 20
348.87868
 30
0.0
 11
77.87868
 21
353.12132
 31
0.0
  0
CIRCLE
  5
51B
100
AcDbEntity
  8
1
  6
CONTINUOUS
 62
     4
100
AcDbCircle
 10
80.0
 20
351.0
 30
0.0
 40
6.0
  0
CIRCLE
  5
51C
100
AcDbEntity
  8
1
  6
CONTINUOUS
 62
     4
100
AcDbCircle
 10
320.0
 20
351.0
 30
0.0
 40
4.0
  0
LINE
  5
51D
100
AcDbEntity
  8
1
  6
CONTINUOUS
 62
     4
100
AcDbLine
 10
317.87868
 20
353.12132
 30
0.0
 11
322.12132
 21
348.87868
 31
0.0
  0
LINE
  5
51E
100
AcDbEntity
  8
1
  6
CONTINUOUS
 62
     4
100
AcDbLine
 10
317.87868
 20
348.87868
 30
0.0
 11
322.12132
 21
353.12132
 31
0.0
  0
CIRCLE
  5
51F
100
AcDbEntity
  8
1
  6
CONTINUOUS
 62
     4
100
AcDbCircle
 10
320.0
 20
351.0
 30
0.0
 40
6.0
  0
CIRCLE
  5
520
100
AcDbEntity
  8
1
  6
CONTINUOUS
 62
     4
100
AcDbCircle
 10
80.0
 20
491.0
 30
0.0
 40
4.0
  0
LINE
  5
521
100
AcDbEntity
  8
1
  6
CONTINUOUS
 62
     4
100
AcDbLine
 10
82.12132
 20
488.87868
 30
0.0
 11
77.87868
 21
493.12132
 31
0.0
  0
LINE
  5
522
100
AcDbEntity
  8
1
  6
CONTINUOUS
 62
     4
100
AcDbLine
 10
82.12132
 20
493.12132
 30
0.0
 11
77.87868
 21
488.87868
 31
0.0
  0
CIRCLE
  5
523
100
AcDbEntity
  8
1
  6
CONTINUOUS
 62
     4
100
AcDbCircle
 10
80.0
 20
491.0
 30
0.0
 40
6.0
  0
CIRCLE
  5
524
100
AcDbEntity
  8
1
  6
CONTINUOUS
 62
     4
100
AcDbCircle
 10
320.0
 20
351.0
 30
0.0
 40
4.0
  0
LINE
  5
525
100
AcDbEntity
  8
1
  6
CONTINUOUS
 62
     4
100
AcDbLine
 10
317.87868
 20
353.12132
 30
0.0
 11
322.12132
 21
348.87868
 31
0.0
  0
LINE
  5
526
100
AcDbEntity
  8
1
  6
CONTINUOUS
 62
     4
100
AcDbLine
 10
317.87868
 20
348.87868
 30
0.0
 11
322.12132
 21
353.12132
 31
0.0
  0
CIRCLE
  5
527
100
AcDbEntity
  8
1
  6
CONTINUOUS
 62
     4
100
AcDbCircle
 10
320.0
 20
351.0
 30
0.0
 40
6.0
  0
CIRCLE
  5
528
100
AcDbEntity
  8
1
  6
CONTINUOUS
 62
     4
100
AcDbCircle
 10
320.0
 20
491.0
 30
0.0
 40
4.0
  0
LINE
  5
529
100
AcDbEntity
  8
1
  6
CONTINUOUS
 62
     4
100
AcDbLine
 10
317.87868
 20
488.87868
 30
0.0
 11
322.12132
 21
493.12132
 31
0.0
  0
LINE
  5
52A
100
AcDbEntity
  8
1
  6
CONTINUOUS
 62
     4
100
AcDbLine
 10
317.87868
 20
493.12132
 30
0.0
 11
322.12132
 21
488.87868
 31
0.0
  0
CIRCLE
  5
52B
100
AcDbEntity
  8
1
  6
CONTINUOUS
 62
     4
100
AcDbCircle
 10
320.0
 20
491.0
 30
0.0
 40
6.0
  0
CIRCLE
  5
52C
100
AcDbEntity
  8
1
  6
HIDDEN
 62
     4
100
AcDbCircle
 10
80.0
 20
366.0
 30
0.0
 40
7.2
  0
CIRCLE
  5
52D
100
AcDbEntity
  8
1
  6
HIDDEN
 62
     4
100
AcDbCircle
 10
80.0
 20
366.0
 30
0.0
 40
3.15
  0
CIRCLE
  5
52E
100
AcDbEntity
  8
1
  6
HIDDEN
 62
     4
100
AcDbCircle
 10
320.0
 20
366.0
 30
0.0
 40
7.2
  0
CIRCLE
  5
52F
100
AcDbEntity
  8
1
  6
HIDDEN
 62
     4
100
AcDbCircle
 10
320.0
 20
366.0
 30
0.0
 40
3.15
  0
CIRCLE
  5
530
100
AcDbEntity
  8
1
  6
HIDDEN
 62
     4
100
AcDbCircle
 10
80.0
 20
476.0
 30
0.0
 40
7.2
  0
CIRCLE
  5
531
100
AcDbEntity
  8
1
  6
HIDDEN
 62
     4
100
AcDbCircle
 10
80.0
 20
476.0
 30
0.0
 40
3.15
  0
CIRCLE
  5
532
100
AcDbEntity
  8
1
  6
HIDDEN
 62
     4
100
AcDbCircle
 10
320.0
 20
476.0
 30
0.0
 40
7.2
  0
CIRCLE
  5
533
100
AcDbEntity
  8
1
  6
HIDDEN
 62
     4
100
AcDbCircle
 10
320.0
 20
476.0
 30
0.0
 40
3.15
  0
INSERT
  5
53F
100
AcDbEntity
  8
1
  6
CONTINUOUS
 62
     4
100
AcDbBlockReference
  2
*G28
 10
0.0
 20
0.0
 30
0.0
  0
INSERT
  5
547
100
AcDbEntity
  8
1
  6
CONTINUOUS
 62
     4
100
AcDbBlockReference
  2
*G29
 10
0.0
 20
0.0
 30
0.0
  0
INSERT
  5
54F
100
AcDbEntity
  8
1
  6
CONTINUOUS
 62
     4
100
AcDbBlockReference
  2
*G30
 10
0.0
 20
0.0
 30
0.0
  0
INSERT
  5
55B
100
AcDbEntity
  8
1
  6
CONTINUOUS
 62
     4
100
AcDbBlockReference
  2
*G31
 10
0.0
 20
0.0
 30
0.0
  0
LINE
  5
55C
100
AcDbEntity
  8
1
  6
CONTINUOUS
 62
     4
100
AcDbLine
 10
70.0
 20
241.0
 30
0.0
 11
330.0
 21
241.0
 31
0.0
  0
LINE
  5
55D
100
AcDbEntity
  8
1
  6
CONTINUOUS
 62
     4
100
AcDbLine
 10
290.621079
 20
228.853624
 30
0.0
 11
293.54435
 21
230.541375
 31
0.0
  0
LINE
  5
55E
100
AcDbEntity
  8
1
  6
CONTINUOUS
 62
     4
100
AcDbLine
 10
294.326079
 20
222.436376
 30
0.0
 11
290.621079
 21
228.853624
 31
0.0
  0
LINE
  5
55F
100
AcDbEntity
  8
1
  6
CONTINUOUS
 62
     4
100
AcDbLine
 10
297.24935
 20
224.124127
 30
0.0
 11
294.326079
 21
222.436376
 31
0.0
  0
LINE
  5
560
100
AcDbEntity
  8
1
  6
CONTINUOUS
 62
     4
100
AcDbLine
 10
260.673921
 20
211.563624
 30
0.0
 11
257.75065
 21
209.875873
 31
0.0
  0
LINE
  5
561
100
AcDbEntity
  8
1
  6
CONTINUOUS
 62
     4
100
AcDbLine
 10
264.378921
 20
205.146376
 30
0.0
 11
260.673921
 21
211.563624
 31
0.0
  0
LINE
  5
562
100
AcDbEntity
  8
1
  6
CONTINUOUS
 62
     4
100
AcDbLine
 10
261.45565
 20
203.458625
 30
0.0
 11
264.378921
 21
205.146376
 31
0.0
  0
LINE
  5
563
100
AcDbEntity
  8
1
  6
CONTINUOUS
 62
     4
100
AcDbLine
 10
294.326079
 20
211.563624
 30
0.0
 11
297.24935
 21
209.875873
 31
0.0
  0
LINE
  5
564
100
AcDbEntity
  8
1
  6
CONTINUOUS
 62
     4
100
AcDbLine
 10
290.621079
 20
205.146376
 30
0.0
 11
294.326079
 21
211.563624
 31
0.0
  0
LINE
  5
565
100
AcDbEntity
  8
1
  6
CONTINUOUS
 62
     4
100
AcDbLine
 10
293.54435
 20
203.458625
 30
0.0
 11
290.621079
 21
205.146376
 31
0.0
  0
LINE
  5
566
100
AcDbEntity
  8
1
  6
CONTINUOUS
 62
     4
100
AcDbLine
 10
264.378921
 20
228.853624
 30
0.0
 11
261.45565
 21
230.541375
 31
0.0
  0
LINE
  5
567
100
AcDbEntity
  8
1
  6
CONTINUOUS
 62
     4
100
AcDbLine
 10
260.673921
 20
222.436376
 30
0.0
 11
264.378921
 21
228.853624
 31
0.0
  0
LINE
  5
568
100
AcDbEntity
  8
1
  6
CONTINUOUS
 62
     4
100
AcDbLine
 10
257.75065
 20
224.124127
 30
0.0
 11
260.673921
 21
222.436376
 31
0.0
  0
LINE
  5
569
100
AcDbEntity
  8
1
  6
CONTINUOUS
 62
     4
100
AcDbLine
 10
281.205
 20
199.71
 30
0.0
 11
281.205
 21
196.334497
 31
0.0
  0
LINE
  5
56A
100
AcDbEntity
  8
1
  6
CONTINUOUS
 62
     4
100
AcDbLine
 10
273.795
 20
199.71
 30
0.0
 11
281.205
 21
199.71
 31
0.0
  0
LINE
  5
56B
100
AcDbEntity
  8
1
  6
CONTINUOUS
 62
     4
100
AcDbLine
 10
273.795
 20
196.334497
 30
0.0
 11
273.795
 21
199.71
 31
0.0
  0
LINE
  5
56C
100
AcDbEntity
  8
1
  6
CONTINUOUS
 62
     4
100
AcDbLine
 10
281.205
 20
234.29
 30
0.0
 11
281.205
 21
237.665503
 31
0.0
  0
LINE
  5
56D
100
AcDbEntity
  8
1
  6
CONTINUOUS
 62
     4
100
AcDbLine
 10
273.795
 20
234.29
 30
0.0
 11
281.205
 21
234.29
 31
0.0
  0
LINE
  5
56E
100
AcDbEntity
  8
1
  6
CONTINUOUS
 62
     4
100
AcDbLine
 10
273.795
 20
237.665503
 30
0.0
 11
273.795
 21
234.29
 31
0.0
  0
CIRCLE
  5
56F
100
AcDbEntity
  8
1
  6
CONTINUOUS
 62
     4
100
AcDbCircle
 10
277.5
 20
217.0
 30
0.0
 40
12.35
  0
CIRCLE
  5
570
100
AcDbEntity
  8
1
  6
CONTINUOUS
 62
     4
100
AcDbCircle
 10
277.5
 20
217.0
 30
0.0
 40
20.995
  0
LINE
  5
571
100
AcDbEntity
  8
1
  6
CONTINUOUS
 62
     4
100
AcDbLine
 10
230.124356
 20
224.198076
 30
0.0
 11
232.491377
 21
225.564676
 31
0.0
  0
LINE
  5
572
100
AcDbEntity
  8
1
  6
CONTINUOUS
 62
     4
100
AcDbLine
 10
233.124356
 20
219.001924
 30
0.0
 11
230.124356
 21
224.198076
 31
0.0
  0
LINE
  5
573
100
AcDbEntity
  8
1
  6
CONTINUOUS
 62
     4
100
AcDbLine
 10
235.491377
 20
220.368524
 30
0.0
 11
233.124356
 21
219.001924
 31
0.0
  0
LINE
  5
574
100
AcDbEntity
  8
1
  6
CONTINUOUS
 62
     4
100
AcDbLine
 10
205.875644
 20
210.198076
 30
0.0
 11
203.508623
 21
208.831476
 31
0.0
  0
LINE
  5
575
100
AcDbEntity
  8
1
  6
CONTINUOUS
 62
     4
100
AcDbLine
 10
208.875644
 20
205.001924
 30
0.0
 11
205.875644
 21
210.198076
 31
0.0
  0
LINE
  5
576
100
AcDbEntity
  8
1
  6
CONTINUOUS
 62
     4
100
AcDbLine
 10
206.508623
 20
203.635324
 30
0.0
 11
208.875644
 21
205.001924
 31
0.0
  0
LINE
  5
577
100
AcDbEntity
  8
1
  6
CONTINUOUS
 62
     4
100
AcDbLine
 10
233.124356
 20
210.198076
 30
0.0
 11
235.491377
 21
208.831476
 31
0.0
  0
LINE
  5
578
100
AcDbEntity
  8
1
  6
CONTINUOUS
 62
     4
100
AcDbLine
 10
230.124356
 20
205.001924
 30
0.0
 11
233.124356
 21
210.198076
 31
0.0
  0
LINE
  5
579
100
AcDbEntity
  8
1
  6
CONTINUOUS
 62
     4
100
AcDbLine
 10
232.491377
 20
203.635324
 30
0.0
 11
230.124356
 21
205.001924
 31
0.0
  0
LINE
  5
57A
100
AcDbEntity
  8
1
  6
CONTINUOUS
 62
     4
100
AcDbLine
 10
208.875644
 20
224.198076
 30
0.0
 11
206.508623
 21
225.564676
 31
0.0
  0
LINE
  5
57B
100
AcDbEntity
  8
1
  6
CONTINUOUS
 62
     4
100
AcDbLine
 10
205.875644
 20
219.001924
 30
0.0
 11
208.875644
 21
224.198076
 31
0.0
  0
LINE
  5
57C
100
AcDbEntity
  8
1
  6
CONTINUOUS
 62
     4
100
AcDbLine
 10
203.508623
 20
220.368524
 30
0.0
 11
205.875644
 21
219.001924
 31
0.0
  0
LINE
  5
57D
100
AcDbEntity
  8
1
  6
CONTINUOUS
 62
     4
100
AcDbLine
 10
222.5
 20
200.6
 30
0.0
 11
222.5
 21
197.866799
 31
0.0
  0
LINE
  5
57E
100
AcDbEntity
  8
1
  6
CONTINUOUS
 62
     4
100
AcDbLine
 10
216.5
 20
200.6
 30
0.0
 11
222.5
 21
200.6
 31
0.0
  0
LINE
  5
57F
100
AcDbEntity
  8
1
  6
CONTINUOUS
 62
     4
100
AcDbLine
 10
216.5
 20
197.866799
 30
0.0
 11
216.5
 21
200.6
 31
0.0
  0
LINE
  5
580
100
AcDbEntity
  8
1
  6
CONTINUOUS
 62
     4
100
AcDbLine
 10
222.5
 20
228.6
 30
0.0
 11
222.5
 21
231.333201
 31
0.0
  0
LINE
  5
581
100
AcDbEntity
  8
1
  6
CONTINUOUS
 62
     4
100
AcDbLine
 10
216.5
 20
228.6
 30
0.0
 11
222.5
 21
228.6
 31
0.0
  0
LINE
  5
582
100
AcDbEntity
  8
1
  6
CONTINUOUS
 62
     4
100
AcDbLine
 10
216.5
 20
231.333201
 30
0.0
 11
216.5
 21
228.6
 31
0.0
  0
CIRCLE
  5
583
100
AcDbEntity
  8
1
  6
CONTINUOUS
 62
     4
100
AcDbCircle
 10
219.5
 20
214.6
 30
0.0
 40
10.0
  0
CIRCLE
  5
584
100
AcDbEntity
  8
1
  6
CONTINUOUS
 62
     4
100
AcDbCircle
 10
219.5
 20
214.6
 30
0.0
 40
17.0
  0
LINE
  5
585
100
AcDbEntity
  8
1
  6
CONTINUOUS
 62
     4
100
AcDbLine
 10
180.124356
 20
224.198076
 30
0.0
 11
182.491377
 21
225.564676
 31
0.0
  0
LINE
  5
586
100
AcDbEntity
  8
1
  6
CONTINUOUS
 62
     4
100
AcDbLine
 10
183.124356
 20
219.001924
 30
0.0
 11
180.124356
 21
224.198076
 31
0.0
  0
LINE
  5
587
100
AcDbEntity
  8
1
  6
CONTINUOUS
 62
     4
100
AcDbLine
 10
185.491377
 20
220.368524
 30
0.0
 11
183.124356
 21
219.001924
 31
0.0
  0
LINE
  5
588
100
AcDbEntity
  8
1
  6
CONTINUOUS
 62
     4
100
AcDbLine
 10
155.875644
 20
210.198076
 30
0.0
 11
153.508623
 21
208.831476
 31
0.0
  0
LINE
  5
589
100
AcDbEntity
  8
1
  6
CONTINUOUS
 62
     4
100
AcDbLine
 10
158.875644
 20
205.001924
 30
0.0
 11
155.875644
 21
210.198076
 31
0.0
  0
LINE
  5
58A
100
AcDbEntity
  8
1
  6
CONTINUOUS
 62
     4
100
AcDbLine
 10
156.508623
 20
203.635324
 30
0.0
 11
158.875644
 21
205.001924
 31
0.0
  0
LINE
  5
58B
100
AcDbEntity
  8
1
  6
CONTINUOUS
 62
     4
100
AcDbLine
 10
183.124356
 20
210.198076
 30
0.0
 11
185.491377
 21
208.831476
 31
0.0
  0
LINE
  5
58C
100
AcDbEntity
  8
1
  6
CONTINUOUS
 62
     4
100
AcDbLine
 10
180.124356
 20
205.001924
 30
0.0
 11
183.124356
 21
210.198076
 31
0.0
  0
LINE
  5
58D
100
AcDbEntity
  8
1
  6
CONTINUOUS
 62
     4
100
AcDbLine
 10
182.491377
 20
203.635324
 30
0.0
 11
180.124356
 21
205.001924
 31
0.0
  0
LINE
  5
58E
100
AcDbEntity
  8
1
  6
CONTINUOUS
 62
     4
100
AcDbLine
 10
158.875644
 20
224.198076
 30
0.0
 11
156.508623
 21
225.564676
 31
0.0
  0
LINE
  5
58F
100
AcDbEntity
  8
1
  6
CONTINUOUS
 62
     4
100
AcDbLine
 10
155.875644
 20
219.001924
 30
0.0
 11
158.875644
 21
224.198076
 31
0.0
  0
LINE
  5
590
100
AcDbEntity
  8
1
  6
CONTINUOUS
 62
     4
100
AcDbLine
 10
153.508623
 20
220.368524
 30
0.0
 11
155.875644
 21
219.001924
 31
0.0
  0
LINE
  5
591
100
AcDbEntity
  8
1
  6
CONTINUOUS
 62
     4
100
AcDbLine
 10
172.5
 20
200.6
 30
0.0
 11
172.5
 21
197.866799
 31
0.0
  0
LINE
  5
592
100
AcDbEntity
  8
1
  6
CONTINUOUS
 62
     4
100
AcDbLine
 10
166.5
 20
200.6
 30
0.0
 11
172.5
 21
200.6
 31
0.0
  0
LINE
  5
593
100
AcDbEntity
  8
1
  6
CONTINUOUS
 62
     4
100
AcDbLine
 10
166.5
 20
197.866799
 30
0.0
 11
166.5
 21
200.6
 31
0.0
  0
LINE
  5
594
100
AcDbEntity
  8
1
  6
CONTINUOUS
 62
     4
100
AcDbLine
 10
172.5
 20
228.6
 30
0.0
 11
172.5
 21
231.333201
 31
0.0
  0
LINE
  5
595
100
AcDbEntity
  8
1
  6
CONTINUOUS
 62
     4
100
AcDbLine
 10
166.5
 20
228.6
 30
0.0
 11
172.5
 21
228.6
 31
0.0
  0
LINE
  5
596
100
AcDbEntity
  8
1
  6
CONTINUOUS
 62
     4
100
AcDbLine
 10
166.5
 20
231.333201
 30
0.0
 11
166.5
 21
228.6
 31
0.0
  0
CIRCLE
  5
597
100
AcDbEntity
  8
1
  6
CONTINUOUS
 62
     4
100
AcDbCircle
 10
169.5
 20
214.6
 30
0.0
 40
10.0
  0
CIRCLE
  5
598
100
AcDbEntity
  8
1
  6
CONTINUOUS
 62
     4
100
AcDbCircle
 10
169.5
 20
214.6
 30
0.0
 40
17.0
  0
LINE
  5
599
100
AcDbEntity
  8
1
  6
CONTINUOUS
 62
     4
100
AcDbLine
 10
130.124356
 20
224.198076
 30
0.0
 11
132.491377
 21
225.564676
 31
0.0
  0
LINE
  5
59A
100
AcDbEntity
  8
1
  6
CONTINUOUS
 62
     4
100
AcDbLine
 10
133.124356
 20
219.001924
 30
0.0
 11
130.124356
 21
224.198076
 31
0.0
  0
LINE
  5
59B
100
AcDbEntity
  8
1
  6
CONTINUOUS
 62
     4
100
AcDbLine
 10
135.491377
 20
220.368524
 30
0.0
 11
133.124356
 21
219.001924
 31
0.0
  0
LINE
  5
59C
100
AcDbEntity
  8
1
  6
CONTINUOUS
 62
     4
100
AcDbLine
 10
105.875644
 20
210.198076
 30
0.0
 11
103.508623
 21
208.831476
 31
0.0
  0
LINE
  5
59D
100
AcDbEntity
  8
1
  6
CONTINUOUS
 62
     4
100
AcDbLine
 10
108.875644
 20
205.001924
 30
0.0
 11
105.875644
 21
210.198076
 31
0.0
  0
LINE
  5
59E
100
AcDbEntity
  8
1
  6
CONTINUOUS
 62
     4
100
AcDbLine
 10
106.508623
 20
203.635324
 30
0.0
 11
108.875644
 21
205.001924
 31
0.0
  0
LINE
  5
59F
100
AcDbEntity
  8
1
  6
CONTINUOUS
 62
     4
100
AcDbLine
 10
133.124356
 20
210.198076
 30
0.0
 11
135.491377
 21
208.831476
 31
0.0
  0
LINE
  5
5A0
100
AcDbEntity
  8
1
  6
CONTINUOUS
 62
     4
100
AcDbLine
 10
130.124356
 20
205.001924
 30
0.0
 11
133.124356
 21
210.198076
 31
0.0
  0
LINE
  5
5A1
100
AcDbEntity
  8
1
  6
CONTINUOUS
 62
     4
100
AcDbLine
 10
132.491377
 20
203.635324
 30
0.0
 11
130.124356
 21
205.001924
 31
0.0
  0
LINE
  5
5A2
100
AcDbEntity
  8
1
  6
CONTINUOUS
 62
     4
100
AcDbLine
 10
108.875644
 20
224.198076
 30
0.0
 11
106.508623
 21
225.564676
 31
0.0
  0
LINE
  5
5A3
100
AcDbEntity
  8
1
  6
CONTINUOUS
 62
     4
100
AcDbLine
 10
105.875644
 20
219.001924
 30
0.0
 11
108.875644
 21
224.198076
 31
0.0
  0
LINE
  5
5A4
100
AcDbEntity
  8
1
  6
CONTINUOUS
 62
     4
100
AcDbLine
 10
103.508623
 20
220.368524
 30
0.0
 11
105.875644
 21
219.001924
 31
0.0
  0
LINE
  5
5A5
100
AcDbEntity
  8
1
  6
CONTINUOUS
 62
     4
100
AcDbLine
 10
122.5
 20
200.6
 30
0.0
 11
122.5
 21
197.866799
 31
0.0
  0
LINE
  5
5A6
100
AcDbEntity
  8
1
  6
CONTINUOUS
 62
     4
100
AcDbLine
 10
116.5
 20
200.6
 30
0.0
 11
122.5
 21
200.6
 31
0.0
  0
LINE
  5
5A7
100
AcDbEntity
  8
1
  6
CONTINUOUS
 62
     4
100
AcDbLine
 10
116.5
 20
197.866799
 30
0.0
 11
116.5
 21
200.6
 31
0.0
  0
LINE
  5
5A8
100
AcDbEntity
  8
1
  6
CONTINUOUS
 62
     4
100
AcDbLine
 10
122.5
 20
228.6
 30
0.0
 11
122.5
 21
231.333201
 31
0.0
  0
LINE
  5
5A9
100
AcDbEntity
  8
1
  6
CONTINUOUS
 62
     4
100
AcDbLine
 10
116.5
 20
228.6
 30
0.0
 11
122.5
 21
228.6
 31
0.0
  0
LINE
  5
5AA
100
AcDbEntity
  8
1
  6
CONTINUOUS
 62
     4
100
AcDbLine
 10
116.5
 20
231.333201
 30
0.0
 11
116.5
 21
228.6
 31
0.0
  0
CIRCLE
  5
5AB
100
AcDbEntity
  8
1
  6
CONTINUOUS
 62
     4
100
AcDbCircle
 10
119.5
 20
214.6
 30
0.0
 40
10.0
  0
CIRCLE
  5
5AC
100
AcDbEntity
  8
1
  6
CONTINUOUS
 62
     4
100
AcDbCircle
 10
119.5
 20
214.6
 30
0.0
 40
17.0
  0
LINE
  5
5AD
100
AcDbEntity
  8
1
  6
CONTINUOUS
 62
     4
100
AcDbLine
 10
168.636396
 20
461.363604
 30
0.0
 11
167.363604
 21
462.636396
 31
0.0
  0
LINE
  5
5AE
100
AcDbEntity
  8
1
  6
CONTINUOUS
 62
     4
100
AcDbLine
 10
168.636396
 20
462.636396
 30
0.0
 11
167.363604
 21
461.363604
 31
0.0
  0
CIRCLE
  5
5AF
100
AcDbEntity
  8
1
  6
CONTINUOUS
 62
     4
100
AcDbCircle
 10
168.0
 20
462.0
 30
0.0
 40
1.5
  0
LINE
  5
5B0
100
AcDbEntity
  8
1
  6
CONTINUOUS
 62
     4
100
AcDbLine
 10
168.636396
 20
418.636396
 30
0.0
 11
167.363604
 21
417.363604
 31
0.0
  0
LINE
  5
5B1
100
AcDbEntity
  8
1
  6
CONTINUOUS
 62
     4
100
AcDbLine
 10
168.636396
 20
417.363604
 30
0.0
 11
167.363604
 21
418.636396
 31
0.0
  0
CIRCLE
  5
5B2
100
AcDbEntity
  8
1
  6
CONTINUOUS
 62
     4
100
AcDbCircle
 10
168.0
 20
418.0
 30
0.0
 40
1.5
  0
LINE
  5
5B3
100
AcDbEntity
  8
1
  6
CONTINUOUS
 62
     4
100
AcDbLine
 10
231.363604
 20
461.363604
 30
0.0
 11
232.636396
 21
462.636396
 31
0.0
  0
LINE
  5
5B4
100
AcDbEntity
  8
1
  6
CONTINUOUS
 62
     4
100
AcDbLine
 10
231.363604
 20
462.636396
 30
0.0
 11
232.636396
 21
461.363604
 31
0.0
  0
CIRCLE
  5
5B5
100
AcDbEntity
  8
1
  6
CONTINUOUS
 62
     4
100
AcDbCircle
 10
232.0
 20
462.0
 30
0.0
 40
1.5
  0
LINE
  5
5B6
100
AcDbEntity
  8
1
  6
CONTINUOUS
 62
     4
100
AcDbLine
 10
231.363604
 20
418.636396
 30
0.0
 11
232.636396
 21
417.363604
 31
0.0
  0
LINE
  5
5B7
100
AcDbEntity
  8
1
  6
CONTINUOUS
 62
     4
100
AcDbLine
 10
231.363604
 20
417.363604
 30
0.0
 11
232.636396
 21
418.636396
 31
0.0
  0
CIRCLE
  5
5B8
100
AcDbEntity
  8
1
  6
CONTINUOUS
 62
     4
100
AcDbCircle
 10
232.0
 20
418.0
 30
0.0
 40
1.5
  0
DIMENSION
  5
5C4
100
AcDbEntity
  8
7
  6
CONTINUOUS
 62
     4
100
AcDbDimension
  2
*D32
 10
298.5
 20
170.0
 30
0.0
 11
295.5
 21
176.5
 31
0.0
  1
13
100
AcDbAlignedDimension
 13
308.0
 23
170.0
 33
0.0
 14
266.5
 24
183.0
 34
0.0
 50
90.0
100
AcDbRotatedDimension
  0
INSERT
  5
5CC
100
AcDbEntity
  8
1
  6
CONTINUOUS
 62
     4
100
AcDbBlockReference
  2
*G33
 10
0.0
 20
0.0
 30
0.0
  0
ARC
  5
5CD
100
AcDbEntity
  8
1
  6
CONTINUOUS
 62
     4
100
AcDbCircle
 10
167.0
 20
261.732051
 30
0.0
 40
0.5
100
AcDbArc
 50
120.0
 51
-170.344695
  0
LINE
  5
5CE
100
AcDbEntity
  8
1
  6
CONTINUOUS
 62
     4
100
AcDbLine
 10
166.5
 20
261.732051
 30
0.0
 11
166.5
 21
261.5
 31
0.0
  0
ARC
  5
5CF
100
AcDbEntity
  8
1
  6
CONTINUOUS
 62
     4
100
AcDbCircle
 10
169.0
 20
261.732051
 30
0.0
 40
0.5
100
AcDbArc
 50
-9.655305
 51
60.0
  0
ARC
  5
5D0
100
AcDbEntity
  8
1
  6
CONTINUOUS
 62
     4
100
AcDbCircle
 10
168.0
 20
260.0
 30
0.0
 40
2.5
100
AcDbArc
 50
60.0
 51
120.0
  0
LINE
  5
5D1
100
AcDbEntity
  8
1
  6
CONTINUOUS
 62
     4
100
AcDbLine
 10
169.5
 20
261.732051
 30
0.0
 11
169.5
 21
261.5
 31
0.0
  0
ARC
  5
5D2
100
AcDbEntity
  8
1
  6
CONTINUOUS
 62
     4
100
AcDbCircle
 10
233.0
 20
261.732051
 30
0.0
 40
0.5
100
AcDbArc
 50
-9.655305
 51
60.0
  0
LINE
  5
5D3
100
AcDbEntity
  8
1
  6
CONTINUOUS
 62
     4
100
AcDbLine
 10
233.5
 20
261.732051
 30
0.0
 11
233.5
 21
261.5
 31
0.0
  0
ARC
  5
5D4
100
AcDbEntity
  8
1
  6
CONTINUOUS
 62
     4
100
AcDbCircle
 10
231.0
 20
261.732051
 30
0.0
 40
0.5
100
AcDbArc
 50
120.0
 51
-170.344695
  0
ARC
  5
5D5
100
AcDbEntity
  8
1
  6
CONTINUOUS
 62
     4
100
AcDbCircle
 10
232.0
 20
260.0
 30
0.0
 40
2.5
100
AcDbArc
 50
60.0
 51
120.0
  0
LINE
  5
5D6
100
AcDbEntity
  8
1
  6
CONTINUOUS
 62
     4
100
AcDbLine
 10
230.5
 20
261.732051
 30
0.0
 11
230.5
 21
261.5
 31
0.0
  0
TEXT
  5
5D7
100
AcDbEntity
  8
3
  6
CONTINUOUS
 62
     2
100
AcDbText
 10
71.368499
 20
22.025068
 30
0.0
 40
7.0
  1
C7242-G07- A
 41
0.544335
 11
71.368499
 21
22.025068
 31
0.0
100
AcDbText
 73
     1
  0
ENDSEC
  0
SECTION
  2
OBJECTS
  0
DICTIONARY
  5
19
100
AcDbDictionary
  3
ACAD_GROUP
350
1A
  3
ACAD_MLINESTYLE
350
1B
  0
DICTIONARY
  5
1A
102
{ACAD_REACTORS
330
19
102
}
100
AcDbDictionary
  0
DICTIONARY
  5
1B
102
{ACAD_REACTORS
330
19
102
}
100
AcDbDictionary
  3
STANDARD
350
1C
  0
MLINESTYLE
  5
1C
102
{ACAD_REACTORS
330
1B
102
}
100
AcDbMlineStyle
  2
STANDARD
 70
     0
  3

 62
     0
 51
90.0
 52
90.0
 71
     2
 49
0.5
 62
   256
  6
BYLAYER
 49
-0.5
 62
   256
  6
BYLAYER
  0
ENDSEC
  0
EOF
